#TITLE:Sonic Boom;
#SUBTITLE:;
#ARTIST:xRGTMx;
#TITLETRANSLIT:;
#SUBTITLETRANSLIT:;
#ARTISTTRANSLIT:;
#CREDIT:DMAxel;
#BANNER:Sonic Boom.png;
#BACKGROUND:Sonic Boom-bg.png;
#LYRICSPATH:Sonic Boom.lrc;
#CDTITLE:DMAxel original simfile.png;
#MUSIC:Sonic Boom.mp3;
#OFFSET:-0.020;
#SAMPLESTART:38.360;
#SAMPLELENGTH:12.000;
#SELECTABLE:YES;
#BPMS:0.000=200.000,192.000=100.000,224.000=400.000,352.000=200.000,356.000=400.000,484.000=100.000;
#STOPS:;
#BGCHANGES:;

//---------------dance-single - ----------------
#NOTES:
     dance-single:
     :
     Easy:
     5:
     0.270,0.640,0.050,0.128,0.004: // measure 1
0000
0000
0000
0000
,  // measure 2
0000
0000
0000
0000
,  // measure 3
0000
0000
0000
0000
,  // measure 4
0000
0000
0000
0000
,  // measure 5
0000
0000
0000
0000
,  // measure 6
0000
0000
0000
0000
,  // measure 7
0000
0000
0000
0000
,  // measure 8
0000
0000
0000
0000
,  // measure 9
1001
0000
1000
0000
,  // measure 10
0001
0000
0001
0000
,  // measure 11
0100
0000
0010
0000
,  // measure 12
1000
0000
1001
0000
,  // measure 13
1001
0000
0001
0000
,  // measure 14
0010
0000
0010
0000
,  // measure 15
0001
0000
0000
0000
,  // measure 16
0000
0000
0000
0000
,  // measure 17
1001
0000
0001
0000
,  // measure 18
0010
0001
0010
0000
,  // measure 19
0100
0000
1000
0000
,  // measure 20
0001
1000
0001
0000
,  // measure 21
1000
0000
1000
0000
,  // measure 22
0100
1000
0100
0000
,  // measure 23
1000
0000
0001
0000
,  // measure 24
1000
0000
0001
0000
,  // measure 25
0010
0001
0010
0000
,  // measure 26
0001
0000
0001
0000
,  // measure 27
1000
0100
1000
0000
,  // measure 28
0010
0000
0010
0000
,  // measure 29
1000
0001
1000
0000
,  // measure 30
1000
0000
1000
0000
,  // measure 31
0001
0000
0000
0000
,  // measure 32
0000
0000
0000
0000
,  // measure 33
1001
0000
0001
0010
,  // measure 34
0002
0000
2003
0000
,  // measure 35
3200
0000
0000
0000
,  // measure 36
0000
0300
0000
1000
,  // measure 37
0001
1000
0100
0010
,  // measure 38
0002
0000
2003
0000
,  // measure 39
0000
0000
0000
0000
,  // measure 40
3001
0010
0100
1000
,  // measure 41
0010
1000
0001
0000
,  // measure 42
0020
0000
0000
0000
,  // measure 43
0000
0000
0000
0000
,  // measure 44
0031
1000
0001
1000
,  // measure 45
0100
0000
1000
0010
,  // measure 46
0200
0000
0320
0000
,  // measure 47
0230
0000
0000
0000
,  // measure 48
0000
0000
0301
0010
,  // measure 49
0001
1000
0001
0001
,  // measure 50
2000
0000
0000
0000
0000
0000
0000
3010
,  // measure 51
0100
0000
0010
0000
1000
0000
0100
0000
1000
0000
0002
0000
0000
2000
0000
0000
,  // measure 52
0000
0000
0000
3003
0100
0010
0100
0010
,  // measure 53
0100
0000
0001
0010
0200
0000
0000
0000
,  // measure 54
0000
0000
0000
0300
1000
0000
1000
0000
,  // measure 55
1000
0000
0001
0010
0001
0100
0010
0000
,  // measure 56
0020
0000
0000
0000
,  // measure 57
0130
0000
0010
0000
,  // measure 58
0100
0000
0010
0000
,  // measure 59
0100
0000
0010
0000
,  // measure 60
0100
0000
0010
0000
,  // measure 61
1000
0000
0001
0000
,  // measure 62
1000
0000
0001
0000
,  // measure 63
1000
0000
0001
0000
,  // measure 64
1000
0000
0001
0000
,  // measure 65
1000
0000
0100
0000
,  // measure 66
0010
0000
0001
0000
,  // measure 67
1000
0000
0100
0000
,  // measure 68
0010
0000
0001
0000
,  // measure 69
0100
0000
0010
0000
,  // measure 70
0100
0000
0010
0000
,  // measure 71
0100
0000
0001
0000
,  // measure 72
0010
0000
0001
0000
,  // measure 73
1000
0000
0100
0000
,  // measure 74
1000
0000
0100
0000
,  // measure 75
1000
0000
0010
0000
,  // measure 76
1000
0000
0010
0000
,  // measure 77
1000
0000
0001
0000
,  // measure 78
1000
0000
0001
0000
,  // measure 79
0100
0000
0001
0000
,  // measure 80
0100
0000
0001
0000
,  // measure 81
0100
0000
0001
0000
,  // measure 82
1000
0000
0001
0000
,  // measure 83
1000
0000
0001
0000
,  // measure 84
1000
0000
0001
0000
,  // measure 85
1000
0000
0100
0000
,  // measure 86
1000
0000
0100
0000
,  // measure 87
1000
0000
0001
0000
,  // measure 88
1000
0000
0001
0000
,  // measure 89
0010
0000
0000
0000
,  // measure 90
0100
0000
1000
0000
,  // measure 91
0100
0000
1000
0000
,  // measure 92
0001
0000
1000
0000
,  // measure 93
0001
0000
1000
0000
,  // measure 94
0010
0000
1000
0000
,  // measure 95
0010
0000
1000
0000
,  // measure 96
0001
0000
1000
0000
,  // measure 97
0001
0000
1000
0000
,  // measure 98
0001
0000
0100
0000
,  // measure 99
0001
0000
0100
0000
,  // measure 100
0010
0000
0100
0000
,  // measure 101
0010
0000
0100
0000
,  // measure 102
0001
0000
1000
0000
,  // measure 103
0001
0000
1000
0000
,  // measure 104
0001
0000
0010
0000
,  // measure 105
0100
0000
1000
0000
,  // measure 106
0010
0000
0100
0000
,  // measure 107
0010
0000
0100
0000
,  // measure 108
0010
0000
1000
0000
,  // measure 109
0010
0000
1000
0000
,  // measure 110
0100
0000
0010
0000
,  // measure 111
0001
0000
1000
0000
,  // measure 112
0001
0000
1000
0000
,  // measure 113
0001
0000
1000
0000
,  // measure 114
0001
0000
0010
0000
,  // measure 115
0001
0000
0010
0000
,  // measure 116
0001
0000
1000
0000
,  // measure 117
0100
0000
1000
0000
,  // measure 118
0010
0000
1000
0000
,  // measure 119
0010
0000
1000
0000
,  // measure 120
0100
0000
0010
0000
,  // measure 121
0001
0000
1000
0000
,  // measure 122
0220
0000
0000
0000
,  // measure 123
0000
0000
0000
0000
,  // measure 124
0000
0000
0000
0000
,  // measure 125
0000
0000
0330
0000
,  // measure 126
2002
0000
0000
0000
,  // measure 127
0000
0000
0000
0000
,  // measure 128
0000
0000
0000
0000
,  // measure 129
0000
0000
0000
0000
,  // measure 130
3003
0000
0000
0000
;

//---------------dance-single - ----------------
#NOTES:
     dance-single:
     :
     Medium:
     6:
     0.385,0.685,0.120,0.234,0.004:
0000
0000
0000
0000
,
0000
0000
0000
0000
,
0000
0000
0000
0000
,
0000
0000
0000
0000
,
0000
0000
0000
0000
,
0000
0000
0000
0000
,
0000
0000
0000
0000
,
0000
0000
0000
0000
,
1001
1000
0010
1000
,
0001
0000
0001
0000
,
0001
0100
0001
1000
,
0100
0100
1001
0000
,
1001
1000
0100
1000
,
0001
0000
0001
0000
,
0022
0000
0000
0000
,
0000
0000
0000
0033
,
1001
0001
0010
0001
,
1000
0100
1000
0000
,
0010
0100
0001
0100
,
1000
0100
0001
0000
,
1000
0100
1000
0001
,
0010
0001
0010
0000
,
0001
1000
0001
0010
,
1000
0010
0001
0000
,
1001
0001
0100
0001
,
1000
0100
1000
0000
,
0010
0100
0001
0100
,
1000
0100
0001
0000
,
0100
0010
0100
0001
,
1000
0100
1000
0000
,
0002
0000
1000
0000
,
1003
0000
0000
0000
,
1001
0100
0010
0001
,
1000
0100
1000
0100
,
2000
0000
0001
0000
,
0001
0000
3000
0001
,
1000
0001
0010
0100
,
1000
0100
0002
0000
,
1000
0000
1000
0000
,
1003
0100
0010
0001
,
1001
0010
0001
1000
,
0020
0000
0100
0000
,
0100
0000
0000
0030
,
1000
0100
1000
0001
,
0010
0100
1000
0100
,
0010
0001
0010
0001
,
2000
0000
0001
0000
,
0001
0000
3001
0000
,
2001
0000
3100
0010
0001
0010
1000
0010
,
2002
0000
0000
0000
0000
0000
3003
0010
,
0010
0000
0001
0000
0010
0000
0100
0000
0010
0000
0002
0000
0000
2000
0000
0000
,
0000
0000
0000
3003
0100
0010
0001
0010
,
1100
0000
1000
0001
0202
0000
0000
0000
,
0000
0000
0000
0303
0110
0000
0110
0000
,
1001
0000
0010
0100
1000
0010
0100
0010
,
2002
0000
0000
0000
0000
0000
0000
3003
,
0010
0100
0010
0000
,
1000
0000
0100
0000
,
0010
0000
0100
0000
,
1000
0000
0001
0000
,
0100
0010
0100
0000
,
0001
0000
0010
0000
,
0100
0000
0010
0000
,
0001
0000
1000
0000
,
0010
0100
0010
0000
,
1000
0001
1000
0000
,
0001
0000
0010
0000
,
0100
0000
1000
0000
,
0010
0100
0010
0000
,
1000
0001
1000
0000
,
0010
0000
0100
0000
,
0001
0000
1000
0000
,
0001
1000
0001
0000
,
0010
0001
0010
0000
,
0001
0000
0010
0000
,
0100
0000
0010
0000
,
0001
1000
0001
0000
,
1000
0100
1000
0000
,
0100
0000
0010
0000
,
0100
0000
1000
0000
,
0010
0100
0010
0000
,
1000
0001
1000
0000
,
0100
0000
0010
0000
,
0001
0000
0100
0000
,
0001
1000
0001
0000
,
0100
0001
0100
0000
,
0001
0010
0001
0010
,
0001
0010
0001
0010
,
0001
0000
0000
0000
,
0100
0010
0100
0000
,
0001
0100
0001
0000
,
0010
0000
0100
0000
,
0010
0000
0001
0000
,
1000
0000
0001
0000
,
0100
0000
0001
0000
,
1000
0000
0001
0000
,
1000
0000
0001
0000
,
1000
0010
1000
0000
,
0010
0100
0010
0000
,
1000
0000
0010
0000
,
1000
0000
0001
0000
,
1000
0000
0001
0000
,
1000
0000
0001
0000
,
1000
0010
0100
0000
,
0010
0100
0010
0000
,
1000
0000
0100
0000
,
1000
0000
0001
0000
,
0100
0000
0001
0000
,
0100
0000
0001
0000
,
1000
0100
1000
0000
,
0010
0100
0001
0000
,
0100
0000
0010
0000
,
0100
0000
0001
0000
,
0010
0000
0100
0000
,
1000
0000
0100
0000
,
0001
0000
0100
0000
,
1000
0000
0001
0000
,
0100
0010
1000
0000
,
0010
0100
0010
0000
,
1000
0100
1000
0100
,
1000
0100
1000
0000
,
2002
0000
0000
3000
0020
0000
0000
0030
,
2000
0000
0000
3000
0020
0000
0000
0030
,
2000
0000
0000
0003
0200
0000
0000
0300
,
0002
0000
0000
0003
0200
0000
0000
0300
,
0002
0000
0000
3000
0200
0000
0000
0300
,
2000
0000
0000
3000
0200
0000
0000
0300
,
2000
0000
0000
0003
0020
0000
0000
0030
,
0002
0000
0000
0003
0020
0000
0000
0000
,
3030
0000
0000
0000
;

//---------------dance-single - ----------------
#NOTES:
     dance-single:
     :
     Hard:
     8:
     0.559,0.868,0.241,0.092,0.007:
0000
0000
0000
0000
,
0000
0000
0000
0000
,
0000
0000
0000
0000
,
0000
0000
0000
0000
,
0000
0000
0000
0000
,
0000
0000
0000
0000
,
0000
0000
0000
0000
,
0000
0000
0000
0000
,
0001
0100
0000
0100
0000
0001
0100
0010
,
1000
0001
1000
0000
,
0000
1010
0000
0010
0000
1000
0000
0001
,
0100
0010
0100
0000
1001
0000
0000
0000
,
1000
0100
0000
0100
0000
1000
0010
0100
,
0001
1000
0001
0000
,
0000
0010
0000
0010
0000
0010
0000
0010
,
0001
0010
0100
0000
1100
0000
0000
0000
,
1000
0010
1000
0100
0000
1000
0100
0010
,
0001
0100
0101
0000
,
0001
0100
0000
0010
0000
0100
0000
0001
,
0010
0100
1000
0000
1010
0000
0000
0000
,
1000
0010
1000
0100
0000
1000
0001
0010
,
0100
1000
1100
0000
,
1000
0010
0000
0100
0000
0010
0100
0010
,
1000
0100
0010
0000
0011
0000
0000
0000
,
0001
0100
0010
0100
0000
0001
0010
0100
,
1000
0010
1010
0000
,
1000
0100
0000
0010
0000
0100
1000
0001
,
0010
0100
1000
0000
1010
0000
0000
0000
,
1000
0010
0100
0010
0000
1000
0100
0010
,
0001
0100
0101
0000
,
0001
0010
0000
0100
0000
0010
0000
0001
,
0010
0001
1000
0000
1010
0000
0000
0000
,
1000
0010
1000
0000
0010
0100
0010
1000
,
0001
0010
0001
0000
1000
0010
1000
0000
,
0100
0010
0000
0100
0000
0010
0100
1000
,
0001
0100
0110
0001
,
0001
0100
0001
0000
0100
0010
0100
0001
,
1000
0100
1000
0000
0001
0100
0001
0000
,
0010
0100
0000
0010
0000
0100
0010
0001
,
1000
0010
0100
0001
,
1001
0000
0000
0000
1000
0100
1000
0001
,
0100
0010
0100
0000
0001
0100
0001
0000
,
1000
0100
0000
0010
0000
0100
1000
0001
,
0100
0100
1001
0000
,
1001
0000
0000
0000
0001
0010
0001
1000
,
0010
0100
0010
0000
1000
0010
1000
0000
,
0001
0010
0000
0100
0000
0010
0001
1000
,
0010
0010
1001
0000
,
1002
0000
0013
0100
2000
0100
3002
0013
,
0220
0000
0000
0000
0330
0000
0000
0101
,
0001
0000
0001
0000
0010
0000
0100
0000
0010
0000
0011
0000
0000
2002
0000
0000
,
0000
0000
0000
3003
0110
0001
0110
1000
,
1100
0000
1000
0001
0022
0000
0000
0000
,
0000
0000
0000
0033
0110
1000
0110
0001
,
0011
0000
0011
0100
1000
0100
0010
0100
,
2002
0000
0000
0000
0000
0000
0000
3003
,
0010
0001
0010
0001
,
1000
0010
1000
0000
,
0010
0100
0001
1000
,
0000
1000
0001
0000
,
0100
0010
0100
0010
,
1000
0001
1000
0000
,
0010
0100
0001
1000
,
0000
1000
0001
0000
,
0100
0010
0100
0001
,
0010
0100
0010
0000
,
0001
1000
0001
0010
,
0100
1000
0001
0000
,
0100
0010
0100
0001
,
0010
0100
1000
0001
,
1000
0100
0010
0100
,
1000
0001
0010
0100
,
1000
0001
1000
0000
,
0100
1000
0100
0000
,
1000
0010
1000
0100
,
0010
0100
1000
0000
,
0001
1000
0001
0000
,
0010
0001
0010
0000
,
0001
0100
0001
0010
,
0100
0010
0001
0000
,
0100
0010
1000
0000
,
0010
0100
0010
0000
,
1000
0010
0100
0000
,
0001
0010
0001
0000
,
0010
0100
1000
0010
,
1000
0010
0100
0001
,
0100
0001
0010
0100
,
1000
0100
0010
0100
,
2000
0000
0002
3003
,
0100
0010
0100
0001
,
1000
0000
0100
0010
,
0001
0000
0100
0001
,
0000
0001
1000
0010
,
1000
0100
1000
0000
,
0001
0100
0001
0000
,
0100
0010
0100
0001
,
0000
0001
1000
0000
,
0010
0100
0001
1000
,
0001
1000
0001
0000
,
0010
0100
1000
0001
,
0000
0001
1000
0010
,
0100
0010
1000
0001
,
0000
0001
1000
0001
,
0010
0100
1000
0001
,
0010
0100
1000
0001
,
0100
0010
0100
0001
,
1000
0000
0010
1000
,
0001
0010
0001
0000
,
0100
0010
0100
0000
,
0001
1000
0001
0100
,
0000
0100
0001
0000
,
1001
0000
0010
0000
,
1001
0000
0001
0000
,
0100
0010
1000
0000
,
0001
0010
0001
0010
,
0100
1000
0010
0000
,
1010
0000
0010
0000
,
1000
0010
0100
0001
,
1000
0010
0100
0001
,
0010
0100
0010
0001
,
1000
0100
0010
0100
,
1001
0000
1000
0100
0001
0000
0001
0010
,
1000
0000
1000
0010
0001
0000
0001
0100
,
1000
0000
1000
0010
0001
0000
0001
0100
,
1000
0100
0010
0001
0100
0001
0010
0001
,
1000
0100
0001
0000
0001
0010
1000
0000
,
1000
0010
0001
0000
0001
0100
1000
0000
,
1000
0100
0001
0000
0001
0010
1000
0100
,
0010
0000
0001
0000
0100
0000
0010
0000
0100
0000
0001
0000
0010
0000
1000
0100
;

//---------------dance-single - ----------------
#NOTES:
     dance-single:
     :
     Challenge:
     9:
     0.690,1.000,0.283,0.071,0.166:
0000
0000
0000
0000
,
0000
0000
0000
0000
,
0000
0000
0000
0000
,
0000
0000
0000
0000
,
0000
0000
0000
0000
,
0000
0000
0000
0000
,
0000
0000
0000
0000
,
0000
0000
0000
0000
,
1000
0100
1000
0001
0000
0001
0010
0100
,
1000
0000
0010
0100
0001
0000
0100
0010
,
1000
0010
0000
0110
0000
1001
0000
1000
,
0100
0010
0100
0000
1001
0000
0000
0000
,
0001
0010
0001
1000
0000
1000
0100
0010
,
0001
0000
0100
0010
1000
0000
0010
0100
,
0001
1000
0000
1100
0000
1100
0000
1000
,
0001
0010
0100
0000
1001
0000
0000
0000
,
0100
0010
0100
0001
0000
0001
0010
0100
,
1000
0010
0100
0000
0010
1000
0001
0000
,
0100
0010
0100
0001
0000
1001
0000
1000
,
0001
0010
0100
0000
1000
0001
0100
0000
,
0010
0100
0010
1000
0000
1000
0001
0010
,
0100
1000
0010
0000
0100
0001
1000
0000
,
0010
0100
0010
1000
0000
1000
0010
0100
,
0001
0010
0100
0000
1000
0001
0100
0000
,
0100
0010
0100
0001
0000
0001
0100
0010
,
1000
0100
0010
0000
0001
1000
0010
0000
,
0010
0100
0010
1000
0000
1000
0001
0010
,
0100
0010
0001
0000
0010
0001
0100
0000
,
0100
0010
0100
0001
0000
0001
1000
0100
,
0010
0100
1000
0000
0100
1000
0010
0000
,
0010
1000
0000
1100
0000
1100
0000
1000
,
0001
0010
0100
0000
1001
0000
0000
0000
,
0010
0100
1000
0001
1000
0100
1000
0001
,
1000
0000
1000
0001
1000
0000
1000
0001
,
1000
0010
0000
0110
0000
0100
0010
0001
,
1000
0100
0010
0000
1001
0000
0001
0010
,
0001
1000
0001
0000
0001
1000
0001
0000
,
0001
1000
0001
0100
0010
1000
0001
1000
,
0100
0010
0000
0110
0000
0010
0100
1000
,
0001
0010
0100
0000
1001
0000
0110
0000
,
1001
0000
1000
0010
1000
0001
1000
0000
,
1000
0001
1000
0000
1000
0001
1000
0100
,
0010
0100
0000
0110
0000
0010
0100
1000
,
0001
0010
0100
0000
1001
0000
0110
0000
,
1001
0000
0001
0100
0001
1000
0001
0000
,
0001
1000
0001
0000
0001
1000
0001
0010
,
0100
0010
0000
0110
0000
0100
0010
0001
,
1000
0100
0010
0000
1001
0000
0110
0000
,
1001
0000
0000
0000
1000
0010
0100
0000
0101
0000
0001
0000
1001
0000
1000
0000
,
2020
0000
0000
0000
0000
0000
0000
0000
0000
0000
0000
0000
3030
0000
0001
0100
,
0010
0000
1010
0000
1000
0000
1001
0000
0001
0000
0101
0000
0000
2002
0000
0000
,
0000
0000
0000
0000
0000
0000
3003
0000
0100
0010
0100
0000
0100
0001
0100
0000
,
1001
0000
1100
0100
0202
0000
0000
0000
,
0000
0000
0000
0000
0000
0000
0303
0000
0010
0100
0010
0000
0010
1000
0010
0000
,
1001
0000
0011
0010
1010
1000
1001
0001
,
2002
0000
0000
0000
0000
0000
0000
3003
,
0100
0001
0100
0010
,
0100
0001
0100
0010
,
0100
0001
0010
0100
,
0000
0010
0100
1000
,
0010
1000
0010
0100
,
0010
1000
0010
0100
,
0010
1000
0100
0010
,
0000
0100
0010
0001
,
0100
0001
0100
0010
,
0100
0010
1000
0010
,
0100
0010
1000
0010
,
0100
0001
1000
0000
,
1000
0010
0100
0001
,
1000
0010
0100
0001
,
1000
0100
0010
0100
,
1000
0001
0010
0100
,
1000
0010
1000
0100
,
1000
0010
1000
0000
,
0001
0100
0001
0010
,
0001
0100
0001
0000
,
1000
0100
1000
0001
,
1000
0100
1000
0000
,
0001
0010
0001
1000
,
0001
0010
0001
0000
,
0010
0100
0010
0001
,
0100
0010
0100
0001
,
0010
0100
0010
0001
,
0100
0010
0100
0001
,
1000
0010
0100
0001
,
1000
0010
0100
0001
,
0010
0100
1000
0001
,
1000
0001
1000
0000
0001
1000
0001
0000
,
0200
0000
0020
0330
,
0010
0100
0010
1000
,
0001
1000
0001
0010
,
0100
0000
1000
0010
,
0100
0000
0001
0010
,
0100
1000
0010
0100
,
0010
1000
0010
0100
,
0001
0010
0001
1000
,
0100
0010
0001
0000
,
0100
0010
1000
0000
,
0100
0010
0001
0000
,
0100
0010
1000
0001
,
0000
1000
0001
0100
,
0001
0010
0100
0010
,
0001
1000
0100
0010
,
0100
1000
0001
1000
,
0010
0100
0010
0000
0100
0010
0100
0000
,
0001
0010
0100
0000
,
1000
0010
0100
0000
,
0001
0010
0100
1000
,
0010
0100
0010
1000
,
0010
0100
0001
1000
,
0000
1000
0001
0000
,
0010
0100
1000
0000
,
0010
0100
0001
0000
,
0010
0100
1000
0000
,
0010
0100
0001
0100
,
0010
0100
0001
1000
,
0000
1000
0001
0000
,
1000
0100
0010
0100
,
1000
0001
0010
0100
,
1000
0001
1000
0000
0001
1000
0001
0000
,
0100
0010
0100
0000
0010
0100
0010
0000
,
1001
0000
0010
0100
1000
0000
0010
0100
0001
0000
0010
0100
1000
0000
0010
0100
,
0001
0000
0010
0100
1000
0000
0010
0100
0001
0000
1000
0100
0010
0001
0100
0010
,
1000
0000
0100
0010
0001
0000
0100
0010
1000
0000
0100
0010
0001
0000
0100
0010
,
1000
0000
0100
1000
0100
0000
1000
0001
1000
0100
0010
0001
0100
0010
1000
0001
,
1000
0000
0001
0010
0100
0000
1000
0010
0100
0000
0001
0010
0100
1000
0010
0100
,
0001
0000
0010
0100
1000
0000
0010
0100
0001
0000
0010
0100
1000
0000
0010
0100
,
0001
0000
0010
0100
1000
0001
1000
0010
0100
0000
0001
0010
0100
1000
0001
0100
,
0001
0000
0100
0010
0100
0000
0001
1000
0100
0010
0100
1000
0010
0100
0001
0010
;

//---------------dance-single - ----------------
#NOTES:
     dance-single:
     :
     Beginner:
     3:
     0.138,0.273,0.043,0.000,0.000: // measure 1
0000
0000
0000
0000
,  // measure 2
0000
0000
0000
0000
,  // measure 3
0000
0000
0000
0000
,  // measure 4
0000
0000
0000
0000
,  // measure 5
0000
0000
0000
0000
,  // measure 6
0000
0000
0000
0000
,  // measure 7
0000
0000
0000
0000
,  // measure 8
0000
0000
0000
0000
,  // measure 9
0010
0000
0000
0000
,  // measure 10
0000
0000
0000
0000
,  // measure 11
0010
0000
0000
0000
,  // measure 12
0000
0000
0000
0000
,  // measure 13
0100
0000
0000
0000
,  // measure 14
0000
0000
0000
0000
,  // measure 15
0100
0000
0000
0000
,  // measure 16
0000
0000
0000
0000
,  // measure 17
0001
0000
1000
0000
,  // measure 18
0001
0000
0000
0000
,  // measure 19
1000
0000
0001
0000
,  // measure 20
1000
0000
0000
0000
,  // measure 21
0001
0000
1000
0000
,  // measure 22
0001
0000
0000
0000
,  // measure 23
1000
0000
0001
0000
,  // measure 24
1000
0000
0000
0000
,  // measure 25
0010
0000
0100
0000
,  // measure 26
0010
0000
0000
0000
,  // measure 27
0100
0000
0010
0000
,  // measure 28
0100
0000
0000
0000
,  // measure 29
0001
0000
0010
0000
,  // measure 30
0001
0000
0000
0000
,  // measure 31
1000
0000
0000
0000
,  // measure 32
0000
0000
0000
0000
,  // measure 33
1001
0000
1000
0000
,  // measure 34
0001
0000
0001
0000
,  // measure 35
0100
0000
0000
0000
,  // measure 36
0000
0000
0000
0000
,  // measure 37
1001
0000
0001
0000
,  // measure 38
1000
0000
1000
0000
,  // measure 39
0010
0000
0000
0000
,  // measure 40
0000
0000
0000
0000
,  // measure 41
1001
0000
1000
0000
,  // measure 42
1000
0000
0010
0000
,  // measure 43
0000
0000
0000
0000
,  // measure 44
1001
0000
0001
0000
,  // measure 45
0001
0000
0100
0000
,  // measure 46
0010
0000
0100
0000
,  // measure 47
0010
0000
0000
0000
,  // measure 48
0000
0000
0000
0000
,  // measure 49
1001
0000
0000
0000
,  // measure 50
1000
0000
0000
0000
,  // measure 51
0001
0000
0000
0000
,  // measure 52
0000
0000
1000
0000
,  // measure 53
1000
0000
0001
0000
,  // measure 54
0000
0000
0001
0000
,  // measure 55
0100
0000
0100
0000
,  // measure 56
0010
0000
0000
0000
,  // measure 57
0010
0000
0000
0000
,  // measure 58
0010
0000
0000
0000
,  // measure 59
0010
0000
0000
0000
,  // measure 60
0000
0000
0000
0000
,  // measure 61
0100
0000
0000
0000
,  // measure 62
0100
0000
0000
0000
,  // measure 63
0100
0000
0000
0000
,  // measure 64
0000
0000
0000
0000
,  // measure 65
0010
0000
0000
0000
,  // measure 66
0010
0000
0000
0000
,  // measure 67
0010
0000
0000
0000
,  // measure 68
0000
0000
0000
0000
,  // measure 69
0100
0000
0000
0000
,  // measure 70
0100
0000
0000
0000
,  // measure 71
0100
0000
0000
0000
,  // measure 72
0001
0000
0000
0000
,  // measure 73
1000
0000
0000
0000
,  // measure 74
0001
0000
0000
0000
,  // measure 75
1000
0000
0000
0000
,  // measure 76
0001
0000
0000
0000
,  // measure 77
0001
0000
0000
0000
,  // measure 78
0001
0000
0000
0000
,  // measure 79
1000
0000
0000
0000
,  // measure 80
1000
0000
0000
0000
,  // measure 81
0100
0000
0000
0000
,  // measure 82
0100
0000
0000
0000
,  // measure 83
1000
0000
0000
0000
,  // measure 84
1000
0000
0000
0000
,  // measure 85
0001
0000
0000
0000
,  // measure 86
0001
0000
0000
0000
,  // measure 87
0010
0000
0000
0000
,  // measure 88
0010
0000
0000
0000
,  // measure 89
0001
0000
0000
0000
,  // measure 90
0001
0000
0000
0000
,  // measure 91
1000
0000
0000
0000
,  // measure 92
0001
0000
0000
0000
,  // measure 93
0001
0000
0000
0000
,  // measure 94
1000
0000
0000
0000
,  // measure 95
0000
0000
0000
0000
,  // measure 96
0000
0000
0000
0000
,  // measure 97
0000
0000
0000
0000
,  // measure 98
1000
0000
0000
0000
,  // measure 99
0001
0000
0000
0000
,  // measure 100
1000
0000
0000
0000
,  // measure 101
1000
0000
0000
0000
,  // measure 102
0010
0000
0000
0000
,  // measure 103
0100
0000
0000
0000
,  // measure 104
0010
0000
0000
0000
,  // measure 105
0000
0000
0000
0000
,  // measure 106
1000
0000
0000
0000
,  // measure 107
0001
0000
0000
0000
,  // measure 108
1000
0000
0000
0000
,  // measure 109
0010
0000
0000
0000
,  // measure 110
0100
0000
0000
0000
,  // measure 111
0010
0000
0000
0000
,  // measure 112
1000
0000
0000
0000
,  // measure 113
1000
0000
0000
0000
,  // measure 114
0001
0000
0000
0000
,  // measure 115
1000
0000
0000
0000
,  // measure 116
0001
0000
0000
0000
,  // measure 117
0100
0000
0000
0000
,  // measure 118
0010
0000
0000
0000
,  // measure 119
0100
0000
0000
0000
,  // measure 120
0001
0000
0000
0000
,  // measure 121
0000
0000
0000
0000
,  // measure 122
1001
0000
0001
0000
,  // measure 123
0001
0000
0001
0000
,  // measure 124
0001
0000
0001
0000
,  // measure 125
1000
0000
1000
0000
,  // measure 126
1000
0000
1000
0000
,  // measure 127
1000
0000
1000
0000
,  // measure 128
0010
0000
0010
0000
,  // measure 129
0100
0000
0100
0000
;
