#TITLE:So Fabulous!!;
#SUBTITLE:;
#ARTIST:HHH (Ryu☆ & Dai);
#TITLETRANSLIT:;
#SUBTITLETRANSLIT:;
#ARTISTTRANSLIT:HHH (Ryu* & Dai);
#CREDIT:DMAxel (Singles), silenttype01 (Doubles);
#BANNER:So Fabulous!!.png;
#BACKGROUND:So Fabulous!!-bg.png;
#LYRICSPATH:;
#CDTITLE:beatmaniaIIDX.png;
#MUSIC:So Fabulous!!.mp3;
#OFFSET:-0.440;
#SAMPLESTART:42.288;
#SAMPLELENGTH:13.200;
#SELECTABLE:YES;
#BPMS:0.000=149.000,48.000=74.500,50.000=149.000,166.000=74.500,185.999=149.000;
#STOPS:170.000=2.416
;
#BGCHANGES:-4.500=So Fabulous!!.avi=1.000=1=1=0,
99999=-nosongbg-=1.000=0=0=0 // don't automatically add -songbackground-
;

//---------------dance-double - ----------------
#NOTES:
     dance-double:
     :
     Easy:
     3:
     0.177,0.240,0.025,0.000,0.000:
00000000
00000000
00000000
00000000
,
00000000
00000000
00000000
00000000
,
00000000
00000000
00000000
00000000
,
00000000
00000000
00000000
00000000
,
10000000
10000000
01000000
01000000
,
00100000
00100000
00000000
00000000
,
00001000
00001000
00010000
00010000
,
00001000
00001000
00000000
00000000
,
00000100
00000100
00000010
00000010
,
00001000
00001000
00000000
00000000
,
00000001
00000001
00000010
00000010
,
00001000
00001000
00000000
00000000
,
00011000
00000000
01000000
00000000
,
00000000
00000000
00000000
00000000
,
00100000
00100000
00100000
00000000
,
00000000
00000000
00000000
00000000
,
10000000
10000000
10000000
00000000
,
00000000
00000000
00000000
00000000
,
00010000
00010000
00010000
00000000
,
00000000
00000000
00000000
00000000
,
00001000
00001000
00000000
00000000
,
00000100
00000100
00000000
00000000
,
00000000
00000000
00000000
00000000
,
00000010
00000010
00000010
00000000
,
00000000
00000000
00000000
00000000
,
00000000
00001001
00000010
00000000
,
00001000
00000000
00000001
00000001
,
00000001
00000000
00000100
00000000
,
00000010
00000000
00010000
00010000
,
00010000
00000000
00001000
00000000
,
00100000
00000000
00010000
00000000
,
00100000
00000000
00001000
00000000
,
01000000
00000000
00010000
00000000
,
00100000
00100000
00100000
00000000
,
10000000
00000000
00100000
00000000
,
00010000
00010000
00010000
00000000
,
01000000
00000000
00010000
00000000
,
00001000
00001000
00001000
00000000
,
00010000
00000000
00000010
00000000
,
00001000
00001000
00001000
00000000
,
00000100
00000000
00010000
00000000
,
00001000
01000000
10010000
00000000
,
00000000
00000000
00000000
00000001
,
00000100
00000001
00001000
00000100
,
00010000
00001000
00100000
00010000
,
10000000
01000000
00100000
00001000
,
00010000
00000100
00000010
00000010
,
00001000
00001000
00010000
00010000
,
01000000
01000000
01000000
00000000
,
00100000
00000000
00001000
00000000
,
00010000
00000000
00001000
00001000
,
00001000
00000000
00000010
00000000
,
00000001
00000000
00000100
00000100
,
00000100
00000000
00001000
00000000
,
00010000
00000000
00001000
00001000
,
00001000
00000000
00010000
00000000
,
00100000
00000000
01000000
01000000
,
01000000
00000000
10000000
00000000
,
00010000
00000000
01000000
01000000
,
01000000
00000000
00100000
00000000
,
00010000
00000000
00001000
00001000
,
00001000
00000000
00010000
00000000
,
00000010
00000000
00001000
00001000
,
00001000
00000000
00000100
00000000
,
00000010
00000000
00000001
00000010
;

//---------------dance-double - ----------------
#NOTES:
     dance-double:
     :
     Medium:
     6:
     0.291,0.347,0.124,0.000,0.050:
00000000
00000000
00000000
00000000
,
00000000
00000000
00000000
00000000
,
00000000
00000000
00000000
00000000
,
00000000
00000000
00000000
00000000
,
10000000
01000000
00100000
00001000
,
00010000
00000010
00000100
00000001
00000000
00000000
00000000
00000000
,
00000001
00000010
00000100
00010000
,
00001000
00100000
01000000
10000000
00000000
00000000
00000000
00000000
,
10000000
00100000
00010000
00001000
,
00000100
00000001
00001000
00000001
00000000
00000000
00000000
00000000
,
00000001
00000010
00001000
00010000
,
01000000
10000000
00010000
10000000
00000000
00000000
00000000
00000000
,
01100000
00000000
00001000
00000000
,
00010000
00000000
00000100
00001000
,
00000010
00000000
00010000
00000000
,
00001000
00000000
01000000
00010000
,
00100000
00000000
01000000
00000000
,
00010000
00000000
00001000
00000100
,
00001000
00000000
00000100
00000000
,
00001000
00000000
00010000
01000000
,
00010000
00000000
00000000
00000000
00000000
00010000
00000000
00000000
00001000
00000000
00000000
00000000
00000000
00000000
00000000
00000000
00011000
00000000
00000000
00000000
00000000
00000000
00000000
00000000
00000000
00000000
00000000
00000000
00000000
00000000
00000000
00000000
,
00001000
00000000
00000000
00000000
00000000
00001000
00000000
00000000
00000100
00000000
00000000
00000000
00000000
00000000
00000000
00000000
00011000
00000000
00000000
00000000
00000000
00000000
00000000
00000000
00000000
00000000
00000000
00000000
00000000
00000000
00000000
00000000
,
00011000
00000000
00110000
00011000
,
00001000
00000000
00000000
00000000
00000000
00001000
00000000
00000000
00000010
00000000
00000000
00000000
00000000
00000000
00000000
00000000
00011000
00000000
00000000
00000000
00000000
00000000
00000000
00000000
00000000
00000000
00000000
00000000
00000000
00000000
00000000
00000000
,
01000000
00000000
00010000
00000000
,
00000000
00001000
00000010
00000100
,
00001000
00000001
00000100
00001000
,
00010000
00000000
10000000
01000000
,
00010000
00100000
00001000
00010000
,
00000100
00001000
00000010
00001000
,
00000001
00000010
00000001
00000100
,
00001000
00010000
00001000
00010000
,
00001000
00100000
00010000
01000000
,
00100000
00000000
00000000
00000000
00000000
00100000
00000000
00000000
10000000
00000000
00000000
00000000
00000000
00000000
00000000
00000000
11000000
00000000
00000000
00000000
00000000
00000000
00000000
00000000
00000000
00000000
00000000
00000000
01000000
00000000
00000000
00000000
,
00010000
00000000
00000000
00010000
00001000
00000000
00000000
00001000
,
00000100
00000000
00000101
00000000
00000001
00000000
00000000
00000010
,
00001000
00000000
00000000
00001000
00010000
00000000
00000000
00010000
,
01000000
00000000
11000000
00000000
10000000
00000000
00000000
10000000
,
00010000
00000000
00000000
00010000
00001000
00000000
00000000
00001000
,
00000001
00000000
00000011
00000000
00000001
00000000
00000000
00000001
,
00001000
00000000
00000000
00001000
00010000
00000000
00000000
00010000
,
10000000
00000000
00000000
00000000
00000000
01000000
00000000
00000000
10000000
00000000
00000000
00000000
00000000
00000000
00000000
00000000
10010000
00000000
00000000
00000000
00000000
00000000
00000000
00000000
00000000
00000000
00000000
00000000
00000000
00000000
00000000
00000000
,
00000000
00000000
00000000
00010000
,
01000000
00100000
00010000
01000000
,
00001000
00010000
00000100
00000010
,
00001000
00000100
00000001
00000100
,
00000010
00000000
00000000
00000000
00000000
00000000
00000000
00000000
00000001
00000000
00000000
00000000
00000000
00000000
00000000
00000000
00001000
00000000
00000000
00000000
00000000
00001000
00000000
00000000
00010000
00000000
00000000
00000000
00000000
00000000
00000000
00000000
,
00100000
00000000
00000000
00000000
00000000
00100000
00000000
00000000
01000000
00000000
00000000
00000000
00000000
00000000
00000000
00000000
00010000
00000000
00000000
00000000
00000000
00010000
00000000
00000000
10000000
00000000
00000000
00000000
00000000
00000000
00000000
00000000
,
01000000
00000000
00000000
00000000
00000000
00000000
00000000
00000000
00000000
00000000
01000000
00000000
00000000
00000000
00000000
00000000
00000000
00000000
00000000
00000000
00000000
01000000
00000000
00000000
00000000
00000000
00000000
00000000
00000000
00000000
00000000
00000000
01000000
00000000
00000000
00000000
00000000
00000000
00000000
00000000
00000000
00000000
00000000
00000000
00000000
00000000
00000000
00000000
00000000
00000000
00000000
00000000
00000000
00000000
00000000
00000000
00000000
00000000
00000000
00000000
00000000
00000000
00000000
00000000
,
00100000
10000000
00010000
00001000
,
00000001
00000100
00000010
00001000
,
00000100
00010000
00100000
00010000
,
00001000
00000000
00000010
00000000
00001001
00001001
00001001
00000000
,
00000100
00000010
00010000
00001000
,
01000000
00000000
00010000
00000000
00001000
00010000
00000000
00010000
,
00001000
00000001
00000100
00000010
,
00000001
00000000
00000000
00000000
00000000
00000000
00000000
00000000
00000100
00000000
00000000
00000000
00000000
00000000
00000000
00000000
00001000
00000000
00000000
00000000
00000000
00001000
00000000
00000000
00000001
00000000
00000000
00000000
00000000
00000000
00000000
00000000
,
00000100
00000000
00000000
00001000
00010000
00000000
00000000
00001000
,
00010000
00000000
00000000
01000000
00100000
00000000
00010000
00000000
,
00001000
00000000
00000000
00100000
00010000
00000000
00000000
00000100
,
00001000
00000000
00000000
00000010
00001000
00000000
00000001
00000000
,
00000010
00000000
00000000
00000100
00010000
00000000
00000000
00001000
,
00100000
00000000
00000000
00010000
01000000
00000000
00100000
00000000
,
10000000
00000000
00000000
01000000
00010000
00000000
00000000
00001000
,
00000100
00000000
00000000
00000000
00000000
00000000
00000000
00000000
00000001
00000000
00000000
00000000
00000000
00000000
00000000
00000000
00001000
00000000
00000000
00000000
00000000
00001000
00000000
00000000
00000010
00000000
00000000
00000000
00000000
00000000
00000000
00000000
;

//---------------dance-double - ----------------
#NOTES:
     dance-double:
     :
     Hard:
     8:
     0.466,0.561,0.140,0.091,0.264:
00000000
00000000
00000000
00000000
,
00000000
00000000
00000000
00000000
,
00000000
00000000
00000000
00000000
,
00000000
00000000
00000000
00000000
,
10000000
01000000
00100000
00010000
10000000
00100000
01000000
00010000
,
00100000
00001000
00001000
00001000
00000000
00000000
00000000
00000000
,
00100000
00010000
00001000
00000100
00010000
00001000
00100000
00010000
,
00000010
00001000
00001000
00001000
00000000
00000000
00000000
00000000
,
00001000
00000100
00000010
00000001
00001000
00000010
00000100
00000001
,
00000010
00000001
00000001
00000001
00000000
00000000
00000000
00000000
,
00000010
00001000
00000100
00010000
00001000
00100000
00010000
00100000
,
01000000
00000000
00000000
00000000
10000000
00000000
00000000
00000000
00100000
00000000
00000000
00000000
01000000
00000000
00000000
00000000
00010000
00000000
00000000
00000000
00000000
00010000
00000000
00000000
10000000
00000000
00000000
00000000
00000000
00000000
00000000
00000000
,
10010000
00000000
20000000
00000000
,
01000000
00000000
00000000
00000000
00000000
00000000
00000000
00200000
30000000
00000000
00000000
00000000
00000000
00000000
00000000
00000000
,
00000000
00000000
00320000
00000000
,
00000010
00000000
00000000
00000000
00000000
00000000
00000000
00002000
00030000
00000000
00000000
00000000
00000000
00000000
00000000
00000000
,
00000000
00000000
00003020
00000000
,
00000001
00000000
00000000
00000000
00000000
00000000
00000000
00000200
00000030
00000000
00000000
00000000
00000000
00000000
00000000
00000000
,
00000000
00000000
00020300
00000000
,
01000000
00000000
00000000
00000000
00000000
00000000
00000000
00200000
00030000
00000000
00000000
00000000
00000000
00000000
00000000
00000000
,
00310000
00000000
00000000
00000000
00000000
01000000
00000000
00000000
00000000
00000000
10000000
00000000
00000000
00000000
00000000
00000000
00010000
00000000
00000000
00000000
00000000
00000000
00000000
00000000
00000000
00000000
00000000
00000000
00000000
00000000
00000000
00000000
10010000
00000000
00000000
00000000
00000000
00000000
00000000
00000000
00000000
00000000
00000000
00000000
00000000
00000000
00000000
00000000
00000000
00000000
00000000
00000000
00000000
00000000
00000000
00000000
00000000
00000000
00000000
00000000
00000000
00000000
00000000
00000000
,
00010000
00000000
00000000
00000000
00000000
01000000
00000000
00000000
00000000
00000000
10000000
00000000
00000000
00000000
00000000
00000000
00010000
00000000
00000000
00000000
00000000
00000000
00000000
00000000
00000000
00000000
00000000
00000000
00000000
00000000
00000000
00000000
10010000
00000000
00000000
00000000
00000000
00000000
00000000
00000000
00000000
00000000
00000000
00000000
00000000
00000000
00000000
00000000
00000000
00000000
00000000
00000000
00000000
00000000
00000000
00000000
00000000
00000000
00000000
00000000
00000000
00000000
00000000
00000000
,
11000000
00000000
01010000
00110000
,
00100000
00000000
00000000
00000000
00000000
00001000
00000000
00000000
00000000
00000000
00010000
00000000
00000000
00000000
00000000
00000000
00000010
00000000
00000000
00000000
00000000
00000000
00000000
00000000
00000010
00000000
00000000
00000000
00000000
00000000
00000000
00000000
00001001
00000000
00000000
00000000
00000000
00000000
00000000
00000000
00000000
00000000
00000000
00000000
00000000
00000000
00000000
00000000
00000000
00000000
00000000
00000000
00000000
00000000
00000000
00000000
00000000
00000000
00000000
00000000
00000000
00000000
00000000
00000000
,
00000000
00000000
00000000
00000000
,
00000000
00000000
00000000
00000000
00000010
00000001
00000100
00000010
,
00000001
00000010
00001000
00000100
00000010
00001000
00000010
00000100
,
00010000
00001000
01000000
00100000
10000000
01000000
00100000
00010000
,
00100000
01000000
10000000
00010000
01000000
00100000
01000000
10000000
,
00010000
00001000
00100000
00001000
00000010
00001000
00010000
00000100
,
00001000
00000001
00000100
00001000
00000100
00000001
00000010
00001000
,
00010000
00001000
01000000
00010000
00100000
01000000
00010000
00001000
,
00000100
00000100
00000010
00010000
00001000
00000100
00000001
00000100
,
00000100
00000000
00000000
00000000
00000000
00000010
00000000
00000000
00000000
00000000
00000001
00000000
00000000
00000000
00000000
00000000
00001000
00000000
00000000
00000000
00000000
00000000
00000000
00000000
00000000
00000000
00000000
00000000
00000000
00000000
00000000
00000000
00000100
00000000
00000000
00000000
00000000
00000000
00000000
00000000
00000000
00000000
00000000
00000000
00000001
00000000
00000000
00000000
00000000
00000000
00000000
00000000
00000000
00000000
00000000
00000000
00000010
00000000
00000000
00000000
00000000
00000000
00000000
00000000
,
00000001
00000000
00000000
00000100
00000000
00000000
00000010
00000000
00001000
00000000
00000000
00000100
00000000
00000000
00000010
00000000
,
00001000
00000000
00010000
00000000
00001000
00000000
00000100
00000000
00001000
00000000
00000000
00010000
00000000
00000000
00100000
00000000
,
10000000
00000000
00000000
01000000
00000000
00000000
10000000
00000000
00100000
00000000
00000000
01000000
00000000
00000000
00010000
00000000
,
00110000
00000000
00110000
00000000
00101000
00000000
00000000
00000000
00100000
00000000
00000000
00010000
00000000
00000000
01000000
00000000
,
00010000
00000000
00000000
00100000
00000000
00000000
01000000
00000000
10000000
00000000
00000000
00100000
00000000
00000000
00010000
00000000
,
00001000
00000000
00000010
00000000
00001000
00000000
00010000
00000000
01000000
00000000
00000000
00010000
00000000
00000000
00000100
00000000
,
00001000
00000000
00000000
00000010
00000000
00000000
00000001
00000000
00000100
00000000
00000000
00000010
00000000
00000000
00001000
00000000
,
00010000
00000000
00000000
00000000
00000000
00001000
00000000
00000000
00000000
00000000
00010000
00000000
00000000
00000000
00000000
00000000
00001000
00000000
00000000
00000000
00000000
00000000
00000000
00000000
00000000
00000000
00000000
00000000
00000000
00000000
00000000
00000000
00011000
00000000
00000000
00000000
00000000
00000000
00000000
00000000
00000000
00000000
00000000
00000000
00000000
00000000
00000000
00000000
00000000
00000000
00000000
00000000
00000000
00000000
00000000
00000000
00000000
00000000
00000000
00000000
00000000
00000000
00000000
00000000
,
00000000
00000000
00000000
00000000
00000000
00000000
00000000
00000000
00000000
00000000
00000000
00000000
00000100
00000000
00000001
00001000
,
00000000
00000100
00000010
00000000
00000001
00000000
00001000
00000100
00000000
00000010
00000001
00000000
00000100
00000000
00001000
00010000
,
00000000
00000010
00010000
00000000
00001000
00000000
01000000
00000000
00010000
00100000
00001000
00000000
01000000
00000000
00010000
00100000
,
00000000
00100000
10000000
00000000
00100000
00000000
00010000
10000000
00000000
10000000
00100000
00000000
02100000
00000000
00000000
00000000
,
03200000
00000000
00000000
00000000
00000000
00000000
00000000
00000000
00000000
00000000
00000000
00000000
00000000
00000000
00000000
00000000
20300000
00000000
00000000
00000000
00000000
00000000
00000000
00000000
00000000
00000000
00000000
00000000
00000000
00000000
00000000
00000000
30010000
00000000
00000000
00000000
00000000
01000000
00000000
00000000
00000000
00000000
00100000
00000000
00000000
00000000
00000000
00000000
10000000
00000000
00000000
00000000
00000000
00000000
00000000
00000000
00000000
00000000
00000000
00000000
00000000
00000000
00000000
00000000
,
10000000
00000000
00000000
00000000
00000000
01000000
00000000
00000000
00000000
00000000
00100000
00000000
00000000
00000000
00000000
00000000
00010000
00000000
00000000
00000000
00000000
00000000
00000000
00000000
00000000
00000000
00000000
00000000
00000000
00000000
00000000
00000000
10000000
00000000
00000000
00000000
00000000
01000000
00000000
00000000
00000000
00000000
00010000
00000000
00000000
00000000
00000000
00000000
00001000
00000000
00000000
00000000
00000000
00000000
00000000
00000000
00000000
00000000
00000000
00000000
00000000
00000000
00000000
00000000
,
00000010
00000000
00000000
00000000
00000000
00000100
00000000
00000000
00000000
00000000
00000010
00000000
00000000
00000000
00000000
00000000
00001000
00000000
00000000
00000000
00000000
00000010
00000000
00000000
00000000
00000000
00000100
00000000
00000000
00000000
00000000
00000000
00000010
00000000
00000000
00000000
00000000
00000000
00000000
00000000
00000000
00000000
00000000
00000000
00000000
00000000
00000000
00000000
00000000
00000000
00000000
00000000
00000000
00000000
00000000
00000000
00000000
00000000
00000000
00000000
00000000
00000000
00000000
00000000
,
00000001
00000100
00000001
00000000
00001000
00000010
00001000
00000000
,
00000100
00010000
00001000
00000000
01000000
00010000
00100000
10000000
,
00100000
00010000
01000000
00000000
00100000
10000000
01000000
00000000
,
00010000
00001000
00010000
00000000
00001010
00010010
00000110
00000000
,
00000100
00000001
00000010
00000000
00000010
00001000
00010000
00000000
,
01000000
00010000
00001000
00000000
01000000
00011000
00000000
00011000
,
00000100
00001000
00010000
00000000
01000000
00100000
10000000
00000000
,
00100000
00000000
00000000
00000000
00000000
00000000
00000000
00000000
00001000
00000000
00000000
00000000
00000000
00000000
00000000
00000000
00010000
00000000
00000000
00000000
00000000
00000000
00000000
00000000
00000000
00000000
00000000
00000000
00000000
00000000
00000000
00000000
00000100
00000000
00000000
00000000
00000000
00001000
00000000
00000000
00000000
00000000
00000010
00000000
00000000
00000000
00000000
00000000
00000100
00000000
00000000
00000000
00000000
00000000
00000000
00000000
00000000
00000000
00000000
00000000
00000000
00000000
00000000
00000000
,
00000001
00000000
00000001
00000100
00000000
00000000
00001000
00000000
00010000
00000000
00010000
00001000
00000000
00000000
00000100
00000000
,
00000010
00000000
00000010
00010000
00000000
00000000
00001000
00000000
00100000
00000000
01000000
00000000
00010000
00000000
01000000
00000000
,
10000000
00000000
10000000
00100000
00000000
00000000
00010000
00000000
00100000
00000000
00100000
01000000
00000000
00000000
00001000
00000000
,
00010000
00000000
00010000
00000100
00000000
00000000
00000010
00000000
00001000
00000000
00000010
00000000
00000001
00000000
00000000
00000000
,
00000100
00001000
00010000
00100000
00010000
01000000
00010000
00001000
,
00010000
00000010
00000100
00001000
00010000
00100000
10000000
01000000
,
00100000
00000000
01000000
00100000
00000000
00001000
00010000
00000000
00000010
00000000
00000100
00000010
00000000
00001000
00000001
00000000
,
00000100
00000000
00000000
00000000
00000000
00000000
00000000
00000000
00000010
00000000
00000000
00000000
00001000
00000000
00000000
00000000
00000000
00000000
00000000
00000000
00001000
00000000
00000000
00000000
00000001
00000000
00000000
00000000
00000000
00000000
00000000
00000000
00000100
00000000
00000000
00000000
00000000
00001000
00000000
00000000
00000000
00000000
00010000
00000000
00000000
00000000
00000000
00000000
00100000
00000000
00000000
00000000
00000000
00000000
00000000
00000000
00000000
00000000
00000000
00000000
00000000
00000000
00000000
00000000
;

//---------------dance-single - ----------------
#NOTES:
     dance-single:
     :
     Easy:
     4:
     0.233,0.401,0.165,0.091,0.000: // measure 1
0000
0000
0000
0000
,  // measure 2
0000
0000
0000
0000
,  // measure 3
0000
0000
0000
0000
,  // measure 4
0000
0000
0000
0000
,  // measure 5
2000
0000
0000
0000
,  // measure 6
3002
0000
0000
0000
,  // measure 7
2003
0000
0000
0000
,  // measure 8
3002
0000
0000
0000
,  // measure 9
0103
0000
0010
0000
,  // measure 10
0100
0000
0010
0000
,  // measure 11
1000
0000
0001
0000
,  // measure 12
1000
0000
1001
0000
,  // measure 13
0010
0000
0010
0000
,  // measure 14
0000
0000
0000
0000
,  // measure 15
0000
0000
0010
0000
,  // measure 16
0000
0000
0000
0000
,  // measure 17
0000
0000
0100
0000
,  // measure 18
0000
0000
0000
0000
,  // measure 19
0000
0000
0100
0000
,  // measure 20
0000
0000
0000
0000
,  // measure 21
1001
0000
0000
0000
,  // measure 22
1001
0000
0100
0000
,  // measure 23
0100
0000
0100
0010
,  // measure 24
0100
0000
2002
0000
,  // measure 25
0000
0000
0000
0000
,  // measure 26
3003
0000
0010
0000
,  // measure 27
0100
0000
0001
0100
,  // measure 28
1000
0000
0010
0000
,  // measure 29
0100
0000
0010
1000
,  // measure 30
0010
0001
0100
0000
,  // measure 31
0010
0000
0100
0001
,  // measure 32
0010
1000
0010
0000
,  // measure 33
0100
0000
0001
1000
,  // measure 34
0110
0000
0001
0001
,  // measure 35
0100
0100
0001
0001
,  // measure 36
1001
0000
1000
1000
,  // measure 37
0010
0010
1000
1000
,  // measure 38
1001
0000
0001
0001
,  // measure 39
0010
0010
0001
0001
,  // measure 40
1001
0000
1000
1000
,  // measure 41
0100
0100
1000
1000
,  // measure 42
1001
0110
2002
0000
,  // measure 43
0000
0000
3003
1000
,  // measure 44
0010
0000
0100
0000
0001
0001
1001
0000
,  // measure 45
0010
0000
0100
0000
1000
1000
1001
0000
,  // measure 46
0001
0000
0100
0000
0010
0010
2000
0000
,  // measure 47
3002
2003
3001
1001
,  // measure 48
0100
0110
1000
1001
,  // measure 49
0110
0000
1001
0000
,  // measure 50
0001
0001
0010
0010
,  // measure 51
0100
0100
1000
0100
,  // measure 52
0001
0001
0100
0100
,  // measure 53
0010
0010
1000
0001
,  // measure 54
1000
1000
0100
0100
,  // measure 55
0010
0010
0001
0010
,  // measure 56
1000
1000
0010
0010
,  // measure 57
0100
0100
0001
0100
,  // measure 58
1000
1000
0010
0010
,  // measure 59
0100
0100
0001
0010
,  // measure 60
1000
1000
0100
0100
,  // measure 61
0010
0010
0001
1000
,  // measure 62
0010
0010
0100
0100
,  // measure 63
0001
0010
1000
0100
,  // measure 64
0001
0001
1000
1000
,  // measure 65
0100
0100
0110
1001
;

//---------------dance-single - ----------------
#NOTES:
     dance-single:
     :
     Challenge:
     9:
     0.552,0.588,0.074,0.107,0.553: // measure 1
0000
0000
0000
0000
,  // measure 2
0000
0000
0000
0000
,  // measure 3
0000
0000
0000
0000
,  // measure 4
0000
0000
0000
0000
,  // measure 5
0100
0000
0000
0001
0000
0000
1000
0000
0100
0000
1000
0000
0001
0000
0000
0100
,  // measure 6
0001
0010
0100
1000
0001
0000
1001
0000
,  // measure 7
0010
0000
0000
1000
0000
0000
0001
0000
0010
0000
0001
0000
1000
0000
0000
0010
,  // measure 8
1000
0100
0010
0001
1000
0000
1001
0000
,  // measure 9
0100
0000
0000
0001
0000
0010
0001
0000
1000
0000
0100
0000
1000
0000
0000
0010
,  // measure 10
1000
0100
0010
0001
1000
0000
1001
0000
,  // measure 11
0010
0000
0000
1000
0000
0100
1000
0000
0001
0000
0010
0000
0001
0000
0000
0100
,  // measure 12
0001
0000
0000
0010
0000
0000
0100
0000
0000
1000
0000
0000
0010
0000
0100
0000
0010
0000
0100
0000
0000
0000
0000
0000
,  // measure 13
2002
0000
0000
0000
0000
0000
3003
0000
0100
0000
0000
0001
0000
0000
1000
0000
,  // measure 14
0100
0000
2000
0000
0000
0001
0000
3001
0000
0000
0010
0000
0100
0000
2000
0000
,  // measure 15
0000
0000
0000
0000
3000
0000
0000
0000
0010
0000
0000
1000
0000
0000
0001
0000
,  // measure 16
0010
0000
0002
0000
0000
1000
0000
1003
0000
0000
0100
0000
0010
0000
0002
0000
,  // measure 17
0000
0000
1000
0000
1003
0000
0000
0000
0100
0000
0000
0001
0000
0000
1000
0000
,  // measure 18
0100
0000
2000
0000
0000
0001
0000
3001
0000
0000
0100
0000
0010
0000
0000
1000
,  // measure 19
0000
0000
1000
0000
0010
0000
0100
0000
0010
0000
0000
1000
0000
0000
0001
0000
,  // measure 20
0010
0000
0002
0000
0000
1000
0000
1003
0000
0000
0100
0000
0010
0000
0001
0000
,  // measure 21
1000
0000
0010
0000
1000
0000
0001
0000
0000
0000
0000
0000
0001
0000
0000
0010
0000
0000
0100
0000
0000
1000
0000
0000
,  // measure 22
0001
0000
0100
0000
0001
0000
1000
0000
0000
0000
0000
0000
1000
0000
0000
0100
0000
0000
0010
0000
0000
0001
0000
0000
,  // measure 23
1000
0100
0010
0001
1000
0100
0001
0100
,  // measure 24
1000
0000
0100
0000
0010
0000
0001
0000
0000
1000
0000
0000
2002
0000
0000
0000
0000
0000
0000
0000
0000
0000
0000
0000
,  // measure 25
0000
0000
0000
0000
,  // measure 26
0000
0000
0000
0000
3003
0000
0000
0000
0100
0001
0000
0100
0000
0001
0010
0000
,  // measure 27
0100
0000
1000
0010
0000
0100
0000
0010
0000
0000
1000
0000
0100
0000
0001
0000
,  // measure 28
1000
0000
0000
0000
1000
0000
0000
0000
0010
1000
0000
0010
0000
1000
0100
0000
,  // measure 29
0010
0000
0001
0100
0000
0010
0000
0100
0000
0000
0001
0000
0010
0000
2000
0000
,  // measure 30
0000
0000
0001
0000
3001
0000
0000
0000
0100
0001
0000
0100
0000
0001
0010
0000
,  // measure 31
0100
0000
1000
0001
0000
0010
0000
0001
0000
0100
0010
0000
0100
0010
0000
0100
,  // measure 32
0000
0000
0001
0000
0010
0000
1000
0000
0010
1000
0000
0010
0000
1000
0100
0000
,  // measure 33
0010
0000
0001
1000
0000
0100
0000
1000
0000
0000
0001
0000
0010
0000
1000
0000
,  // measure 34
0100
0000
0000
0000
0010
0000
0000
0000
0100
0000
0000
0000
0010
0000
0000
0000
0000
0000
0000
0000
0000
0000
0000
0000
0001
0000
0000
0000
0000
0000
0000
0000
0000
0001
0000
0000
0000
0000
0000
0000
0000
0000
0100
0000
0000
0000
0000
0000
,  // measure 35
0010
0000
0000
0010
0000
0000
1000
0000
0100
0000
0000
0100
0000
0000
1000
0000
,  // measure 36
0001
0000
0001
0000
0010
0000
0100
0000
1000
0000
0000
1000
0000
0000
0010
0000
,  // measure 37
0100
0000
0000
0100
0000
0000
0001
0000
0010
0000
0000
0010
0000
0000
0001
0000
,  // measure 38
1000
0000
1000
0000
0110
0000
0000
0000
0001
0000
0010
0001
0000
0000
0010
0000
,  // measure 39
0001
0000
1000
0100
0000
0000
1000
0000
0001
0000
0010
0001
0000
0000
1000
0000
,  // measure 40
0001
0000
0001
0000
0010
0000
0100
0000
1000
0000
0100
1000
0000
0000
0100
0000
,  // measure 41
1000
0000
0001
0010
0000
0000
0001
0000
1000
0000
0100
1000
0000
0000
0100
0000
,  // measure 42
1000
0100
0010
0001
0000
0000
2002
0000
0000
0000
0000
0000
,  // measure 43
0000
0000
0000
0000
3003
0000
0100
0010
,  // measure 44
0001
0000
0010
0000
1000
0000
0010
0000
0001
1000
0100
0010
0001
0000
0100
0000
,  // measure 45
1000
0000
0100
0000
0001
0000
1000
0001
0010
0100
1000
0000
0100
0000
0001
0000
,  // measure 46
0100
0000
1000
0000
0100
0000
0010
0000
0001
1000
0100
0010
0001
0100
0010
0000
,  // measure 47
1000
0000
0000
0100
0000
0000
0001
0000
0000
0000
0000
0000
0100
0000
0000
0010
0000
0000
1000
0000
0000
0100
0000
0000
1000
0000
0000
0000
0100
0000
0000
0000
1000
0000
0000
0000
0010
0000
0000
0000
0000
0000
0000
0000
0000
0000
0000
0000
,  // measure 48
0100
0001
0010
0001
0000
0000
0010
0001
0100
0001
0000
0000
,  // measure 49
1000
0010
1000
0001
0010
0001
1000
0000
0000
0000
0000
0000
,  // measure 50
1001
0000
0000
1000
0000
0000
0001
0000
0100
0000
0000
0100
0000
0000
0010
0000
,  // measure 51
1000
0000
0000
1000
0000
0000
0001
0000
1000
0000
1000
0000
0100
0000
0010
0000
,  // measure 52
0001
0000
0000
0001
0000
0000
1000
0000
0010
0000
0000
0010
0000
0000
0100
0000
,  // measure 53
0001
0000
0000
0001
0000
0000
1000
0000
0001
0000
0010
0000
1000
0000
0000
0000
,  // measure 54
0001
0000
0010
0001
0000
0000
1000
0000
0010
0000
0100
0010
0000
0000
1000
0000
,  // measure 55
0001
0000
0010
0001
0000
0000
1000
0000
0001
0000
0001
0000
0100
0000
0010
0000
,  // measure 56
1000
0000
0100
1000
0000
0000
0001
0000
0100
0000
0010
0100
0000
0000
0001
0000
,  // measure 57
1000
0000
0000
0000
0000
0000
0100
0000
0000
1000
0000
0000
0000
0000
0000
0000
0000
0000
0001
0000
0000
0000
0000
0000
0100
0000
0000
0000
0010
0000
0000
0000
0100
0000
0000
0000
0010
0000
0000
0000
0000
0000
0000
0000
0000
0000
0000
0000
,  // measure 58
1000
0000
0001
0010
0000
0001
0010
0000
0001
0000
1000
0010
0000
1000
0010
0000
,  // measure 59
1000
0000
0001
0010
0000
0001
0010
0000
0001
0000
1000
0000
0100
0000
0010
0000
,  // measure 60
0001
0000
1000
0100
0000
1000
0100
0000
1000
0000
0001
0100
0000
0001
0100
0000
,  // measure 61
0001
0000
1000
0100
0000
1000
0100
0000
1000
0000
0001
0000
0101
0000
0000
0000
,  // measure 62
0001
0000
1000
0010
0000
1000
0100
0000
1000
0000
0001
0100
0000
0001
0010
0000
,  // measure 63
0001
0000
1000
0010
0000
1000
0100
0000
1000
0000
0001
0000
0010
0000
0100
0000
,  // measure 64
1000
0000
0001
0010
0000
0001
1000
0000
0010
0000
1000
0100
0000
1000
0001
0000
,  // measure 65
1000
0000
0000
0000
0000
0000
0100
0000
0000
0010
0000
0000
0000
0000
0000
0100
0000
0000
0010
0000
0000
0000
0000
0000
0001
0000
0000
0000
0100
0000
0000
0000
0010
0000
0000
0000
1000
0000
0000
0000
0000
0000
0000
0000
0000
0000
0000
0000
;

//---------------dance-single - ----------------
#NOTES:
     dance-single:
     :
     Hard:
     8:
     0.450,0.534,0.289,0.091,0.276: // measure 1
0000
0000
0000
0000
,  // measure 2
0000
0000
0000
0000
,  // measure 3
0000
0000
0000
0000
,  // measure 4
0000
0000
0000
0000
,  // measure 5
0001
0000
0010
0000
1000
0001
0000
0100
,  // measure 6
0001
0100
0001
1000
0010
0000
0110
0000
,  // measure 7
1000
0000
0100
0000
0001
1000
0000
0010
,  // measure 8
1000
0010
1000
0001
0100
0000
0110
0000
,  // measure 9
0001
0000
0010
0000
1000
0001
0000
0010
,  // measure 10
0001
0010
0001
1000
0100
0000
0110
0000
,  // measure 11
1000
0000
0100
0000
0001
1000
0000
0100
,  // measure 12
1000
0100
1000
0001
0010
0000
0110
0000
,  // measure 13
1001
0000
2020
0000
,  // measure 14
0000
0000
0000
0000
,  // measure 15
3030
0000
0202
0000
,  // measure 16
0000
0000
0000
0000
,  // measure 17
0303
0000
2002
0000
,  // measure 18
0000
0000
0000
0000
,  // measure 19
0000
3003
0220
0000
,  // measure 20
0000
0000
0000
0330
,  // measure 21
1000
0001
1000
0001
0000
0000
0011
0000
0000
0000
0000
0000
,  // measure 22
0001
1000
0001
1000
0000
0000
1100
0000
0000
0000
0000
0000
,  // measure 23
0110
0000
1010
0110
,  // measure 24
0100
0000
0001
0000
0100
0000
0001
0000
0000
1000
0000
0000
0020
0000
0000
0000
0000
0000
0000
0000
0000
0000
0000
0000
,  // measure 25
0000
0000
0000
0000
,  // measure 26
0130
0000
0000
0000
0000
0000
0000
0000
0001
0000
0000
0100
0000
0000
0001
0000
,  // measure 27
1000
0000
0001
0000
0000
1000
0000
0010
0000
0000
0100
0000
0010
0000
0100
0000
,  // measure 28
0001
0000
0000
0000
0001
0000
0000
0000
1000
0000
0000
0010
0000
0000
1000
0000
,  // measure 29
0001
0000
1000
0000
0000
0001
0000
0100
0000
0000
0010
0000
0100
0000
0010
0000
,  // measure 30
0000
0000
1000
0000
0001
0000
0000
0000
1000
0000
0000
0100
0000
0000
1000
0000
,  // measure 31
0001
0000
1000
0000
0000
0001
0000
0100
0000
0000
0010
0000
1000
0000
0000
0010
,  // measure 32
0000
0000
1000
0000
0100
0000
0010
0000
0001
0000
0000
0010
0000
0000
0001
0000
,  // measure 33
1000
0000
0001
0000
0000
1000
0000
0010
0000
0000
0100
0000
0001
0000
1000
0000
,  // measure 34
0001
0000
0000
0000
0010
0000
0000
0000
0001
0000
0000
0000
0010
0000
0000
0000
0000
0000
0000
0000
0000
0000
0000
0000
0001
0000
0000
0000
0000
0000
0000
0000
0000
0001
0000
0000
0000
0000
0000
0000
0000
0000
0001
0000
0000
0000
0000
0000
,  // measure 35
1000
0000
0000
1000
0000
0000
1000
0000
0010
0000
0000
0010
0000
0000
0010
0000
,  // measure 36
0100
0000
0001
0000
0100
0000
0001
0000
1000
0000
0000
1000
0000
0000
1000
0000
,  // measure 37
0001
0000
0000
0001
0000
0000
0001
0000
0100
0000
0010
0000
0100
0000
0001
0000
,  // measure 38
1000
0000
0100
0000
0001
0000
0000
0000
1000
0000
0000
1000
0000
0000
1000
0000
,  // measure 39
0001
0000
0000
0001
0000
0000
0001
0000
0100
0000
0000
0100
0000
0000
0100
0000
,  // measure 40
0010
0000
1000
0000
0010
0000
1000
0000
0001
0000
0000
0001
0000
0000
0001
0000
,  // measure 41
1000
0000
0000
1000
0000
0000
1000
0000
0010
0000
0100
0000
0010
0000
1000
0000
,  // measure 42
0001
0010
0001
0010
0000
0000
2002
0000
0000
0000
0000
0000
,  // measure 43
0000
0000
0000
0000
3003
0000
0001
0010
,  // measure 44
0100
1000
0100
0001
0100
1000
0100
0010
,  // measure 45
0001
0010
1000
0010
0001
1001
0100
0010
,  // measure 46
0001
0000
1000
0000
0100
0000
0010
0000
0100
0000
1001
0000
0001
0010
0001
0000
,  // measure 47
1000
0000
0000
0100
0000
0000
1000
0000
0000
0000
0000
0000
0010
0000
0000
0100
0000
0000
0010
0000
0000
0000
0000
0000
1000
0000
0000
0000
0100
0000
0000
0000
1000
0000
0000
0000
0100
0000
0000
0000
0000
0000
0000
0000
0000
0000
0000
0000
,  // measure 48
0010
0001
0010
0001
0000
0000
0100
0001
0100
0001
0000
0000
,  // measure 49
1001
0000
1000
0000
0010
1000
0010
0000
0000
0000
0000
0000
,  // measure 50
1010
0000
1010
0000
1000
0100
0001
0000
,  // measure 51
0101
0000
0101
0000
0001
0010
1000
0001
,  // measure 52
0011
0000
0011
0000
0001
0010
1000
0000
,  // measure 53
1100
0000
1100
0000
1000
0100
0001
0000
,  // measure 54
1100
0000
1100
0000
1000
0100
0001
0000
,  // measure 55
0011
0000
0011
0000
0001
0010
1000
0001
,  // measure 56
0101
0000
0101
0000
0001
0010
1000
0000
,  // measure 57
1010
0000
0000
1010
0000
0000
1000
0001
1000
0001
0000
0000
,  // measure 58
0100
0000
0010
1000
0000
0000
0001
0000
1000
0000
0010
1000
0000
0000
0001
0000
,  // measure 59
1000
0000
0010
1000
0000
0000
0001
0000
1000
0000
0001
0000
1000
0000
0100
0000
,  // measure 60
0010
0000
0001
0100
0000
0000
0001
0000
1000
0000
0001
0100
0000
0000
0001
0000
,  // measure 61
1000
0000
0001
0100
0000
0000
0001
0000
1000
0000
0010
0000
0110
0000
0000
0000
,  // measure 62
0010
0000
1000
0100
0000
1000
0100
0000
1000
0000
0001
0010
0000
0001
0010
0000
,  // measure 63
0001
0000
1000
0010
0000
1000
0010
0000
1000
0000
0001
0000
0010
0000
0100
0000
,  // measure 64
1000
0000
0001
0100
0000
0001
0100
0000
0001
0000
1000
0010
0000
1000
0010
0000
,  // measure 65
1000
0000
0000
0000
0000
0000
0001
0000
0000
0010
0000
0000
0000
0000
0000
0001
0000
0000
0010
0000
0000
0000
0000
0000
0001
0000
0000
0000
0100
0000
0000
0000
0010
0000
0000
0000
1000
0000
0000
0000
0000
0000
0000
0000
0000
0000
0000
0000
;

//---------------dance-single - ----------------
#NOTES:
     dance-single:
     :
     Medium:
     6:
     0.370,0.481,0.264,0.099,0.062: // measure 1
0000
0000
0000
0000
,  // measure 2
0000
0000
0000
0000
,  // measure 3
0000
0000
0000
0000
,  // measure 4
0000
0000
0000
0000
,  // measure 5
0200
0000
0010
0000
,  // measure 6
0310
0100
0010
0000
,  // measure 7
0020
0000
0100
0000
,  // measure 8
0130
0010
0100
0000
,  // measure 9
0002
1000
1000
0000
,  // measure 10
1003
0010
0110
0000
,  // measure 11
2000
0001
0001
0000
,  // measure 12
3001
0100
0110
0110
,  // measure 13
1001
0000
0200
0000
,  // measure 14
0000
0000
0000
0000
,  // measure 15
0000
0300
0020
0000
,  // measure 16
0000
0000
0000
0000
,  // measure 17
0030
0000
2000
0000
,  // measure 18
0000
0000
0000
0000
,  // measure 19
3000
0000
0002
0000
,  // measure 20
0000
0000
0000
0003
,  // measure 21
0110
0110
0001
0000
,  // measure 22
0110
0110
1000
0000
,  // measure 23
0110
0000
0001
0001
,  // measure 24
0110
0110
2002
0000
,  // measure 25
0000
0000
0000
0000
,  // measure 26
3003
0000
1001
1000
,  // measure 27
1000
0001
0010
0001
0000
0100
0010
0100
,  // measure 28
0001
1000
0001
0001
,  // measure 29
0001
1000
0100
1000
0000
0010
0100
0010
,  // measure 30
0000
1000
0001
0000
1001
0000
1000
0000
,  // measure 31
1000
0000
0001
0000
0010
0000
0001
0000
0010
0000
0000
0000
0001
0000
0000
0100
,  // measure 32
0000
0100
0010
0100
0001
0000
0010
0000
,  // measure 33
1000
0100
0101
0101
,  // measure 34
0110
0000
1001
0000
0001
0100
0010
0000
,  // measure 35
0100
0010
0100
0000
0001
0100
0010
0000
,  // measure 36
1000
0001
0010
0100
1000
0010
0100
0000
,  // measure 37
0010
0100
0010
0000
1000
0010
0100
0000
,  // measure 38
0001
0100
1000
0000
0001
0100
0010
0000
,  // measure 39
0100
0010
0100
0000
0001
0100
0010
0000
,  // measure 40
1000
0001
0010
0100
1000
0010
0100
0000
,  // measure 41
0010
0100
0010
0000
1000
0010
0100
0000
,  // measure 42
0110
0110
2002
0000
,  // measure 43
0000
0000
0000
0000
3003
0000
0010
0001
,  // measure 44
1000
0100
1000
0010
1000
0100
0010
0001
,  // measure 45
0010
0100
0010
0100
1000
0010
0100
0001
,  // measure 46
0100
0000
0010
0000
0100
0000
0010
0000
1000
0000
0010
0000
1000
0001
1000
0000
,  // measure 47
1000
0001
1001
1001
,  // measure 48
0110
0110
1001
1001
,  // measure 49
1100
0011
1001
0000
,  // measure 50
0010
1000
0100
0000
1000
0010
1000
0000
,  // measure 51
0010
0100
0001
1000
0001
0010
0100
1000
,  // measure 52
0001
0100
0010
0000
0100
0001
0100
0000
,  // measure 53
0010
1000
0100
0000
1000
0100
0001
0000
,  // measure 54
0100
0001
0010
0000
0001
0100
0001
0000
,  // measure 55
0100
0010
1000
0001
1000
0100
0010
0001
,  // measure 56
1000
0000
0000
1000
0000
0000
1000
0000
0001
0000
0000
0000
0011
0000
0000
0000
,  // measure 57
0001
0000
0000
0001
0000
0000
1000
0000
0001
0000
0010
0000
1000
0000
0000
0000
,  // measure 58
0001
0000
0000
0001
0000
0000
0001
0000
1000
0000
0100
0000
1000
0000
0000
0000
,  // measure 59
1000
0000
0000
1000
0000
0000
1000
0000
0001
0000
0010
0000
0001
0000
1000
0000
,  // measure 60
0010
0000
0000
0010
0000
0000
1000
0000
0010
0000
0000
0010
0000
0000
1000
0000
,  // measure 61
0010
0000
0000
0010
0000
0000
1000
0000
0001
0000
0010
0000
0001
0000
0000
0000
,  // measure 62
0100
0000
0000
0100
0000
0000
0001
0000
0100
0000
0000
0100
0000
0000
0001
0000
,  // measure 63
0100
0000
0000
0100
0000
0000
0001
0000
0100
0000
0010
0000
0100
0000
0001
0000
,  // measure 64
1000
0000
0000
0100
0000
0000
1000
0000
0001
0000
0000
0010
0000
0000
0001
0000
,  // measure 65
1000
0000
0000
0100
0000
0000
1000
0000
0001
0000
0000
0000
1001
0000
0000
0000
;

//---------------dance-single - ----------------
#NOTES:
     dance-single:
     :
     Beginner:
     2:
     0.123,0.266,0.132,0.000,0.000: // measure 1
0000
0000
0000
0000
,  // measure 2
0000
0000
0000
0000
,  // measure 3
0000
0000
0000
0000
,  // measure 4
0000
0000
0000
0000
,  // measure 5
1000
0000
0000
0000
,  // measure 6
0000
0000
0000
0000
,  // measure 7
0001
0000
0000
0000
,  // measure 8
0000
0000
0000
0000
,  // measure 9
1000
0000
0000
0000
,  // measure 10
0000
0000
0000
0000
,  // measure 11
0010
0000
0000
0000
,  // measure 12
0000
0000
0000
0000
,  // measure 13
0010
0000
1001
0000
,  // measure 14
0000
0000
0000
0000
,  // measure 15
0000
0000
0010
0000
,  // measure 16
0000
0000
0000
0000
,  // measure 17
0000
0000
0010
0000
,  // measure 18
0000
0000
0000
0000
,  // measure 19
0000
0000
0100
0000
,  // measure 20
0000
0000
0000
0000
,  // measure 21
1001
0000
0000
0000
,  // measure 22
1001
0000
0000
0000
,  // measure 23
0001
0000
1000
0000
,  // measure 24
0000
0000
1001
0000
,  // measure 25
0000
0000
0000
0000
,  // measure 26
0000
0000
0010
0000
,  // measure 27
0100
0000
0010
0000
,  // measure 28
0000
0000
1000
0000
,  // measure 29
0001
0000
1000
0000
,  // measure 30
0000
0000
0010
0000
,  // measure 31
0100
0000
0010
0000
,  // measure 32
0000
0000
1000
0000
,  // measure 33
0001
0000
1000
0000
,  // measure 34
0000
0000
1001
0000
,  // measure 35
0001
0000
0001
0000
,  // measure 36
0000
0000
1001
0000
,  // measure 37
1000
0000
1000
0000
,  // measure 38
0000
0000
1001
0000
,  // measure 39
0001
0000
0001
0000
,  // measure 40
0000
0000
1001
0000
,  // measure 41
1000
0000
1000
0000
,  // measure 42
0001
0000
1001
0000
,  // measure 43
0000
0000
0000
0010
,  // measure 44
0010
0010
0000
0100
,  // measure 45
0100
0100
0000
0010
,  // measure 46
0010
0010
0000
0100
,  // measure 47
0100
0100
0110
0000
,  // measure 48
0110
0000
1001
0000
,  // measure 49
1001
0000
0000
0000
,  // measure 50
0010
0000
0100
0000
,  // measure 51
0010
0000
0100
0000
,  // measure 52
0010
0000
1000
0000
,  // measure 53
0001
0000
1001
0000
,  // measure 54
1000
0000
0001
0000
,  // measure 55
1000
0000
0001
0000
,  // measure 56
1000
0000
0010
0000
,  // measure 57
0100
0000
0110
0000
,  // measure 58
0001
0000
1000
0000
,  // measure 59
0001
0000
1000
0000
,  // measure 60
0010
0000
0100
0000
,  // measure 61
0010
0000
0100
0000
,  // measure 62
0010
0000
1000
0000
,  // measure 63
0010
0000
0100
0000
,  // measure 64
0001
0000
0100
0000
,  // measure 65
0100
0000
1001
0000
;
