#TITLE:Small Waves;
#SUBTITLE:;
#ARTIST:dj TAKA;
#TITLETRANSLIT:;
#SUBTITLETRANSLIT:;
#ARTISTTRANSLIT:;
#CREDIT:DMAxel;
#BANNER:Small Waves.png;
#BACKGROUND:Small Waves-bg.png;
#LYRICSPATH:;
#CDTITLE:beatmaniaIIDX.png;
#MUSIC:Small Waves.mp3;
#OFFSET:-7.940;
#SAMPLESTART:23.159;
#SAMPLELENGTH:12.000;
#SELECTABLE:YES;
#BPMS:0.000=126.000;
#STOPS:;
#BGCHANGES:;

//---------------dance-single - ----------------
#NOTES:
     dance-single:
     :
     Easy:
     4:
     0.259,0.397,0.279,0.139,0.000:
1001
0000
0000
0000
,
0010
0000
0000
0000
,
0010
0000
0110
0000
,
0001
1000
0001
1000
,
0110
0110
0110
0110
,
1001
1001
1001
1001
,
0001
0010
0100
1000
,
0020
0100
0100
0130
,
0010
0010
0010
0010
,
0100
0100
0100
0100
,
0101
0000
1010
0000
,
1000
1000
1001
0001
,
0100
0100
0100
0100
,
0010
0010
0010
0010
,
1010
0000
0101
0000
,
0001
0001
1001
1000
,
0010
0010
0110
0000
,
0010
0100
0010
0000
,
1000
0001
1000
0000
,
1001
0000
1000
0000
,
0001
0001
0001
1001
,
0100
0010
0100
0000
,
0001
1000
0001
0000
,
1001
0000
1000
0000
,
1000
1000
1000
1001
,
0200
0010
0000
0300
,
0020
0100
0000
0030
,
2000
0010
0000
3000
,
0002
0100
0000
0003
,
1000
0010
2000
0000
,
3001
0100
0002
0000
,
1003
0100
2000
0000
,
3001
0010
0002
0000
,
2003
0010
0000
3000
,
0002
0100
0000
0003
,
2000
0100
0000
3000
,
0002
0010
0000
0003
,
0200
0010
0000
0300
,
0020
0100
0000
0030
,
2000
0001
0001
3001
,
0002
1000
1000
1003
,
1001
0001
0001
0000
,
1001
1000
1000
0000
,
1001
0001
0001
0000
,
1001
1000
1000
0000
,
1001
0001
0001
1000
,
0100
0010
0100
0010
,
0001
1000
0001
1000
,
0010
0100
0010
0000
,
0110
0100
0100
0000
,
1001
0001
0001
0000
,
0110
0010
0010
0000
,
1001
1000
1000
0001
,
0011
0000
0000
0000
,
1100
0000
0000
0000
,
1001
1000
1000
1000
,
0100
0010
0001
1000
,
1001
0000
0000
0000
;

//---------------dance-single - ----------------
#NOTES:
     dance-single:
     :
     Medium:
     6:
     0.404,0.420,0.549,0.098,0.008:
0101
0000
0000
0000
0000
0000
0000
0101
,
1001
0000
0000
0000
0000
0000
0000
1010
,
1001
0000
0000
1000
1001
0000
0000
0001
,
1001
0000
1000
0000
1000
0100
0010
0001
,
1001
1001
1001
1001
,
0110
0110
0110
0110
,
1000
1000
0010
0010
0100
0100
0001
0001
,
1000
0100
1000
0100
1000
0100
1000
0000
,
1001
0000
0001
0000
0001
0010
0100
1000
,
1000
0000
1000
0000
1000
0100
0010
0001
,
0001
0000
0000
0100
0001
0000
0000
0100
,
0001
0000
0001
0000
1000
0000
0010
1000
,
1001
0000
0001
0000
0001
0010
0100
1000
,
1000
0000
1000
0000
1000
0100
0010
0001
,
0001
0000
0000
1000
0100
0000
0000
1000
,
0100
1100
1100
1001
,
0010
0000
0010
0000
0010
1000
0001
0010
,
0200
0000
1000
0000
1300
0001
0100
0000
,
0120
0000
0001
0000
0031
1000
0100
0000
,
0110
1000
0110
0001
,
0011
0011
1100
1100
,
0210
0000
0001
0000
0301
1000
0010
0000
,
0120
0000
1000
0000
1030
0001
0100
0000
,
0110
0000
0000
0010
1000
0000
0000
0010
,
1000
0000
1001
0000
1001
0000
0100
0010
,
0200
0010
0010
0300
,
0020
0100
0100
0030
,
2000
0001
0001
3000
,
0002
0000
1000
0000
1003
0000
1000
0001
,
1000
0100
0020
0001
,
0031
0010
0200
1000
,
1300
0100
0010
0001
,
1000
0000
0010
0000
1000
0001
0100
0001
,
0100
0010
1000
0010
,
0200
0000
0010
0000
0000
0000
0310
0100
,
0010
0100
0001
0100
,
0020
0000
0100
0000
0000
0000
0130
0010
,
0100
0000
0001
0000
0010
0000
0001
0010
,
0001
0000
1000
0000
0100
0000
1000
0100
,
1000
1001
0001
1001
,
1000
0001
1000
0001
1000
0000
0000
0000
,
0110
0001
1001
1000
,
0110
0001
1001
0001
,
0110
1000
1001
0001
,
0110
1001
0110
1001
,
0001
1000
0010
0000
0110
0000
1001
0000
,
1000
0001
0100
0000
0110
0000
1001
0000
,
0110
0110
1001
1001
,
0001
0010
0100
1000
0100
0010
0001
0000
,
1100
0000
1100
0000
1001
0000
1000
0001
,
0011
0000
0011
0000
1001
0000
0001
1000
,
1010
0000
1010
0000
1001
0000
1000
0001
,
0101
0101
0101
0110
,
1001
0000
0000
1000
0000
0000
1000
0000
0000
0000
0000
0000
0010
0000
0100
0000
,
0001
0000
0000
0001
0000
0000
0001
0000
0000
0000
0000
0000
0100
0000
0010
0000
,
1000
0000
0000
0100
1000
0000
0000
0001
,
0010
0001
1000
0100
0010
0001
1000
0000
,
1001
0000
0000
0000
;

//---------------dance-single - ----------------
#NOTES:
     dance-single:
     :
     Hard:
     8:
     0.523,0.490,0.574,0.016,0.168: // measure 1
1002
0000
1000
0000
1000
0000
1003
0010
,  // measure 2
2001
0000
0001
0000
0001
0000
3001
0100
,  // measure 3
1001
0000
0000
1000
1010
0000
0000
0001
,  // measure 4
0101
0000
1100
0000
0011
0010
1010
1000
,  // measure 5
1001
1001
0110
0110
,  // measure 6
1001
0000
0000
0001
1000
0000
0000
1000
0001
0000
0000
0001
1000
0000
0000
1000
,  // measure 7
0001
0010
0001
0100
0010
1000
0100
1000
,  // measure 8
0001
0010
0100
1000
0001
0010
0001
0000
,  // measure 9
1001
0000
1000
0010
0100
0000
0001
1000
,  // measure 10
1001
0000
0001
0100
0010
0000
1000
0001
,  // measure 11
1001
0000
0100
0001
0101
0000
0010
1000
,  // measure 12
1010
0000
1001
0000
1100
0000
0011
0011
,  // measure 13
1001
0000
0001
0010
0100
0000
1000
0010
,  // measure 14
0110
0000
1000
0100
0010
0000
0001
0100
,  // measure 15
0110
0000
0001
1000
1100
0000
1000
0001
,  // measure 16
0011
0000
1010
0000
0101
0000
0010
1000
,  // measure 17
1001
0000
1001
0000
1000
0100
0010
0001
,  // measure 18
1000
0100
1000
0001
0000
0100
0001
1100
,  // measure 19
0011
0010
0001
1000
0000
0010
1000
0011
,  // measure 20
1100
0000
0001
0100
0110
0000
1000
0010
,  // measure 21
0110
0000
0101
0000
1100
0000
1001
1001
,  // measure 22
1100
0100
1000
0001
0000
0010
0100
1100
,  // measure 23
0011
0010
0001
1000
0000
0100
0010
0011
,  // measure 24
1100
0000
0001
0100
0110
0000
1000
0010
,  // measure 25
0110
0000
1010
0000
0011
0000
1001
1001
,  // measure 26
1100
0000
0100
1000
0000
0010
0100
0010
,  // measure 27
1000
0001
0010
0001
0000
0100
0010
0100
,  // measure 28
0001
1000
0100
1000
0000
0010
0100
0010
,  // measure 29
0100
0001
0010
0100
1000
0001
0100
0010
,  // measure 30
1010
0000
0010
1000
0000
0001
0010
0001
,  // measure 31
1000
0010
0100
0001
0000
1000
0100
1000
,  // measure 32
0001
0100
0010
1000
0000
0100
0010
0001
,  // measure 33
1000
0010
0100
0001
1000
0100
0010
0001
,  // measure 34
1001
0000
0000
0000
1000
0000
0000
0010
0000
0000
1000
0000
0000
0001
0000
0000
,  // measure 35
0010
0000
0000
0000
0001
0000
0000
0100
0000
0000
0001
0000
0000
1000
0000
0000
,  // measure 36
0100
0000
0000
0000
1000
0000
0000
0100
0000
0000
1000
0000
0000
0001
0000
0000
,  // measure 37
0100
0000
0000
0000
0001
0000
0000
0010
0000
0000
0001
0000
1000
0000
0100
0000
,  // measure 38
0010
0000
0000
0001
1000
0000
0000
0100
0000
0000
1000
0000
0001
0000
0010
0000
,  // measure 39
0001
0000
0000
1000
0001
0000
0000
0010
0000
0000
0001
0000
1000
0000
0100
0000
,  // measure 40
1000
0000
0000
0001
0100
0000
0000
0010
0000
0000
0100
0000
0001
0000
0010
0000
,  // measure 41
0001
0000
0000
1000
0010
0000
0100
0000
0001
0000
0010
0000
0100
0000
1000
0000
,  // measure 42
0001
0000
0000
0011
0000
0000
0011
0000
0000
0000
0000
0000
0010
0000
0001
0000
,  // measure 43
1000
0000
0000
1100
0000
0000
1100
0000
0000
0000
0000
0000
0100
0000
1000
0000
,  // measure 44
0001
0000
0000
0101
0000
0000
0101
0000
0000
0000
0000
0000
0100
0000
0001
0000
,  // measure 45
1000
0100
0010
0001
1000
0100
0001
1000
,  // measure 46
1001
0000
0000
0110
0000
0000
1001
0000
0000
0000
0000
0000
0001
0000
1000
0000
,  // measure 47
1001
0000
0000
0110
0000
0000
1001
0000
0000
0000
0000
0000
1000
0000
0001
0010
,  // measure 48
0001
1000
0100
0010
0001
0100
1000
0001
,  // measure 49
0010
0100
1000
0100
0001
0010
0100
1000
,  // measure 50
0001
0100
0000
0001
0100
0000
0001
0100
0000
0000
0001
0000
1000
0000
0100
0000
,  // measure 51
1000
0010
0000
1000
0010
0000
1000
0010
0000
0000
1000
0000
0001
0000
0010
0000
,  // measure 52
0001
1000
0000
0001
1000
0000
0001
1000
0000
0000
0100
0000
0010
0000
0001
0000
,  // measure 53
1000
0001
0010
0100
1000
0001
0010
0001
,  // measure 54
0100
0001
0000
0100
0010
0000
0100
0001
0000
0000
0010
0000
0100
0000
1000
0000
,  // measure 55
0010
1000
0000
0010
0100
0000
0010
1000
0000
0000
0100
0000
0010
0000
0001
0000
,  // measure 56
1001
0000
0100
1000
1001
0000
0001
0010
,  // measure 57
0100
0000
1000
0000
0100
0000
0001
0000
1000
0100
1000
0100
1000
0000
0001
0000
,  // measure 58
1001
0000
0000
0000
;

//---------------dance-single - ----------------
#NOTES:
     dance-single:
     :
     Beginner:
     1:
     0.081,0.140,0.090,0.000,0.000:
1000
0000
0000
0000
,
0001
0000
0000
0000
,
1000
0000
0010
0000
,
0100
0000
0100
0000
,
0110
0000
0000
0000
,
0010
0000
0000
0000
,
0100
0000
0000
0000
,
1001
0000
0000
0000
,
0010
0000
0000
0000
,
0000
0000
0000
0000
,
0100
0000
0000
0000
,
0000
0000
0000
0000
,
0001
0000
0000
0000
,
0000
0000
0000
0000
,
1000
0000
0000
0000
,
0001
0000
0000
0000
,
1001
0000
0000
0000
,
0100
0000
0000
0000
,
0010
0000
0000
0000
,
0100
0000
0000
0000
,
0010
0000
0000
0000
,
1001
0000
0000
0000
,
0000
0000
0000
0000
,
0110
0000
0000
0000
,
1000
0000
0000
0000
,
0001
0000
0000
0000
,
0000
0000
0000
0000
,
0001
0000
0000
0000
,
0000
0000
0000
0000
,
1000
0000
0000
0000
,
0000
0000
0000
0000
,
1000
0000
0000
0000
,
0010
0000
0000
0000
,
0110
0000
0000
0000
,
0001
0000
0000
0000
,
0100
0000
0000
0000
,
0110
0000
0000
0000
,
0010
0000
0000
0000
,
0100
0000
0000
0000
,
0010
0000
0000
0000
,
1000
0000
0000
0000
,
0001
0000
0000
0000
,
0001
0000
0000
0000
,
0100
0000
0000
0000
,
0100
0000
0000
0000
,
0010
0000
0000
0000
,
0010
0000
0000
0000
,
0010
0000
0010
0000
,
0100
0000
0100
0000
,
0110
0000
0000
0000
,
1000
0000
0000
0000
,
0001
0000
0000
0000
,
1000
0000
1000
0000
,
1001
0000
0000
0000
,
0001
0000
0000
0000
,
0001
0000
0001
0000
,
1001
0000
1000
0000
,
1001
0000
0000
0000
;
