#TITLE:SigSig;
#SUBTITLE:-colorful mix-;
#ARTIST:arakiP;
#TITLETRANSLIT:;
#SUBTITLETRANSLIT:;
#ARTISTTRANSLIT:;
#CREDIT:DMAxel;
#BANNER:SigSig -colorful mix-.png;
#BACKGROUND:SigSig -colorful mix--bg.png;
#LYRICSPATH:SigSig -colorful mix-.lrc;
#CDTITLE:BEMANI game remix.png;
#MUSIC:SigSig -colorful mix-.MP3;
#OFFSET:-0.100;
#SAMPLESTART:57.341;
#SAMPLELENGTH:12.000;
#SELECTABLE:YES;
#BPMS:0.000=179.100;
#STOPS:;
#BGCHANGES:0.000=SigSig -colorful mix-.AVI=1.000=1=1=0,
99999=-nosongbg-=1.000=0=0=0 // don't automatically add -songbackground-
;

//---------------dance-single - ----------------
#NOTES:
     dance-single:
     :
     Easy:
     3:
     0.242,0.357,0.051,0.153,0.000:
0000
0000
0000
0000
,
0000
0000
0000
0000
,
0000
0000
0000
0000
,
0000
0000
0000
0000
,
0000
0000
0000
0000
,
0000
0000
0000
0000
,
0000
0000
0000
0000
,
0000
0000
0000
0000
,
0000
0000
0000
0000
,
0000
0000
0000
0000
,
0000
0000
0000
0002
,
0000
0000
0000
0000
,
0000
0000
0000
0023
,
0000
0000
0000
0000
,
0000
0000
0000
0230
,
0000
0000
0000
0000
,
0000
0000
0000
2300
,
0000
0000
0000
0000
,
0000
3000
0000
0001
,
0000
1000
0000
0001
,
0000
0010
0000
0001
,
0000
1000
0000
0100
,
0000
0100
0000
1000
,
0000
0010
0000
1000
,
0000
0010
0000
0100
,
0000
0010
0000
0100
,
0000
0100
0000
0001
,
0000
0010
0000
0100
,
0000
1000
0000
0010
,
0000
1000
0000
0010
,
0000
0010
0000
0100
,
0000
0001
0000
0010
,
0000
0010
0000
0001
,
0000
1000
0000
0010
,
0000
0010
0000
1000
,
0100
1000
0100
1000
,
0100
1000
0000
0001
,
0010
0001
0010
0001
,
0010
0001
0000
1000
,
0001
1000
0001
1000
,
0001
1000
0000
0001
,
1000
0001
1000
0001
,
1000
1000
0000
0010
,
0000
0000
0000
0010
,
0010
0100
0010
1000
,
1000
1000
0000
0010
,
0100
0001
0010
0001
,
0001
0001
0000
0010
,
0100
1000
0100
1000
,
1000
1000
0000
0100
,
0010
0001
0100
0001
,
0010
0100
0000
1000
,
1000
0010
0100
0010
,
0010
0010
1000
0001
,
0001
0010
0100
1000
,
0010
0100
0000
0010
,
0010
0100
0001
0010
,
0100
1000
0000
0100
,
1000
0010
0100
0001
,
0001
0001
0000
0010
,
0100
1000
0010
0100
,
0010
1000
0000
0100
,
0010
0001
0100
0001
,
0010
0100
1000
1001
,
0010
0001
0010
0001
,
0001
0001
0000
0010
,
0100
1000
0010
1000
,
1000
1000
0000
2200
,
0000
0000
3300
2002
,
0000
0000
3003
0022
,
0000
0000
0033
1001
,
0001
0010
0100
2000
,
0000
0000
0000
3020
,
0000
0000
0000
0230
,
0000
0000
0000
0302
,
0000
0000
0000
0023
,
0000
0000
0000
0230
,
0000
0000
0000
2300
,
0000
0000
0000
3002
,
0000
0000
0000
1003
,
0000
1000
0000
1000
,
0000
1000
0000
0001
,
0000
0001
0000
0001
,
0000
0010
0000
1100
;

//---------------dance-single - ----------------
#NOTES:
     dance-single:
     :
     Hard:
     7:
     0.439,0.535,0.443,0.119,0.000:
0000
0000
0000
0000
,
0000
0000
0000
0000
,
0000
0000
0000
0000
,
0000
0000
0000
0000
,
0000
0000
0000
0000
,
0000
0000
0000
0000
,
0000
0000
0000
0000
,
0000
0000
0000
0000
,
0000
0000
0000
0000
,
0000
0000
0000
0000
,
0000
0000
0000
2000
,
0000
0000
0000
3200
,
0000
0000
0000
0320
,
0000
0000
0000
0032
,
0000
0000
0000
0203
,
0000
0000
0000
0302
,
0000
0000
0000
2003
,
0000
0000
0000
3020
,
0000
0000
0000
1030
,
1000
0100
0010
0001
,
0100
0001
0000
0010
,
0010
0001
0010
0100
,
1000
0010
0000
1000
,
1000
0100
0010
0001
,
0100
0001
0000
0010
,
0010
0001
0010
0100
,
1000
0010
0100
0010
,
0010
1000
0100
0010
,
0001
0100
0000
0010
,
0010
1000
0100
0010
,
0001
0100
0000
0010
,
0010
0100
0001
0010
,
0100
1000
0000
0010
,
0010
0000
1000
0100
1000
0000
0100
0000
,
0010
0001
0000
1001
,
0011
0000
0100
1000
0100
0000
1000
0010
,
1000
0000
0001
1000
0001
0000
1001
0000
,
1100
0000
0010
0001
0010
0000
0001
0100
,
0001
0000
1000
0001
1000
0000
1001
0000
,
0101
0000
0010
1000
0010
0000
1000
0100
,
1000
0000
0001
1000
0001
0000
1001
0000
,
0100
1010
0010
0101
,
0110
2002
0000
3003
,
0000
0000
0000
1100
,
1000
0100
0010
0000
0100
1000
0100
0000
,
0011
1001
0000
0011
,
0001
0010
0100
0000
0010
0001
0010
0000
,
1100
1001
0000
1001
,
1010
0000
1000
0010
0100
0000
0010
1000
,
0010
0101
1001
1100
,
0100
1000
0100
0001
0010
0100
1000
0000
,
0011
1001
0000
1001
,
0010
0001
0100
0010
0100
0000
1010
0000
,
0110
0000
1001
0000
0010
1000
0100
0000
,
1000
0100
0001
0010
0100
1000
0001
0000
,
0110
1001
0000
1010
,
0010
1000
0100
1000
0100
0000
0011
0000
,
0110
1001
0000
0101
,
0100
0001
0010
0001
0010
0000
1100
0000
,
0110
1001
0000
1100
,
0100
1000
0001
0100
0001
0000
1010
0000
,
0110
1001
0100
0011
,
0010
0001
1000
0010
1000
0100
0010
0000
,
0101
0110
0001
1001
,
0001
0010
0100
1000
0010
1000
0100
1000
,
0010
0100
0010
0000
1000
0000
1001
0000
,
1000
0100
0010
0001
0100
0001
0010
0001
,
0100
0010
0100
0000
0001
0000
0011
0000
,
0000
0000
0000
1000
0000
0000
1001
0000
,
0000
0000
0001
0011
,
0000
0000
1000
1100
,
1000
0000
0100
0000
0010
0000
0001
0010
,
0001
0000
0001
0010
0001
0000
1000
0100
,
1000
0000
1000
0100
1000
0000
0001
0100
,
0001
0000
0001
0100
0001
0000
1000
0010
,
1000
0000
1000
0100
0010
0001
0100
0010
,
0100
0000
0100
0010
0100
0000
0001
1000
,
0001
0000
0001
1000
0001
0000
1000
0100
,
1000
0000
1000
0100
1000
0000
0001
0010
,
0001
0000
0001
0010
0100
1000
0020
0000
,
0000
0000
0000
2030
,
0000
0000
0000
3200
,
0000
0000
0000
0320
,
0000
0000
0030
1001
;

//---------------dance-single - ----------------
#NOTES:
     dance-single:
     :
     Challenge:
     8:
     0.560,0.540,0.417,0.213,0.000:
0000
0000
0000
0000
,
0000
0000
0000
0000
,
0000
0000
0000
0000
,
0000
0000
0000
0000
,
0000
0000
0000
0000
,
0000
0000
0000
0000
,
0000
0000
0000
0000
,
0000
0000
0000
0000
,
0000
0000
0000
0000
,
0000
0000
0000
0000
,
0000
0000
0000
0001
,
0100
0001
0100
0001
,
0010
0100
1000
0010
,
1000
0010
1000
0100
,
0010
0001
0000
0100
,
0001
0100
0001
0010
,
0100
1000
0010
1000
,
0100
1000
0100
0010
,
0001
0010
0001
1001
,
0011
0000
0001
0010
0100
1000
0010
1000
,
0100
1000
0010
0000
1000
0000
1100
0000
,
1000
0100
0010
0001
0100
0001
0010
0001
,
0100
0000
0001
0000
0101
0000
0001
0010
,
0100
1000
0010
1000
0100
1000
0010
0000
,
1000
1010
1001
0100
,
0001
0100
1000
0010
0100
0010
1000
0000
,
0100
0000
0010
0000
0001
0100
0001
0000
,
0100
0001
0100
0001
0010
0000
1100
0000
,
0110
1001
0000
1100
,
1000
0100
0010
0001
0010
0001
0100
0000
,
0101
1001
0000
0011
,
0001
0010
0100
1000
0100
1000
0010
0000
,
1010
1001
0000
0110
,
0100
0001
0010
0100
1000
0010
1000
0000
,
0100
1000
0010
1001
,
1000
0100
0010
0001
0010
0000
0001
0100
,
0001
0000
1000
0001
1000
0000
1001
0000
,
0001
1000
0100
1000
0100
0000
1000
0010
,
1000
0000
0001
1000
0001
0000
1001
0000
,
1010
0000
0100
0001
0100
0000
0001
0010
,
0001
0000
1000
0001
1000
0000
1001
0000
,
0010
0101
0100
1010
,
0110
2002
0000
3003
,
0000
0000
0000
1000
0100
0010
0002
0000
,
0100
0000
0103
0010
1000
0010
2000
0000
,
0010
0000
3010
0100
0001
0100
0020
0000
,
1000
0000
1030
0010
0100
0010
1000
0000
,
0011
0000
1001
0000
0001
0010
2000
0000
,
0010
0000
3010
0100
0001
0100
0002
0000
,
0100
0000
0103
0010
1000
0000
1000
0100
,
0010
0001
0010
1000
0100
0010
0001
0000
,
1100
1001
0000
1001
,
0100
1000
0010
0100
0010
0000
0101
0000
,
0110
0000
1001
0000
0100
0001
0010
0000
,
0001
0010
1000
0100
0010
0001
1000
0000
,
0110
0000
1001
0000
1000
0100
0002
0000
,
0100
0000
0103
0010
0100
0001
2000
0000
,
0010
0000
3010
0100
0001
0100
0020
0000
,
1000
0000
1030
0100
0010
0000
0011
0000
,
0110
0000
1001
0000
0001
0100
2000
0000
,
0010
0000
3010
0100
0010
0100
0002
0000
,
0100
0000
0103
0010
1000
0000
0100
1000
,
0100
1000
0001
0100
0001
0010
0100
0000
,
1010
0000
0110
0000
1000
0100
0002
0000
,
0100
0000
0103
0010
0100
0001
2000
0000
,
0010
0000
3010
0100
0001
0100
0020
0000
,
0100
0000
0130
0001
0010
0001
0100
1000
,
0010
0100
0010
0000
1000
0100
0002
0000
,
0000
0000
0000
1003
0000
1100
2001
0000
,
0000
0000
3001
1001
,
0010
0000
0010
0001
0100
0000
0011
0000
,
1001
0000
1100
0000
1001
0000
1000
0100
,
1000
0100
0010
0001
0000
0100
0001
0010
,
0001
0100
0010
0100
0001
0000
0010
0100
,
1000
0000
0100
0010
0001
0000
0001
0100
,
0001
0100
0001
0010
0100
1000
0010
0100
,
0010
0000
0010
0100
0010
0000
1000
0100
,
0010
0000
0001
0010
1000
0000
0001
0010
,
0100
0000
1000
0100
0001
0000
1000
0010
,
1000
0010
1000
0100
0010
0001
0210
0000
,
0000
0320
0000
2030
,
0000
3200
0000
0320
,
0000
0000
0032
0000
0000
0000
1003
0100
,
0010
0001
1000
0100
0010
0001
2002
0000
,
0000
0000
3003
0000
;

//---------------dance-single - ----------------
#NOTES:
     dance-single:
     :
     Beginner:
     1:
     0.086,0.107,0.051,0.000,0.000:
0000
0000
0000
0000
,
0000
0000
0000
0000
,
0000
0000
0000
0000
,
0000
0000
0000
0000
,
0000
0000
0000
0000
,
0000
0000
0000
0000
,
0000
0000
0000
0000
,
0000
0000
0000
0000
,
0000
0000
0000
0000
,
0000
0000
0000
0000
,
0000
0000
0000
1000
,
0000
0000
0000
0000
,
0000
0000
0000
1000
,
0000
0000
0000
0000
,
0000
0000
0000
0001
,
0000
0000
0000
0000
,
0000
0000
0000
0001
,
0000
0000
0000
0000
,
0000
0000
0000
1001
,
0000
0000
0000
0000
,
0000
0000
0000
0010
,
0000
0000
0000
0000
,
0000
0000
0000
1000
,
0000
0000
0000
0000
,
0000
0000
0000
0001
,
0000
0000
0000
0000
,
0000
0000
0000
1001
,
0000
0000
0000
0000
,
0000
0000
0000
0100
,
0000
0000
0000
0000
,
0000
0000
0000
0001
,
0000
0000
0000
0000
,
0000
0000
0000
0010
,
0000
0000
0000
0100
,
0000
0000
0000
1001
,
0000
0000
0000
0000
,
0000
0000
0000
0100
,
0000
0000
0000
0000
,
0000
0000
0000
1000
,
0000
0000
0000
0001
,
0000
0000
0000
0010
,
0000
0001
0000
1000
,
0000
0000
0000
0001
,
0000
0000
0000
1001
,
0000
1000
0000
1000
,
0000
0000
0000
0001
,
0000
0001
0000
0001
,
0000
0000
0000
0100
,
0000
0100
0000
0100
,
0000
0000
0000
0010
,
0000
0010
0000
0010
,
0000
0000
0000
1000
,
0000
1000
0000
1000
,
0000
0000
0000
0010
,
0000
0010
0000
0010
,
0000
0000
0000
0100
,
0000
0100
0000
0100
,
0000
0000
0000
0001
,
0000
0001
0000
0001
,
0000
0000
0000
0010
,
0000
0010
0000
0010
,
0000
0000
0000
0100
,
0000
0100
0000
0100
,
0000
0000
0000
1000
,
0000
0001
0000
1000
,
0000
0000
0000
0001
,
0000
1000
0000
0001
,
0000
0000
0000
1000
,
0000
0000
0000
0001
,
0000
0000
0000
1000
,
0000
0000
0000
0010
,
0000
0000
0000
0100
,
0000
0000
0000
0000
,
0000
0000
0000
0000
,
0000
0000
0000
0000
,
0000
0000
0000
0100
,
0000
0000
0000
0000
,
0000
0000
0000
0000
,
0000
0000
0000
0000
,
0000
0000
0000
0110
,
0000
0000
0000
0000
,
0000
0000
0000
0000
,
0000
0000
0000
0000
,
0000
0000
0000
1001
;

//---------------dance-single - ----------------
#NOTES:
     dance-single:
     :
     Medium:
     5:
     0.332,0.499,0.281,0.060,0.000:
0000
0000
0000
0000
,
0000
0000
0000
0000
,
0000
0000
0000
0000
,
0000
0000
0000
0000
,
0000
0000
0000
0000
,
0000
0000
0000
0000
,
0000
0000
0000
0000
,
0000
0000
0000
0000
,
0000
0000
0000
0000
,
0000
0000
0000
0000
,
0000
0000
0000
1000
,
0000
0000
0000
0100
,
0000
0000
0000
0010
,
0000
0000
0000
0001
,
0000
0000
0000
0100
,
0000
0000
0000
0001
,
0000
0000
0000
1000
,
0000
0000
0000
0010
,
0000
0000
0000
1001
,
0100
1000
0100
1000
,
0100
0010
0000
0001
,
0100
0001
0010
0001
,
0010
0100
0000
1000
,
0010
1000
0100
1000
,
0100
0010
0000
0001
,
0000
0100
0000
0001
,
0010
0001
0000
0100
,
0010
0100
0001
0100
,
0010
1000
0000
0100
,
1000
0010
1000
0100
,
0010
0001
0000
0100
,
0001
0010
0001
0100
,
0010
0100
0001
0010
,
0100
1000
0001
1000
,
0100
0010
0001
1001
,
0010
0001
0010
0001
,
0010
0000
0001
1000
0001
0000
1000
0000
,
0100
1000
0100
1000
,
0100
0000
1000
0001
1000
0000
0001
0000
,
1000
0001
1000
0001
,
1000
0000
0001
0000
0010
0100
1000
0000
,
0101
0001
1010
1001
,
0110
1001
0000
0200
,
0000
0000
0000
1300
,
0100
0010
0100
0000
1000
0000
0100
0000
,
0010
0001
0000
0001
,
0010
0100
0010
0000
0001
0000
0010
0000
,
0100
1000
0000
1000
,
0100
0010
0100
0000
1000
0000
0010
0000
,
0100
0001
0000
0001
,
0010
0100
0010
0000
0001
0010
0100
0000
,
1000
1001
0000
1000
,
0010
0100
0010
0000
0010
0000
1000
0000
,
0100
0010
0001
1001
,
0100
0001
0100
0000
0010
1000
0001
0000
,
0100
0110
0000
0100
,
0001
0010
0100
0000
1000
0000
0110
0000
,
0110
1001
0000
0010
,
1000
0100
0010
0000
0001
0000
0110
0000
,
0110
1001
0000
0100
,
0001
0010
0100
0000
1001
0000
0110
0000
,
0110
1001
0000
0010
,
1000
0100
0010
0000
0001
1000
0001
0000
,
0100
0010
0100
0000
0001
0000
1001
0000
,
0100
1000
0010
0000
0100
0000
0011
0000
,
1100
1001
0000
0100
,
0010
0001
0100
0000
0010
0000
1100
0000
,
0011
1001
0000
0022
,
0000
0000
0033
2002
,
0000
0000
3003
2200
,
0000
0000
3300
1001
,
1000
0100
0010
0001
,
0000
0001
0000
0100
,
0000
0100
0000
0010
,
0000
0010
0000
1000
,
0000
1000
0000
0100
,
0000
0100
0000
0010
,
0000
0010
0000
0001
,
0000
0001
0000
1000
,
0000
1000
0000
1001
,
0000
0001
0000
0001
,
0000
0001
0000
1000
,
0000
1000
0000
1000
,
0000
0100
0000
0011
;

//---------------dance-double - ----------------
#NOTES:
     dance-double:
     :
     Easy:
     3:
     0.243,0.357,0.043,0.196,0.000:
00000000
00000000
00000000
00000000
,
00000000
00000000
00000000
00000000
,
00000000
00000000
00000000
00000000
,
00000000
00000000
00000000
00000000
,
00000000
00000000
00000000
00000000
,
00000000
00000000
00000000
00000000
,
00000000
00000000
00000000
00000000
,
00000000
00000000
00000000
00000000
,
00000000
00000000
00000000
00000000
,
00000000
00000000
00000000
00000000
,
00000000
00000000
00000000
00000200
,
00000000
00000000
00000000
00000000
,
00000000
00000000
00000000
00002300
,
00000000
00000000
00000000
00000000
,
00000000
00000000
00000000
00023000
,
00000000
00000000
00000000
00000000
,
00000000
00000000
00000000
00230000
,
00000000
00000000
00000000
00000000
,
00000000
00300000
00000000
00000100
,
00000000
00100000
00000000
00000100
,
00000000
00000100
00000000
00000010
,
00000000
00010000
00000000
00001000
,
00000000
00001000
00000000
00010000
,
00000000
00000100
00000000
00010000
,
00000000
00000010
00000000
00000100
,
00000000
00000010
00000000
00000100
,
00000000
00000100
00000000
00000001
,
00000000
00000010
00000000
00000100
,
00000000
00010000
00000000
00000100
,
00000000
00010000
00000000
00000100
,
00000000
00000100
00000000
00001000
,
00000000
00000010
00000000
00000100
,
00000000
00001000
00000000
00000100
,
00000000
00100000
00000000
00001000
,
00000000
00001000
00000000
00100000
,
00010000
00100000
00010000
00100000
,
00100000
01000000
00000000
00001000
,
00010000
00001000
00010000
00001000
,
00010000
00001000
00000000
01000000
,
00001000
01000000
00001000
01000000
,
00010000
10000000
00000000
00010000
,
10000000
00010000
10000000
00010000
,
10000000
10000000
00000000
02000000
,
00000000
00000000
00000000
03100000
,
00010000
00100000
00010000
01000000
,
01000000
01000000
00000000
00010000
,
00100000
00001000
00010000
00001000
,
00001000
00001000
00000000
00010000
,
00010000
00100000
00010000
00100000
,
00100000
00100000
00000000
00010000
,
00001000
00000100
00010000
00000100
,
00001000
00010000
00000000
00100000
,
00010000
00000100
00001000
00000100
,
00000100
00000100
00010000
00000010
,
00000010
00000100
00001000
00010000
,
00000100
00001000
00000000
00000100
,
00000010
00000100
00000001
00000010
,
00000100
00001000
00000000
00100000
,
00001000
00100000
00010000
10000000
,
10000000
10000000
01000000
00100000
,
00001000
00010000
00000100
00001000
,
00000100
00010000
00000000
00100000
,
01000000
10000000
01000000
00100000
,
00010000
00001000
00010000
00010010
,
00001000
00000100
00001000
00000100
,
00000100
00000100
00000000
00001000
,
00010000
00100000
00001000
00100000
,
00100000
00100000
00000000
00220000
,
00000000
00000000
00330000
00200200
,
00000000
00000000
00300300
00002200
,
00000000
00000000
00003300
00100000
,
00000100
00001000
00010000
00200000
,
00000000
00000000
00000000
00302000
,
00000000
00000000
00000000
00023000
,
00000000
00000000
00000000
00030200
,
00000000
00000000
00000000
00002300
,
00000000
00000000
00000000
00023000
,
00000000
00000000
00000000
00230000
,
00000000
00000000
00000000
02300000
,
00000000
00000000
00000000
23000000
,
00000000
00000000
00000000
32000000
,
00000000
00000000
00000000
03200000
,
00000000
00000000
00000000
00320000
,
00000000
00000000
00030000
00011000
;

//---------------dance-double - ----------------
#NOTES:
     dance-double:
     :
     Easy:
     4:
     0.243,0.357,0.043,0.196,0.000:
00000000
00000000
00000000
00000000
,
00000000
00000000
00000000
00000000
,
00000000
00000000
00000000
00000000
,
00000000
00000000
00000000
00000000
,
00000000
00000000
00000000
00000000
,
00000000
00000000
00000000
00000000
,
00000000
00000000
00000000
00000000
,
00000000
00000000
00000000
00000000
,
00000000
00000000
00000000
00000000
,
00000000
00000000
00000000
00000000
,
00000000
00000000
00000000
00000200
,
00000000
00000000
00000000
00000000
,
00000000
00000000
00000000
00002300
,
00000000
00000000
00000000
00000000
,
00000000
00000000
00000000
00023000
,
00000000
00000000
00000000
00000000
,
00000000
00000000
00000000
00230000
,
00000000
00000000
00000000
00000000
,
00000000
00300000
00000000
00000100
,
00000000
00100000
00000000
00000100
,
00000000
00000100
00000000
00000010
,
00000000
00010000
00000000
00001000
,
00000000
00001000
00000000
00010000
,
00000000
00000100
00000000
00010000
,
00000000
00000010
00000000
00000100
,
00000000
00000010
00000000
00000100
,
00000000
00000100
00000000
00000001
,
00000000
00000010
00000000
00000100
,
00000000
00010000
00000000
00000100
,
00000000
00010000
00000000
00000100
,
00000000
00000100
00000000
00001000
,
00000000
00000010
00000000
00000100
,
00000000
00001000
00000000
00000100
,
00000000
00100000
00000000
00001000
,
00000000
00001000
00000000
00100000
,
00010000
00100000
00010000
00100000
,
00100000
01000000
00000000
00001000
,
00010000
00001000
00010000
00001000
,
00010000
00001000
00000000
01000000
,
00001000
01000000
00001000
01000000
,
00010000
10000000
00000000
00010000
,
10000000
00010000
10000000
00010000
,
10000000
10000000
00000000
02000000
,
00000000
00000000
00000000
03100000
,
00010000
00100000
00010000
01000000
,
01000000
01000000
00000000
00010000
,
00100000
00001000
00010000
00001000
,
00001000
00001000
00000000
00010000
,
00010000
00100000
00010000
00100000
,
00100000
00100000
00000000
00010000
,
00001000
00000100
00010000
00000100
,
00001000
00010000
00000000
00100000
,
00010000
00000100
00001000
00000100
,
00000100
00000100
00010000
00000010
,
00000010
00000100
00001000
00010000
,
00000100
00001000
00000000
00000100
,
00000010
00000100
00000001
00000010
,
00000100
00001000
00000000
00100000
,
00001000
00100000
00010000
10000000
,
10000000
10000000
01000000
00100000
,
00001000
00010000
00000100
00001000
,
00000100
00010000
00000000
00100000
,
01000000
10000000
01000000
00100000
,
00010000
00001000
00010000
00010010
,
00001000
00000100
00001000
00000100
,
00000100
00000100
00000000
00001000
,
00010000
00100000
00001000
00100000
,
00100000
00100000
00000000
00220000
,
00000000
00000000
00330000
00200200
,
00000000
00000000
00300300
00002200
,
00000000
00000000
00003300
00100000
,
00000100
00001000
00010000
00200000
,
00000000
00000000
00000000
00302000
,
00000000
00000000
00000000
00023000
,
00000000
00000000
00000000
00030200
,
00000000
00000000
00000000
00002300
,
00000000
00000000
00000000
00023000
,
00000000
00000000
00000000
00230000
,
00000000
00000000
00000000
02300000
,
00000000
00000000
00000000
23000000
,
00000000
00000000
00000000
32000000
,
00000000
00000000
00000000
03200000
,
00000000
00000000
00000000
00320000
,
00000000
00000000
00030000
00011000
;

//---------------dance-double - ----------------
#NOTES:
     dance-double:
     :
     Medium:
     6:
     0.356,0.535,0.324,0.179,0.000: // measure 1
00000000
00000000
00000000
00000000
,  // measure 2
00000000
00000000
00000000
00000000
,  // measure 3
00000000
00000000
00000000
00000000
,  // measure 4
00000000
00000000
00000000
00000000
,  // measure 5
00000000
00000000
00000000
00000000
,  // measure 6
00000000
00000000
00000000
00000000
,  // measure 7
00000000
00000000
00000000
00000000
,  // measure 8
00000000
00000000
00000000
00000000
,  // measure 9
00000000
00000000
00000000
00000000
,  // measure 10
00000000
00000000
00000000
00000000
,  // measure 11
00000000
00000000
00000000
20000000
,  // measure 12
00000000
00000000
00000000
32000000
,  // measure 13
00000000
00000000
00000000
03200000
,  // measure 14
00000000
00000000
00000000
00320000
,  // measure 15
00000000
00000000
00000000
00032000
,  // measure 16
00000000
00000000
00000000
00003200
,  // measure 17
00000000
00000000
00000000
00000320
,  // measure 18
00000000
00000000
00000000
00000032
,  // measure 19
00000000
00000000
00000003
00000110
,  // measure 20
00001000
00100000
00001000
00010000
,  // measure 21
00100000
01000000
00000000
10000000
,  // measure 22
00100000
10000000
01000000
10000000
,  // measure 23
00100000
01000000
00000000
00010000
,  // measure 24
00001000
00000100
00000010
00000100
,  // measure 25
00000010
00000001
00000000
00001000
,  // measure 26
00000000
00000010
00000000
00001000
,  // measure 27
00000100
00001000
00000000
00000010
,  // measure 28
00000100
00000010
00001000
00000010
,  // measure 29
00000100
00000001
00000000
00000010
,  // measure 30
00000001
00000100
00000001
00000010
,  // measure 31
00000100
00001000
00000000
00000010
,  // measure 32
00001000
00000100
00001000
00000010
,  // measure 33
00000100
00000010
00001000
00000100
,  // measure 34
00000010
00000001
00001000
00000001
,  // measure 35
00000010
00000100
00001000
00011000
,  // measure 36
00100000
00010000
00100000
00010000
,  // measure 37
00100000
00000000
00010000
10000000
00010000
00000000
10000000
00000000
,  // measure 38
01000000
10000000
01000000
10000000
,  // measure 39
01000000
00000000
10000000
00010000
10000000
00000000
00010000
00000000
,  // measure 40
10000000
00010000
10000000
00010000
,  // measure 41
10000000
00000000
00010000
00000000
00100000
00001000
00100000
00000000
,  // measure 42
00011000
00110000
00011000
00001100
,  // measure 43
00000110
00002002
00000000
00000000
,  // measure 44
00000000
00000000
00003003
00000001
,  // measure 45
00000010
00000100
00000010
00000000
00000001
00000000
00000010
00000000
,  // measure 46
00000100
00001000
00000000
00010000
,  // measure 47
00100000
01000000
00100000
00000000
00010000
00000000
00100000
00000000
,  // measure 48
01000000
10000000
00000000
10000000
,  // measure 49
01000000
00100000
01000000
00000000
10000000
00000000
00100000
00000000
,  // measure 50
01000000
00010000
00000000
00001000
,  // measure 51
00000100
00000010
00000100
00000000
00001000
00000100
00000010
00000000
,  // measure 52
00000001
00001001
00000000
00000001
,  // measure 53
00000100
00000010
00000100
00000000
00000100
00000000
00000001
00000000
,  // measure 54
00000010
00000100
00001000
00001001
,  // measure 55
00010000
00100000
01000000
00000000
10000000
00010000
10000000
00000000
,  // measure 56
00100000
01100000
10000000
01000000
,  // measure 57
00100000
00001000
00100000
00000000
00001000
00000000
00000110
00000000
,  // measure 58
00000110
00001001
00000000
00000100
,  // measure 59
00000001
00000010
00000100
00000000
00001000
00000000
00000110
00000000
,  // measure 60
00000110
00001001
00000100
00010000
,  // measure 61
00100000
01000000
10000000
00000000
10010000
00000000
01100000
00000000
,  // measure 62
01100000
10010000
00000000
00100000
,  // measure 63
10000000
01000000
00100000
00000000
00010000
10000000
00010000
00000000
,  // measure 64
01000000
00100000
01000000
00000000
00010000
00000000
00011000
00000000
,  // measure 65
00000100
00000001
00000010
00000000
00000100
00000000
00001100
00000000
,  // measure 66
00000011
00001001
00000000
00000010
,  // measure 67
00000100
00001000
00000010
00000000
00000100
00000000
00000011
00000000
,  // measure 68
00001100
00001001
00000000
00022000
,  // measure 69
00000000
00000000
00033000
20020000
,  // measure 70
00000000
00000000
30030000
00022000
,  // measure 71
00000000
00000000
00033000
00001001
,  // measure 72
00001001
00001001
00001001
00001002
,  // measure 73
00000000
00001000
00000000
00001003
,  // measure 74
00000000
00000020
00000000
00000100
,  // measure 75
00000000
00000130
00000000
00020000
,  // measure 76
00000000
00100000
00000000
00130000
,  // measure 77
00000000
02000000
00000000
00100000
,  // measure 78
00000000
03100000
00000000
20000000
,  // measure 79
00000000
00010000
00000000
30010000
,  // measure 80
00000000
01000000
00000000
00011000
,  // measure 81
00000000
00000100
00000000
00000010
,  // measure 82
00000000
00000001
00000000
00000010
,  // measure 83
00000000
00000100
00000000
00001000
,  // measure 84
00000000
00000100
00000000
00011000
;
