#TITLE:湘南族 -cannibal coast-;
#SUBTITLE:;
#ARTIST:Aural Vampire;
#TITLETRANSLIT:Shounan Zoku -cannibal coast-;
#SUBTITLETRANSLIT:;
#ARTISTTRANSLIT:;
#CREDIT:DMAxel;
#BANNER:Shounan Zoku -cannibal coast-.png;
#BACKGROUND:Shounan Zoku -cannibal coast--bg.png;
#LYRICSPATH:Shounan Zoku -cannibal coast-.lrc;
#CDTITLE:Avex.png;
#MUSIC:Shounan Zoku -cannibal coast-.mp3;
#OFFSET:0.460;
#SAMPLESTART:29.923;
#SAMPLELENGTH:12.000;
#SELECTABLE:YES;
#BPMS:0.000=138.000;
#STOPS:;
#BGCHANGES:;

//---------------dance-single - ----------------
#NOTES:
     dance-single:
     :
     Easy:
     3:
     0.197,0.247,0.019,0.148,0.000: // measure 1
0000
0000
0000
0000
,  // measure 2
0000
0000
0000
0001
,  // measure 3
0000
1000
0000
0010
,  // measure 4
0000
0100
0000
0010
,  // measure 5
0000
1000
0000
0100
,  // measure 6
0000
1000
0001
0010
,  // measure 7
0100
1000
0100
0010
,  // measure 8
0001
0100
0010
0100
,  // measure 9
0010
0100
0002
0000
,  // measure 10
2003
0000
3020
0000
,  // measure 11
0230
0000
0301
0000
,  // measure 12
1000
0000
0001
0000
,  // measure 13
1000
0000
0001
0001
,  // measure 14
1000
0001
1000
0000
,  // measure 15
0001
0000
1000
0000
,  // measure 16
0001
0000
0100
0000
,  // measure 17
0010
0000
2002
0000
,  // measure 18
0000
3003
0010
0100
,  // measure 19
0010
1000
0001
0001
,  // measure 20
0001
0000
0100
0010
,  // measure 21
0100
0001
1000
1000
,  // measure 22
1000
0000
0001
0010
,  // measure 23
0001
1000
0100
0010
,  // measure 24
0001
0000
1000
0100
,  // measure 25
1000
0001
0010
0100
,  // measure 26
1000
0000
0010
0000
,  // measure 27
0000
0000
0100
0000
,  // measure 28
0000
0000
0001
0000
,  // measure 29
0000
0000
1000
0000
,  // measure 30
0000
0000
0001
0000
,  // measure 31
0010
0000
0100
0000
,  // measure 32
1000
0000
0100
0000
,  // measure 33
0010
0000
0001
0000
,  // measure 34
0200
0000
0310
0000
,  // measure 35
0000
0000
1000
0000
,  // measure 36
0000
0000
0001
0000
,  // measure 37
0000
0000
0010
0000
,  // measure 38
0000
0000
0001
0000
,  // measure 39
0000
1000
0000
0010
,  // measure 40
0000
0100
0000
0010
,  // measure 41
0000
0100
0002
0000
,  // measure 42
2003
0000
3001
0000
,  // measure 43
0000
0000
0100
0000
,  // measure 44
0000
0000
0010
0000
,  // measure 45
0000
0000
1000
0000
,  // measure 46
0000
0000
0100
1000
,  // measure 47
0000
0010
0000
0100
,  // measure 48
0000
0001
0000
0010
,  // measure 49
0000
0001
0000
0100
,  // measure 50
0000
0010
0000
1000
,  // measure 51
0000
0100
0000
1000
,  // measure 52
0010
0100
0001
0010
,  // measure 53
0001
1000
0010
0100
,  // measure 54
0010
1000
0002
0000
,  // measure 55
2003
0000
3020
0000
,  // measure 56
0230
0000
0301
0010
,  // measure 57
0100
1000
2002
0000
,  // measure 58
0000
3003
0001
0010
,  // measure 59
0000
0100
2000
0000
,  // measure 60
0000
3001
0000
0000
;

//---------------dance-single - ----------------
#NOTES:
     dance-single:
     :
     Hard:
     6:
     0.420,0.440,0.269,0.185,0.000: // measure 1
0000
0000
0000
0000
,  // measure 2
0000
0000
1001
0010
,  // measure 3
0100
0001
0010
0001
,  // measure 4
0010
0100
1000
0010
,  // measure 5
0100
0001
1000
0100
,  // measure 6
0010
0000
0001
0001
1000
0000
0010
0000
,  // measure 7
0100
0010
0100
0001
,  // measure 8
0010
0001
0100
0010
,  // measure 9
1000
0000
0100
0000
2002
0000
3003
0100
,  // measure 10
2002
0000
3003
0010
0100
0010
0100
0000
,  // measure 11
0001
0100
1000
0000
0010
0100
0010
0000
,  // measure 12
1000
0010
0001
0000
1000
0001
1000
0001
,  // measure 13
0010
0100
1000
0000
0001
1000
0001
0100
,  // measure 14
0011
0000
1100
0000
0010
0100
0010
0000
,  // measure 15
1000
0010
0001
0000
0100
0010
0100
0000
,  // measure 16
0001
0100
1000
0000
0010
0100
0010
0000
,  // measure 17
1000
0010
0001
0100
1010
0000
0000
0101
,  // measure 18
0000
1001
0100
0010
,  // measure 19
0100
0000
0001
0000
1000
0100
0001
0000
,  // measure 20
1001
0100
0010
0100
,  // measure 21
0010
1000
0000
0100
0000
1000
0010
0000
,  // measure 22
0100
0001
0010
0010
0001
0000
0100
0000
,  // measure 23
0010
0000
1000
0100
0010
0001
1000
0001
,  // measure 24
1000
0000
0010
0000
0001
0010
0100
0000
,  // measure 25
1001
0000
1000
0100
0010
0000
1001
0000
,  // measure 26
0100
0000
0010
0010
0200
0000
0010
0000
,  // measure 27
0010
0310
0002
1000
,  // measure 28
1000
1003
2000
0010
,  // measure 29
0010
3010
0002
0100
,  // measure 30
0100
0103
2000
0100
,  // measure 31
0100
3100
0002
0010
,  // measure 32
0010
0013
0200
0010
,  // measure 33
0010
0000
0310
0000
1000
0100
0010
0001
,  // measure 34
2000
0000
3001
0010
,  // measure 35
0001
0100
0000
0010
0100
0010
0000
0100
,  // measure 36
0001
0100
0000
0010
1000
0010
0000
1000
,  // measure 37
0100
1000
0000
0001
0100
0001
0010
0000
,  // measure 38
1001
0000
1001
0000
1000
0010
0000
0100
,  // measure 39
0010
0100
0000
0001
0010
0001
0000
1000
,  // measure 40
0100
0001
0000
0000
0100
0010
0000
1000
,  // measure 41
0100
1000
0010
0000
2002
0000
3003
0100
,  // measure 42
2002
0000
3003
0010
0200
0000
0000
0000
,  // measure 43
0000
0000
0320
0000
,  // measure 44
0000
0000
2030
0000
,  // measure 45
0000
0000
3002
0000
,  // measure 46
0000
0000
0013
0001
,  // measure 47
0010
1100
1010
0100
,  // measure 48
0010
0011
0101
1000
,  // measure 49
0001
0100
0010
1000
,  // measure 50
0100
0000
0010
0010
0001
0000
0010
0001
,  // measure 51
0010
0100
1000
0100
0010
0000
0001
0000
,  // measure 52
0100
0000
0010
0000
1001
0000
0100
1000
,  // measure 53
0100
0010
0001
0010
0100
0000
1000
0000
,  // measure 54
1001
0000
1000
1000
0100
0000
1000
0100
,  // measure 55
0010
0001
1001
0100
,  // measure 56
0001
0000
0010
0001
0000
0001
0010
0100
,  // measure 57
1000
0000
0100
0000
1010
0000
0000
0101
,  // measure 58
0000
1001
1001
0100
,  // measure 59
0010
0000
0100
0000
0101
0000
0000
1010
,  // measure 60
0000
0000
0001
1001
0000
0000
0000
0000
;

//---------------dance-single - ----------------
#NOTES:
     dance-single:
     :
     Challenge:
     8:
     0.566,0.523,0.195,0.037,0.088:
0000
0000
0000
0000
,
0000
0000
0000
1000
0001
0010
0100
1000
,
0100
0100
0000
2000
0000
3001
0010
0100
,
1000
1000
0000
0000
0001
0010
0100
1000
,
0010
0010
0000
1000
0100
0010
0001
0010
,
1000
0000
0001
0001
1000
0100
0010
0001
,
0100
0100
0001
0020
0000
0031
0010
0100
,
1000
1000
0010
2000
0000
3001
0100
0010
,
1000
0000
0010
0000
0010
0000
0000
0000
1000
0001
1000
0001
1000
0000
0010
0000
,
0100
0010
0100
0010
0100
0000
0001
0000
0001
0000
0100
0000
1000
0000
0000
0000
,
0010
0100
0001
0000
1000
0100
0001
0000
,
0100
0010
1000
0010
0001
0100
0010
1000
,
0010
0100
0010
0000
1000
0100
0010
0001
,
1100
0000
0011
0000
0001
0100
1000
0000
,
0010
0100
0001
0000
1000
0010
0001
0000
,
0100
0010
1000
0010
0001
0100
0010
0000
,
0010
0100
0001
0010
1100
0000
0000
0101
,
0000
0000
1001
1000
0010
0100
0010
1000
,
0010
0100
0010
1000
0100
0010
0001
0000
,
1001
0000
1001
0000
0100
0010
0100
0001
,
0100
0010
0100
0001
0010
0100
1000
0010
,
1000
0100
1000
1000
0001
0010
0100
1000
,
0010
0100
0010
1000
0010
1000
0100
0010
,
0001
0000
1001
0000
0100
0010
0100
0001
,
0100
0000
0001
0100
1000
0010
0100
0010
,
1000
0000
0000
0000
0001
1000
0001
0000
1000
0000
1000
0000
0010
0000
0010
0000
,
0100
0100
0001
0001
1000
0100
0010
0001
,
0010
0100
1000
1000
0001
0001
0100
0100
,
0010
0010
1000
1000
0001
0010
0100
1000
,
0100
0010
0001
0001
1000
1000
0100
0100
,
0010
0010
0001
0001
1000
0100
0010
0001
,
0010
0100
1000
1000
0001
0010
0001
0010
,
0100
1000
0100
1000
0001
1000
0010
1000
,
0001
0000
0000
0000
1000
0000
1000
0000
0001
0000
0010
0000
0100
0000
1000
0001
,
1000
0000
0010
0000
0000
0000
0100
0010
0100
0000
0001
0000
0010
0000
0100
1000
,
0100
0000
1000
0000
0000
0000
0000
0000
1000
0000
0100
0000
0010
0000
0001
1000
,
0001
0000
1000
0000
0000
0000
0010
0100
0010
0000
1000
0000
0001
0000
0010
0000
,
1001
0000
0000
0000
1001
0000
0000
0000
0001
0000
0010
0000
0100
0000
1000
0001
,
1000
0000
0010
0000
0000
0000
0100
0001
0100
0000
0010
0000
0100
0000
0010
1000
,
0010
0000
1000
0000
0000
0000
0010
0000
0100
0000
0001
0000
1000
0000
0010
0100
,
0010
0000
0100
0000
0001
0000
0000
0000
1000
0001
1000
0001
1000
0000
0010
0000
,
0100
0010
0100
0010
0100
0000
0001
0000
1000
0000
0000
0000
0100
0000
0000
0000
,
0001
0000
0010
0100
1000
0000
0100
0000
,
0001
0000
0010
0000
1000
0000
0001
1000
,
0100
0010
0001
0100
0020
0000
0000
0000
,
0000
0000
0000
0000
0130
0000
0001
0100
,
0010
1100
0101
0010
,
0100
0000
1000
0100
0000
0100
1000
0001
,
0010
0000
0001
0000
1000
0001
0010
0100
,
1000
0000
0000
0000
0001
1000
0001
0000
0100
0000
0001
0000
0100
0000
0001
0000
,
0010
0100
1000
0100
0010
1000
0010
0100
,
0010
1000
0100
0010
0001
0000
0100
0010
,
0100
0001
0010
0100
1000
0000
0010
0100
,
0010
0000
1000
1000
0001
0010
0100
1000
,
0100
0010
0001
0100
0001
0010
0001
0000
,
1000
0100
0010
0001
0100
0001
0010
1000
,
0100
1000
0010
0000
1100
0000
0000
0101
,
0000
0000
1001
0100
1000
0000
0011
0000
,
0100
0000
1100
0000
0011
0000
0000
1010
,
0000
0000
1001
1001
0000
0000
0000
0000
;

//---------------dance-single - ----------------
#NOTES:
     dance-single:
     :
     Medium:
     5:
     0.305,0.358,0.241,0.148,0.000: // measure 1
0000
0000
0000
0000
,  // measure 2
0000
0000
0000
0100
,  // measure 3
0000
1000
0000
0100
,  // measure 4
0000
0010
0000
0001
,  // measure 5
0000
1000
0000
0001
,  // measure 6
0000
0000
0100
0100
0010
0000
0100
0000
,  // measure 7
0010
0100
0010
1000
,  // measure 8
0100
1000
0010
0100
,  // measure 9
0001
0010
2002
3003
,  // measure 10
2002
0000
3003
0100
0100
0000
0001
0000
,  // measure 11
0000
0100
0000
0010
,  // measure 12
0000
1000
0000
0001
,  // measure 13
0100
0010
0100
0000
0001
0000
1000
0000
,  // measure 14
0100
0000
0010
0000
0001
0100
0001
0000
,  // measure 15
1000
0000
0001
0000
1000
0010
1000
0000
,  // measure 16
0010
0000
0100
0000
0010
0100
0010
0000
,  // measure 17
1000
0000
0100
0000
0011
0000
0000
1100
,  // measure 18
0000
1001
0010
0100
,  // measure 19
0010
1000
0001
0001
,  // measure 20
1001
0010
0100
0010
,  // measure 21
0100
0001
1000
1000
,  // measure 22
1001
0000
0010
0010
0100
0000
0010
0000
,  // measure 23
1000
0001
0100
0001
,  // measure 24
0100
0010
1000
0010
,  // measure 25
0100
1001
0010
0100
,  // measure 26
0010
1001
0020
0000
,  // measure 27
0000
0000
2030
0000
,  // measure 28
0000
0000
3002
0000
,  // measure 29
0000
0000
2003
0000
,  // measure 30
0000
0000
3002
0000
,  // measure 31
0000
0000
2003
0000
,  // measure 32
0000
0000
3020
0000
,  // measure 33
0000
0000
0130
0001
,  // measure 34
2000
0000
3001
0100
,  // measure 35
0010
0000
1000
0000
,  // measure 36
0010
0000
0100
0000
,  // measure 37
0001
0000
0100
0000
,  // measure 38
1001
1001
0001
0100
,  // measure 39
0010
1000
0001
0100
,  // measure 40
0010
0100
0010
1000
,  // measure 41
0001
0100
2002
3003
,  // measure 42
2002
0000
3003
0010
0010
0000
0000
0000
,  // measure 43
0000
0000
0100
0000
,  // measure 44
0000
0000
0001
0000
,  // measure 45
0000
0000
1000
0000
,  // measure 46
0000
0000
0100
1000
,  // measure 47
0100
0011
0101
0010
,  // measure 48
0100
1100
1010
0001
,  // measure 49
1000
0010
0100
0001
,  // measure 50
0010
0000
0100
0000
1000
0010
1000
0000
,  // measure 51
0001
0100
0001
0000
0100
0000
0010
0000
,  // measure 52
1000
0100
1000
0000
0001
0000
0010
0001
,  // measure 53
0010
0001
1000
0010
,  // measure 54
1001
0000
1001
0000
0001
0000
0010
0001
,  // measure 55
0010
0100
1000
0010
,  // measure 56
1000
0100
1000
0000
0010
0000
1000
0000
,  // measure 57
0010
0000
0100
0000
0011
0000
0000
1100
,  // measure 58
0000
1001
1001
0010
,  // measure 59
0100
0000
0010
0000
1010
0000
0000
0101
,  // measure 60
0000
0000
1000
1001
0000
0000
0000
0000
;

//---------------dance-single - ----------------
#NOTES:
     dance-single:
     :
     Beginner:
     1:
     0.103,0.137,0.093,0.000,0.000:
0000
0000
0000
0000
,
0000
0000
0000
0000
,
0000
0000
0000
0000
,
0000
0000
0000
0000
,
0000
0000
0000
0000
,
0000
0000
0000
0001
,
0000
1000
0000
0001
,
0000
1000
0000
0001
,
0000
0001
0000
0000
,
1001
0000
0010
0000
,
0000
0000
0100
0000
,
0000
0000
0010
0000
,
0000
0000
0010
0000
,
0000
0000
0100
0000
,
0000
0000
0100
0000
,
0000
0000
0001
0000
,
0000
0000
1001
0000
,
0000
0000
1000
0000
,
0000
0000
1000
0000
,
0000
0000
0010
0000
,
0000
0000
0010
0000
,
0000
0000
0100
0000
,
0000
0000
0100
0000
,
0000
0000
0001
0000
,
0000
0000
0001
0000
,
0000
0000
1001
0000
,
0000
0000
1000
0000
,
0000
0000
1001
0000
,
0000
0000
0001
0000
,
0000
0000
1001
0000
,
0000
0000
1000
0000
,
0000
0000
1001
0000
,
0000
0000
0001
0000
,
0000
0000
1000
0000
,
0000
0000
1000
0000
,
0000
0000
0100
0000
,
0000
0000
0100
0000
,
0000
0000
0010
0000
,
0000
0000
0010
0000
,
0000
0000
0001
0000
,
0000
0000
1001
0000
,
1001
0000
1000
0000
,
0000
0000
0000
0000
,
0100
0000
0000
0000
,
0000
0000
0000
0000
,
0000
0000
0000
0010
,
0000
0010
0000
0001
,
0000
0001
0000
1000
,
0000
0001
0000
1000
,
0000
0010
0000
0100
,
0000
0010
0000
1000
,
0000
0001
0000
1000
,
0000
0001
0000
0100
,
0000
0010
0000
0100
,
0000
0001
0000
0010
,
0000
0100
0000
1000
,
0000
0100
0000
0000
,
0000
1001
0000
0010
,
0000
0010
0000
0000
,
0000
1001
0000
0000
;
