#TITLE:Sehnsucht@Herz.de;
#SUBTITLE:;
#ARTIST:Blümchen;
#TITLETRANSLIT:;
#SUBTITLETRANSLIT:;
#ARTISTTRANSLIT:Blumchen;
#CREDIT:DMAxel;
#BANNER:Sehnsucht@Herz.de.png;
#BACKGROUND:Sehnsucht@Herz.de-bg.png;
#LYRICSPATH:Sehnsucht@Herz.de.lrc;
#CDTITLE:DMAxel original simfile.png;
#MUSIC:Sehnsucht@Herz.de.mp3;
#OFFSET:-10.760;
#SAMPLESTART:55.584;
#SAMPLELENGTH:12.000;
#SELECTABLE:YES;
#BPMS:0.000=179.510;
#STOPS:;
#BGCHANGES:;

//---------------dance-single - ----------------
#NOTES:
     dance-single:
     :
     Easy:
     4:
     0.302,0.323,0.070,0.061,0.000: // measure 1
0110
0000
0000
0000
,  // measure 2
0000
0000
0000
0000
,  // measure 3
0002
0000
0000
0000
,  // measure 4
2003
0000
0000
0000
,  // measure 5
3020
0000
0000
0000
,  // measure 6
0230
0000
0000
0300
,  // measure 7
1001
1001
0000
0000
,  // measure 8
0002
0000
0000
0000
,  // measure 9
1003
0001
1000
0000
,  // measure 10
0001
1000
0001
0000
,  // measure 11
0100
0010
0100
0000
,  // measure 12
0001
1000
0001
0000
,  // measure 13
0100
0010
0100
0000
,  // measure 14
0010
0100
0010
0000
,  // measure 15
1000
0001
1000
0000
,  // measure 16
0100
1000
0100
0000
,  // measure 17
1000
0100
0010
0000
,  // measure 18
0001
0010
0100
0000
,  // measure 19
1000
0010
0100
0001
,  // measure 20
0010
0100
1000
0000
,  // measure 21
0001
0010
0100
0000
,  // measure 22
1000
0100
0010
0000
,  // measure 23
0001
0100
0010
1000
,  // measure 24
0100
0000
0000
0000
,  // measure 25
1000
0001
1000
0001
,  // measure 26
1000
0100
0010
0001
,  // measure 27
0100
0010
0100
0010
,  // measure 28
0100
0001
0010
0100
,  // measure 29
1000
0001
1000
0001
,  // measure 30
1000
0100
0010
0001
,  // measure 31
0100
0010
0100
0010
,  // measure 32
0100
0000
0001
0000
,  // measure 33
0010
0100
1000
0001
,  // measure 34
1000
0000
0000
0000
,  // measure 35
1001
0100
0010
0001
,  // measure 36
0010
0001
0010
0001
,  // measure 37
0100
0010
1000
0100
,  // measure 38
0010
0001
1000
0001
,  // measure 39
0010
0001
0010
0001
,  // measure 40
1000
0100
1000
0100
,  // measure 41
1000
0010
0100
0001
,  // measure 42
1000
0010
0100
0001
,  // measure 43
1000
0100
1000
0100
,  // measure 44
1000
0001
1000
0001
,  // measure 45
0010
0001
0010
0100
,  // measure 46
1000
0001
0010
0100
,  // measure 47
2000
0000
0001
3001
,  // measure 48
0010
0001
1000
0010
,  // measure 49
0002
0000
1000
1003
,  // measure 50
0100
1000
0001
0100
,  // measure 51
1001
0000
0000
0000
,  // measure 52
0010
0000
0000
0000
,  // measure 53
0100
0000
0000
0000
,  // measure 54
1000
0000
0000
0000
,  // measure 55
0001
0000
0000
0000
,  // measure 56
1001
0000
0000
0000
,  // measure 57
1000
0000
1000
0000
,  // measure 58
1000
0000
0000
0000
,  // measure 59
1001
0100
0010
0001
,  // measure 60
0100
0001
0100
0001
,  // measure 61
0010
0100
1000
0010
,  // measure 62
0100
0010
1000
0100
,  // measure 63
0010
0001
0010
0001
,  // measure 64
1000
0100
1000
0100
,  // measure 65
1000
0010
0100
0001
,  // measure 66
0010
0100
1000
0010
,  // measure 67
1000
0010
1000
0010
,  // measure 68
1000
0100
1000
0100
,  // measure 69
1000
0010
0100
0001
,  // measure 70
1000
0010
0100
0001
,  // measure 71
0100
0001
0100
0001
,  // measure 72
0010
0001
0010
0001
,  // measure 73
0100
0010
1000
0001
,  // measure 74
0010
0100
1000
0010
,  // measure 75
0110
0000
0000
0000
;

//---------------dance-single - ----------------
#NOTES:
     dance-single:
     :
     Medium:
     6:
     0.447,0.485,0.236,0.183,0.000: // measure 1
2002
0000
0000
0000
,  // measure 2
0000
0000
0000
3003
,  // measure 3
0020
0000
2030
0000
,  // measure 4
3020
0000
2030
0000
,  // measure 5
3002
0000
0000
0000
,  // measure 6
0203
0000
0302
0000
,  // measure 7
1003
1001
0000
0000
,  // measure 8
0200
0000
0302
0000
,  // measure 9
1003
0100
1000
0100
,  // measure 10
0010
0001
0010
0001
,  // measure 11
1000
0010
0000
0100
0000
0010
0000
0100
,  // measure 12
0001
0000
1000
0000
0001
0000
1000
0001
,  // measure 13
0000
0100
0000
0010
0000
1000
0000
0100
,  // measure 14
0000
0010
0000
0001
0000
1000
0000
0001
,  // measure 15
0100
0001
0000
1000
0000
0001
0000
1000
,  // measure 16
0010
1000
0000
0001
0000
1000
0000
0000
,  // measure 17
1001
0000
0100
0001
0000
1000
0000
0100
,  // measure 18
1000
0000
0001
0010
0001
0000
1000
0000
,  // measure 19
0001
0100
0001
0100
0000
0001
0000
1000
,  // measure 20
0100
0000
0010
0001
0010
0000
0001
0000
,  // measure 21
1000
0000
0010
1000
0010
0000
1000
0001
,  // measure 22
0000
0010
0000
0100
0000
1000
0000
0001
,  // measure 23
0010
0001
0000
1000
0000
0001
0000
1000
,  // measure 24
0010
0110
0000
0000
,  // measure 25
0001
0010
0001
0000
0001
1000
0001
0000
,  // measure 26
1001
1000
1001
0001
,  // measure 27
1000
0100
1000
0000
1000
0001
1000
0000
,  // measure 28
1001
0000
0001
0000
1001
0000
1000
0010
,  // measure 29
1000
0000
0010
1000
0010
0000
1000
0000
,  // measure 30
0001
0100
0001
0000
0100
0001
0100
0000
,  // measure 31
0001
0100
0010
1000
,  // measure 32
0001
0010
0100
1000
,  // measure 33
0010
0100
0010
0000
1000
0001
1000
0000
,  // measure 34
2002
0000
0000
3003
,  // measure 35
0001
0100
0001
0100
0001
0000
1000
0000
,  // measure 36
1001
0001
0011
1000
,  // measure 37
2001
0000
0001
0000
,  // measure 38
3001
0100
0101
0001
,  // measure 39
1000
0010
1000
0010
1000
0000
0001
0000
,  // measure 40
1001
1000
1100
0001
,  // measure 41
1002
0000
1000
0000
,  // measure 42
1003
0010
1010
1000
,  // measure 43
0001
0010
0001
0010
0001
0000
1000
0010
,  // measure 44
1000
0001
0000
0100
0000
0010
1000
0000
,  // measure 45
0001
0010
0001
0000
0100
0010
0100
0000
,  // measure 46
0010
1000
0010
0000
0010
0000
1001
0000
,  // measure 47
1000
0100
1000
0100
1000
0000
0001
0100
,  // measure 48
0001
1000
0000
0010
0000
0100
0001
0000
,  // measure 49
1000
0100
1000
0000
0010
0100
0010
0000
,  // measure 50
0100
0001
0100
0000
0100
0000
1001
0000
,  // measure 51
2001
0000
0000
0000
,  // measure 52
3200
0000
0000
0000
,  // measure 53
0320
0000
0000
0000
,  // measure 54
0032
0000
0000
0000
,  // measure 55
2003
0000
0000
0000
,  // measure 56
3002
0000
0000
0000
,  // measure 57
1003
0000
1001
0000
,  // measure 58
1001
1000
0001
1000
,  // measure 59
1001
0000
0001
0000
0100
0000
0001
0100
,  // measure 60
0001
0000
1000
0100
1000
0000
0001
0000
,  // measure 61
1000
0010
1000
0000
0010
0100
0010
0000
,  // measure 62
0100
0001
0100
0000
0001
0000
1000
0000
,  // measure 63
1001
0000
1000
0000
0010
0000
1000
0010
,  // measure 64
1000
0000
0001
0010
0001
0000
1000
0000
,  // measure 65
0001
0100
0001
0000
0100
0010
0100
0000
,  // measure 66
0010
1000
0010
0000
1000
0000
0001
0000
,  // measure 67
0100
0010
0100
0010
0100
0000
0001
0100
,  // measure 68
0001
0000
1000
0100
1000
0000
0001
0000
,  // measure 69
0100
0001
0010
0000
0100
1000
0100
0000
,  // measure 70
0010
0001
0100
0000
0010
0100
0010
0000
,  // measure 71
1001
0100
0010
0001
,  // measure 72
1001
0010
0100
1000
,  // measure 73
1001
0000
0001
1000
0001
0000
1000
0010
,  // measure 74
0100
0000
0010
0100
0001
1000
0001
1000
,  // measure 75
0001
0000
0000
0000
;

//---------------dance-single - ----------------
#NOTES:
     dance-single:
     :
     Hard:
     8:
     0.538,0.582,0.262,0.183,0.000: // measure 1
1002
0000
2003
0000
,  // measure 2
3002
0000
2003
0000
,  // measure 3
3020
0000
2030
0000
,  // measure 4
3200
0000
0320
0000
,  // measure 5
0031
1000
0001
0000
,  // measure 6
1000
0001
1000
0000
,  // measure 7
1001
1001
0010
0000
,  // measure 8
0010
0100
0010
0000
,  // measure 9
1001
1001
0010
0100
,  // measure 10
1000
0100
0001
0100
,  // measure 11
0010
1000
0000
0001
0000
0010
0000
0001
,  // measure 12
2000
0000
0010
0000
3010
0000
0100
0001
,  // measure 13
0000
0010
0000
0100
0000
1000
0000
0010
,  // measure 14
0100
0010
0000
1000
0000
0001
0000
0100
,  // measure 15
0001
0200
0000
0001
0000
0301
0000
0010
,  // measure 16
1000
0020
0000
1000
0000
1030
0000
0000
,  // measure 17
0001
0100
0010
1000
0100
0000
0100
0000
,  // measure 18
1000
0010
0100
0001
0010
0000
0010
0000
,  // measure 19
0001
1000
0200
0000
1000
0000
1300
0001
,  // measure 20
0020
0001
0031
1000
,  // measure 21
0001
0010
0100
1000
0010
0000
0010
0000
,  // measure 22
1000
0100
0010
0001
0100
0000
0100
0001
,  // measure 23
2000
0000
0010
0000
3010
0000
0100
0001
,  // measure 24
1000
1001
0000
0000
,  // measure 25
1100
0000
0010
0001
0100
0010
0100
0001
,  // measure 26
0010
0000
0001
0010
0100
1000
0001
0000
,  // measure 27
0011
0000
0100
1000
0010
0100
0010
1000
,  // measure 28
0100
0000
1000
0100
0010
0001
1000
0000
,  // measure 29
1010
0000
0100
0001
1000
0100
1000
0000
,  // measure 30
0010
1000
0001
0010
0001
0010
0001
0000
,  // measure 31
0101
0000
0010
1000
0001
0010
0001
0000
,  // measure 32
0100
0001
1000
0100
1000
0100
1000
0000
,  // measure 33
0010
1000
0001
0010
0001
1000
0100
0010
,  // measure 34
1001
0001
1000
0001
,  // measure 35
1000
0010
0100
0001
0010
0000
0200
0000
,  // measure 36
1000
0000
1300
0000
1100
0000
0010
0001
,  // measure 37
1000
0100
0010
0000
0001
1000
0001
0000
,  // measure 38
0010
0100
1000
0000
0010
0000
0100
0000
,  // measure 39
0001
0100
0010
1000
0100
0000
0020
0000
,  // measure 40
0001
0000
0031
0000
0011
0000
0100
1000
,  // measure 41
0001
0010
0100
0000
1000
0001
1000
0000
,  // measure 42
0100
0010
0001
0000
1000
0000
0001
0000
,  // measure 43
1000
0100
0010
0001
0100
0000
0101
0000
,  // measure 44
1001
0000
1000
0001
0100
0000
0100
0000
,  // measure 45
0100
0001
0010
0000
0100
1000
0010
0000
,  // measure 46
0100
0001
0010
0000
0100
1000
0001
1000
,  // measure 47
0001
0010
0100
1000
0010
0000
1010
0000
,  // measure 48
1001
0000
0001
1000
0010
0000
0010
0000
,  // measure 49
0010
1000
0100
0000
0010
0001
0100
0000
,  // measure 50
0010
1000
0100
0010
0001
1000
0001
1000
,  // measure 51
0001
0000
0000
0010
0000
0000
0100
0000
,  // measure 52
0010
0000
0000
0001
0000
0000
1000
0000
,  // measure 53
0020
0000
0230
0000
,  // measure 54
0320
0000
0000
0000
,  // measure 55
1030
0000
0000
0100
0000
0000
0010
0000
,  // measure 56
0100
0000
0000
1000
0000
0000
0001
0000
,  // measure 57
1001
0000
0110
0000
,  // measure 58
1001
1001
1001
1001
,  // measure 59
0001
0010
0100
1000
0001
0010
0001
0000
,  // measure 60
1000
0100
0010
1000
0001
0000
1001
0000
,  // measure 61
0001
0100
0010
0000
0100
0010
1000
0000
,  // measure 62
0100
0010
0001
0000
0010
0100
1000
0001
,  // measure 63
1000
0100
0010
0001
1000
0100
1000
0000
,  // measure 64
0001
0010
0100
0001
1000
0000
1001
0000
,  // measure 65
1000
0010
0100
0000
0010
0100
0001
0000
,  // measure 66
0010
0100
1000
0000
0100
0010
0001
1000
,  // measure 67
0002
0000
0100
0000
0103
0000
0100
0001
,  // measure 68
1000
0100
1000
0000
1100
0000
1001
0000
,  // measure 69
0010
1000
0010
1000
0010
0001
0010
0001
,  // measure 70
0100
1000
0100
1000
0100
0010
0001
0000
,  // measure 71
2000
0000
0010
0000
3010
0000
0010
1000
,  // measure 72
0001
0010
0001
0000
0011
0000
1001
0000
,  // measure 73
0100
0001
0100
0001
0100
1000
0100
1000
,  // measure 74
0100
0010
0001
0010
0001
0100
0010
1000
,  // measure 75
1001
0000
0000
0000
;

//---------------dance-single - ----------------
#NOTES:
     dance-single:
     :
     Challenge:
     9:
     0.633,0.582,0.279,0.114,0.035:
1001
0000
0000
1000
0000
0000
1000
0000
0001
0000
0000
0001
0000
0000
0001
0000
,
1000
0000
0000
1000
0000
0000
1000
0000
0001
0000
0000
0001
0000
0000
0001
0000
,
2000
0000
3200
0000
,
2300
0000
3002
0000
,
1003
0000
0000
0100
0000
0000
1000
0000
0001
0000
0000
0010
0000
0000
0001
0000
,
1000
0000
0000
0100
0000
0000
1000
0000
0001
0000
0000
0010
0000
0000
0001
0000
,
1001
1001
0100
0010
,
0001
0010
0100
1000
,
0001
0010
0100
0000
1100
0000
0001
0000
,
1000
0100
0010
0000
0011
0000
1000
0000
,
0001
0010
0001
0100
0000
0010
0000
1000
,
0001
0010
0001
0000
1000
0010
1000
0000
,
0001
0010
0100
0000
1100
0000
0001
0000
,
1000
0100
0010
0000
0011
0000
1000
0000
,
0001
0100
0010
0100
0000
0001
0000
1000
,
0010
0100
0010
1000
0000
0100
0000
1000
,
0010
0100
0010
0100
0001
1000
0100
0000
,
0010
0100
0010
0001
1000
0001
0010
0000
,
0100
1000
0002
0010
0000
0010
0000
0013
,
0001
1000
0100
0000
1000
0000
0001
0000
,
0100
0010
0100
0010
1000
0001
0010
0000
,
0100
0010
0100
1000
0001
1000
0100
0000
,
0010
0001
2000
0100
0000
0100
0000
3100
,
1000
0001
0011
0000
0000
0000
0000
0000
,
0001
0010
0001
0010
0100
1000
0100
1000
,
0001
1000
0100
0010
0001
1000
0100
0000
,
1000
0100
1000
0100
0010
0001
0010
0001
,
1000
0001
0010
0100
1000
0001
0010
0000
,
0001
0100
0001
0100
0010
1000
0010
1000
,
0001
0010
0100
1000
0001
0100
0010
0000
,
1000
0010
1000
0010
0100
0001
0100
0001
,
1000
0100
0010
0001
1000
0010
0100
0000
,
0001
0010
0100
1000
0001
0010
0001
1000
,
1001
1001
1001
1001
,
1000
0100
0010
0001
1000
0100
0010
0100
,
1000
0100
0010
0001
0100
0010
1000
0001
,
0200
0000
0001
0000
0301
0010
0100
1000
,
0020
0000
1000
0000
1030
0100
0010
0001
,
1000
0010
0100
0001
1000
0100
0010
0100
,
1000
0100
0010
0001
0100
0010
1000
0001
,
0200
0000
0001
0000
0301
0010
0100
1000
,
0010
0100
0001
0100
0010
0100
0001
0000
,
1001
0000
1100
0000
0011
0000
0100
1000
,
0001
0100
0001
0100
0001
1000
0100
0010
,
0001
0001
1000
1000
0100
0010
0001
1000
,
0001
0001
1000
1000
0100
0010
0001
1000
,
1001
0000
0011
0000
1100
0000
0010
0001
,
1000
0010
1000
0010
1000
0001
0010
0100
,
1000
0010
1000
0010
0100
0001
0100
0001
,
0010
0100
1000
0010
0001
0010
1000
0100
,
0020
0000
0000
0001
0000
0000
0031
0000
,
0200
0000
0000
1000
0000
0000
1300
0000
,
0010
0001
0100
0010
,
1000
0100
0010
0001
,
2001
0000
0000
0010
0000
0000
3010
0000
,
0200
0000
0000
0001
0000
0000
0301
0000
,
1001
0000
0110
0000
,
1001
1001
1001
1001
,
1000
0010
1000
0010
0100
0001
0100
0001
,
1000
0100
0010
0001
0010
1000
0010
0001
,
1000
0010
1000
0010
1000
0001
0100
0001
,
0100
0001
1000
0100
1000
0100
1000
0000
,
0001
0100
0001
0100
0010
1000
0010
1000
,
0001
0010
0100
1000
0010
0001
0010
1000
,
0001
0100
0001
0100
0001
1000
0010
1000
,
0010
1000
0001
0010
0001
0010
0001
0000
,
1001
0000
1010
0000
0101
0000
0010
1000
,
0001
0010
0001
0010
0001
1000
0100
0010
,
0001
0001
1000
1000
0100
0010
0001
1000
,
0001
0001
1000
1000
0100
0010
0001
1000
,
1001
0000
0101
0000
1010
0000
0100
0001
,
1000
0100
1000
0100
1000
0001
0010
0100
,
1000
0001
0010
0001
0100
0010
1000
0100
,
1000
0001
0010
1000
0010
0001
0010
0100
,
1001
0000
0000
0000
;

//---------------dance-single - ----------------
#NOTES:
     dance-single:
     :
     Beginner:
     1:
     0.070,0.129,0.035,0.000,0.000: // measure 1
0000
0000
0000
0000
,  // measure 2
0000
0000
0000
0000
,  // measure 3
0000
0000
0000
0000
,  // measure 4
0000
0000
0000
0000
,  // measure 5
1000
0000
0000
0000
,  // measure 6
0000
0000
0000
0000
,  // measure 7
0001
0000
0000
0000
,  // measure 8
0000
0000
0000
0000
,  // measure 9
1000
0000
0000
0000
,  // measure 10
0000
0000
0000
0000
,  // measure 11
1000
0000
0000
0000
,  // measure 12
0000
0000
0000
0000
,  // measure 13
0001
0000
0000
0000
,  // measure 14
0001
0000
0000
0000
,  // measure 15
0000
0000
0000
0000
,  // measure 16
1000
0000
0000
0000
,  // measure 17
0001
0000
0000
0000
,  // measure 18
1000
0000
0000
0000
,  // measure 19
0001
0000
0000
0000
,  // measure 20
0000
0000
0000
0000
,  // measure 21
0100
0000
0000
0000
,  // measure 22
0010
0000
0000
0000
,  // measure 23
0100
0000
0000
0000
,  // measure 24
0001
0000
0000
0000
,  // measure 25
1000
0000
0000
0000
,  // measure 26
1000
0000
0000
0000
,  // measure 27
0001
0000
0000
0000
,  // measure 28
0001
0000
0000
0000
,  // measure 29
1000
0000
0000
0000
,  // measure 30
1000
0000
0000
0000
,  // measure 31
0001
0000
0000
0000
,  // measure 32
0000
0000
0000
0000
,  // measure 33
1000
0000
0000
0000
,  // measure 34
0001
0000
0000
0000
,  // measure 35
1001
0000
0000
0000
,  // measure 36
1000
0000
0000
0000
,  // measure 37
0001
0000
0000
0000
,  // measure 38
0000
0000
0000
0000
,  // measure 39
0001
0000
0000
0000
,  // measure 40
1000
0000
0000
0000
,  // measure 41
0001
0000
0000
0000
,  // measure 42
0000
0000
0000
0000
,  // measure 43
1000
0000
0000
0000
,  // measure 44
0001
0000
0000
0000
,  // measure 45
1000
0000
0000
0000
,  // measure 46
0000
0000
0000
0000
,  // measure 47
1000
0000
0000
0000
,  // measure 48
0001
0000
0000
0000
,  // measure 49
1000
0000
0000
0000
,  // measure 50
0000
0000
0000
0000
,  // measure 51
1001
0000
0000
0000
,  // measure 52
0000
0000
0000
0000
,  // measure 53
0000
0000
0000
0000
,  // measure 54
0000
0000
0000
0000
,  // measure 55
0100
0000
0000
0000
,  // measure 56
0100
0000
0000
0000
,  // measure 57
0100
0000
0000
0000
,  // measure 58
0000
0000
0000
0000
,  // measure 59
1001
0000
0000
0000
,  // measure 60
1000
0000
0000
0000
,  // measure 61
0001
0000
0000
0000
,  // measure 62
0000
0000
0000
0000
,  // measure 63
0100
0000
0000
0000
,  // measure 64
0010
0000
0000
0000
,  // measure 65
0100
0000
0000
0000
,  // measure 66
0000
0000
0000
0000
,  // measure 67
0010
0000
0000
0000
,  // measure 68
0100
0000
0000
0000
,  // measure 69
0010
0000
0000
0000
,  // measure 70
0000
0000
0000
0000
,  // measure 71
1000
0000
0000
0000
,  // measure 72
0001
0000
0000
0000
,  // measure 73
1000
0000
0000
0000
,  // measure 74
0000
0000
0000
0000
,  // measure 75
1001
0000
0000
0000
;
