#TITLE:Second Style;
#SUBTITLE:(Hip Hop Paradise);
#ARTIST:dj TAKA & DAY BREAKERS;
#TITLETRANSLIT:;
#SUBTITLETRANSLIT:;
#ARTISTTRANSLIT:;
#CREDIT:DMAxel;
#BANNER:Second Style (Hip Hop Paradise).png;
#BACKGROUND:Second Style (Hip Hop Paradise)-bg.png;
#LYRICSPATH:;
#CDTITLE:beatmaniaIIDX.png;
#MUSIC:Second Style (Hip Hop Paradise).mp3;
#OFFSET:-2.800;
#SAMPLESTART:36.178;
#SAMPLELENGTH:12.000;
#SELECTABLE:YES;
#BPMS:0.000=115.000;
#STOPS:172.000=0.261
;
#BGCHANGES:-16.000=Second Style (Hip Hop Paradise).AVI=1.000=1=0=1,
99999=-nosongbg-=1.000=0=0=0 // don't automatically add -songbackground-
;

//---------------dance-single - ----------------
#NOTES:
     dance-single:
     :
     Easy:
     3:
     0.254,0.286,0.309,0.028,0.000: // measure 1
0001
0010
0100
1000
,  // measure 2
1001
0000
1000
1000
,  // measure 3
1001
0000
0001
0001
,  // measure 4
1001
0100
0000
0100
,  // measure 5
1001
0010
0100
1000
,  // measure 6
0001
0001
1000
1000
,  // measure 7
1001
0000
0001
0001
,  // measure 8
0110
1000
0001
1000
,  // measure 9
1001
1000
1000
1000
,  // measure 10
1001
0010
0010
0010
,  // measure 11
0110
0100
0100
0100
,  // measure 12
1001
0001
0000
1000
,  // measure 13
1001
1000
0100
0010
,  // measure 14
1001
0010
0100
1000
,  // measure 15
1001
0010
0100
0001
,  // measure 16
1001
1000
1000
1000
,  // measure 17
0110
0000
0000
0000
,  // measure 18
1001
0000
0001
0001
,  // measure 19
1001
0000
0010
0001
,  // measure 20
1000
1000
0001
0001
,  // measure 21
1001
1000
0010
0010
,  // measure 22
1000
0001
0100
0100
,  // measure 23
0001
0010
0100
1000
,  // measure 24
1001
1001
1001
1001
,  // measure 25
0100
0010
0100
0000
,  // measure 26
0010
0100
0010
0000
,  // measure 27
1000
0001
1000
0001
,  // measure 28
1001
0000
0000
0000
,  // measure 29
0110
0000
0000
0000
,  // measure 30
0110
0000
0000
0000
,  // measure 31
1001
1000
0000
0001
,  // measure 32
1001
1000
0000
0001
,  // measure 33
0100
0001
0100
0001
,  // measure 34
1000
0000
0001
0000
,  // measure 35
2000
0000
0000
3000
,  // measure 36
1001
0001
0001
0000
,  // measure 37
1000
1000
1000
0000
,  // measure 38
0001
0001
0001
0000
,  // measure 39
0220
0000
0000
0330
,  // measure 40
1001
0001
1000
1000
,  // measure 41
0001
0010
0100
1000
,  // measure 42
0001
0001
1000
1000
,  // measure 43
0100
0010
0001
1000
,  // measure 44
0000
1001
0000
1000
0000
0001
0000
1000
,  // measure 45
0000
1000
0000
0001
0000
0001
0000
0100
,  // measure 46
0000
0010
0000
0100
0000
0010
0000
0100
,  // measure 47
0000
0110
0000
0001
0000
1001
0000
1000
;

//---------------dance-single - ----------------
#NOTES:
     dance-single:
     :
     Hard:
     7:
     0.446,0.373,0.384,0.000,0.080: // measure 1
1001
0000
0010
0100
0010
0000
0100
0001
,  // measure 2
0101
0000
1000
0000
0001
0001
1001
0000
,  // measure 3
0010
0100
0010
0000
0100
0010
0100
0000
,  // measure 4
1001
0000
1100
0000
0000
0101
0101
0000
,  // measure 5
0010
0100
0010
0000
0100
0001
1000
0000
,  // measure 6
1000
0100
0010
0001
0010
0100
1000
0000
,  // measure 7
0001
0010
0100
1000
0100
0010
0001
0000
,  // measure 8
0101
0000
0101
0000
1010
1000
1001
0000
,  // measure 9
1000
0010
0100
0001
0100
0010
1000
0001
,  // measure 10
0001
0100
1000
0100
0001
0010
0100
1000
,  // measure 11
0001
0100
0010
1000
0010
0100
0001
1000
,  // measure 12
1100
0000
1100
0000
0001
0100
0101
0000
,  // measure 13
0001
0100
0010
1000
0010
0100
0001
1000
,  // measure 14
1000
0100
0001
0100
1000
0001
0010
0100
,  // measure 15
1000
0100
0001
0100
0010
1000
0100
0010
,  // measure 16
0001
0000
1001
0000
0010
0100
0010
0000
,  // measure 17
1001
0000
0100
0010
0100
0000
0010
1000
,  // measure 18
1010
0000
0000
0000
1001
0000
0000
0000
0001
0000
0100
0000
0000
0010
0000
0000
,  // measure 19
0110
0000
0001
1001
,  // measure 20
1100
1100
0101
0101
,  // measure 21
1000
1000
1000
0000
0001
0100
1000
0000
,  // measure 22
0001
0001
0001
0000
1000
0100
0001
0000
,  // measure 23
0100
0010
1000
1000
1000
0001
0101
0000
,  // measure 24
0010
0100
0001
0001
0001
1000
1010
0000
,  // measure 25
0100
0001
1000
0000
0001
0100
1000
0000
,  // measure 26
0100
1000
0001
0000
1000
0100
0001
0000
,  // measure 27
0100
0010
0100
0010
0100
0001
1000
0010
,  // measure 28
0110
0000
0000
0000
0000
0000
0000
0001
,  // measure 29
1000
0000
0000
0000
0000
0000
0000
0000
0000
0000
0010
0000
0000
0010
0000
0000
,  // measure 30
0110
0000
0000
0000
0000
0000
0000
1000
,  // measure 31
1100
0000
1001
0000
0000
0011
0011
0000
,  // measure 32
0100
0010
1000
1000
0001
0010
0001
0100
,  // measure 33
0100
0000
0010
0000
1000
0000
1000
0000
0001
0000
0100
0000
0000
0100
0000
0000
,  // measure 34
0010
0100
0001
0001
1000
0100
1000
0010
,  // measure 35
0110
0000
0000
0000
0000
0000
0001
0000
1000
0010
1000
0010
1000
0010
1000
0000
,  // measure 36
0001
0000
0000
0010
0000
0000
0100
0000
0000
1000
0000
0000
0010
0000
0100
0000
,  // measure 37
0001
0000
0000
0010
0000
0000
0100
0000
0000
1000
0000
0000
0010
0000
0100
0000
,  // measure 38
0001
0000
0000
0100
0000
0000
0010
0000
0000
1000
0000
0000
0100
0000
0010
0000
,  // measure 39
0101
0000
0000
0101
0000
0000
0101
0000
0000
0101
0000
0000
1000
0000
0100
0000
,  // measure 40
1000
1000
0001
0000
0010
0100
0010
0000
,  // measure 41
0001
0100
1000
0100
0001
1000
1100
0000
,  // measure 42
0001
0001
1000
0000
0100
0010
0100
0000
,  // measure 43
1000
0100
0001
0100
1000
0001
0101
0000
,  // measure 44
0000
0110
0000
0001
0100
0001
0000
0100
,  // measure 45
0001
1000
1000
0001
0100
0110
0000
1000
,  // measure 46
0010
1000
0010
0100
0001
0100
0001
1000
,  // measure 47
0100
0000
0001
0000
0100
0000
1000
0000
0010
0100
0010
0100
0010
0100
0010
0000
;

//---------------dance-single - ----------------
#NOTES:
     dance-single:
     :
     Challenge:
     8:
     0.625,0.593,0.843,0.000,0.309: // measure 1
0001
0100
0001
0000
1000
0000
1000
0000
0010
0000
0000
0000
0100
0000
0101
0000
,  // measure 2
1001
0000
0001
0001
0110
0000
1001
1100
,  // measure 3
1001
0000
0110
0000
0001
0100
0010
0011
,  // measure 4
1001
0000
0000
0000
1001
0000
0000
0000
1000
0000
1010
0000
0001
1000
0001
1000
,  // measure 5
0001
0100
0001
0000
1000
0010
0100
1100
,  // measure 6
1001
0000
0000
0000
1000
0010
1000
0000
0001
0000
0001
0000
0110
0000
0000
0000
,  // measure 7
1001
1000
0010
0100
0001
1000
0010
1010
,  // measure 8
1001
0000
0000
0000
1001
0000
0100
0001
0100
0001
0100
0000
0010
0000
0010
1000
,  // measure 9
0001
0010
0100
1000
0100
0001
1000
0110
,  // measure 10
0110
0000
0001
0000
0100
0000
1000
0100
0010
0000
0100
0010
0001
0000
1001
0000
,  // measure 11
1001
0100
0010
0001
0100
1000
0001
0110
,  // measure 12
0110
1000
1001
0000
0100
0101
1001
0000
,  // measure 13
1000
0010
1000
0010
0100
0000
0001
0000
0100
0000
1000
0000
0001
0000
0110
0000
,  // measure 14
0110
0000
1000
0000
0100
0000
0001
0000
0010
0000
1000
0100
0010
0000
0000
0000
,  // measure 15
0001
0100
0001
0100
0010
0000
1000
0000
0100
0000
0001
0000
1000
0000
0110
0000
,  // measure 16
0110
0000
0000
0000
1001
0000
0010
1000
0010
1000
0010
0000
0100
0000
0100
0001
,  // measure 17
1000
0100
0010
0001
1000
1000
0001
0110
,  // measure 18
0110
0000
0000
0000
1010
0000
0000
0000
0001
0000
0101
0000
0000
0101
0000
0000
,  // measure 19
1001
1000
0001
0100
0010
1000
1000
0110
,  // measure 20
0110
0000
0000
0000
1001
0000
0010
0000
0100
0000
1000
0100
0010
0000
0000
0000
,  // measure 21
1001
0001
0101
0000
1000
0010
1010
1001
,  // measure 22
0001
0010
0100
0000
1000
0000
0100
0000
0001
0000
0100
0000
0110
0000
0000
0000
,  // measure 23
1001
0000
0100
0000
0010
0000
0001
0010
0100
0000
1000
0000
1000
0000
0101
0000
,  // measure 24
1001
0000
0001
0000
0011
0000
1000
0000
1001
0000
0001
0000
0100
0010
0100
0010
,  // measure 25
0100
0001
0010
0000
0100
0010
0001
1100
,  // measure 26
1100
0001
0010
0100
0100
0010
0001
1100
,  // measure 27
1100
0000
0001
0000
0010
0000
0001
0010
0001
0010
0001
0000
1000
0000
1000
0010
,  // measure 28
0100
0000
0000
0000
0000
0000
0001
0101
,  // measure 29
1100
0000
0000
0000
0000
0000
0000
0000
1000
0000
1100
0000
0000
1100
0000
0000
,  // measure 30
0101
0000
0000
0000
0000
0001
0001
0101
,  // measure 31
1100
0000
0000
0000
1100
0000
0010
0001
0010
0001
1000
0010
1000
0010
1000
0000
,  // measure 32
1001
0000
0001
0100
0000
0100
0001
0000
1000
0000
0010
0100
0010
0000
0101
0000
,  // measure 33
1001
0000
1000
0010
0000
0010
1000
0000
0001
0000
0110
0000
0000
0110
0000
0000
,  // measure 34
1001
0000
1000
0010
0000
0010
1000
0000
0001
0000
0100
0010
0100
0000
1010
0000
,  // measure 35
1001
0000
0000
0000
0000
0000
0100
1000
0100
1000
0001
0100
0001
0100
0001
0000
,  // measure 36
0101
0000
0000
0001
0000
0000
1000
0000
0000
0100
0000
0000
0001
0000
0100
0000
,  // measure 37
1000
0000
0000
0010
0000
0000
0100
0000
0000
0001
0000
0000
0100
0000
0001
0000
,  // measure 38
0100
0000
0000
1000
0000
0000
0100
0000
0000
0010
0000
0000
0001
0000
1000
0000
,  // measure 39
1100
0000
0000
0101
0000
0000
1001
0000
0000
1010
0000
0000
0011
0000
0011
0000
,  // measure 40
1001
1000
0010
1000
0001
0001
1000
1001
,  // measure 41
0101
0001
0100
0001
1000
1000
0001
1001
,  // measure 42
0010
1000
0010
0000
0100
0000
0001
0100
0001
0000
1000
0000
1000
0000
1100
0000
,  // measure 43
1001
0000
0000
0000
0011
0000
0000
0000
0100
0000
1000
0000
0010
1000
0010
1000
,  // measure 44
0010
1001
0000
1000
1000
0010
0110
0101
,  // measure 45
0001
0000
0100
0000
0010
0000
1000
0100
1000
0100
1000
0001
0100
0000
0101
0000
,  // measure 46
0001
0000
1000
0000
1000
0100
0010
0000
0010
0000
0100
0000
0110
0000
0001
0010
,  // measure 47
0100
1000
0001
0000
0001
0000
1000
0100
0010
0001
1000
0010
1000
0010
0100
0000
;

//---------------dance-single - ----------------
#NOTES:
     dance-single:
     :
     Medium:
     6:
     0.388,0.395,0.375,0.000,0.019: // measure 1
1001
0000
1000
0000
0001
0000
1000
1000
,  // measure 2
1100
0000
0001
0000
1000
0000
0001
0001
,  // measure 3
0011
0000
1000
0000
0001
0000
1000
1000
,  // measure 4
1100
0000
0011
0000
0000
1000
1001
0000
,  // measure 5
1001
0000
0100
0000
0010
0000
0100
0001
,  // measure 6
1001
0001
1000
1010
,  // measure 7
1001
0000
1000
0000
0001
0000
0100
0010
,  // measure 8
0110
0000
0110
0000
0100
0010
1000
1000
,  // measure 9
0001
0010
0100
1000
0100
0010
0001
1000
,  // measure 10
0010
1010
0100
0101
,  // measure 11
1000
0100
0010
0001
0010
0100
1000
0001
,  // measure 12
0100
0000
0101
0000
0000
1000
1010
0000
,  // measure 13
1001
0010
0100
1000
0100
0010
0001
0100
,  // measure 14
0001
0101
1100
0101
,  // measure 15
1001
0100
0010
0001
0010
0100
1000
0010
,  // measure 16
1000
1010
0011
1010
,  // measure 17
1001
0000
0001
0000
1000
1000
0001
0100
,  // measure 18
0001
0000
1000
0000
0001
0001
1000
0010
,  // measure 19
1000
0000
0000
0000
0010
0100
0010
0000
,  // measure 20
0110
0000
1001
0000
0000
1000
1001
0000
,  // measure 21
0010
1000
0100
0000
0010
0001
0100
0000
,  // measure 22
0010
0100
0010
1000
0100
0010
0001
0000
,  // measure 23
0010
0001
0010
0001
0010
0100
1001
0000
,  // measure 24
0100
1000
0100
1000
0100
0010
1001
0000
,  // measure 25
0100
0001
0010
0000
0100
1000
0010
0000
,  // measure 26
0100
0010
0100
0000
0010
0100
0010
0000
,  // measure 27
0100
0001
0010
0100
1000
0100
0010
0000
,  // measure 28
1001
0000
0000
0000
0000
0000
0000
0001
,  // measure 29
1000
0000
0000
0000
0000
0000
0000
0000
0000
0000
0010
0000
0000
0100
0000
0000
,  // measure 30
0010
0000
0000
0000
0000
1000
0001
0000
,  // measure 31
1001
0000
1001
0000
0000
0001
1000
0000
,  // measure 32
0010
0100
0001
0000
0100
0010
0100
0000
,  // measure 33
1001
0000
0000
0000
0001
0000
0000
0000
1000
0000
0010
0000
0000
0010
0000
0000
,  // measure 34
0110
0000
1000
0010
0100
0000
0001
1000
,  // measure 35
1001
0000
0000
0010
0100
0010
0100
0010
,  // measure 36
0100
0001
0100
1000
,  // measure 37
0010
0001
0010
1000
,  // measure 38
0100
0000
0001
0000
0100
0000
1000
0010
,  // measure 39
0100
0000
0000
0001
0000
0000
0100
0000
0000
0001
0000
0000
1000
0000
0100
0000
,  // measure 40
1000
0000
1001
0000
0001
1000
0001
0000
,  // measure 41
1000
0000
1001
0000
0001
1000
0001
0000
,  // measure 42
1000
0000
0100
0000
0001
1000
0001
0000
,  // measure 43
0001
0000
0100
0000
1000
0001
1000
0000
,  // measure 44
0000
0110
0000
0100
0010
1000
0000
0100
,  // measure 45
0010
0100
1000
0001
0000
1001
0000
0010
,  // measure 46
0100
0001
0000
0010
0100
0010
0000
0001
,  // measure 47
0100
1000
0000
1000
0100
0001
0000
0100
;

//---------------dance-single - ----------------
#NOTES:
     dance-single:
     :
     Beginner:
     1:
     0.084,0.132,0.094,0.000,0.000: // measure 1
1000
0000
0000
0000
,  // measure 2
1000
0000
0000
0000
,  // measure 3
0001
0000
0000
0000
,  // measure 4
0001
0000
0000
0000
,  // measure 5
0100
0000
0000
0000
,  // measure 6
0100
0000
0000
0000
,  // measure 7
0110
0000
0000
0000
,  // measure 8
0001
0000
1000
0000
,  // measure 9
1001
0000
0000
0000
,  // measure 10
0010
0000
0000
0000
,  // measure 11
0100
0000
0000
0000
,  // measure 12
1000
0000
0000
0000
,  // measure 13
1001
0000
0000
0000
,  // measure 14
0100
0000
0000
0000
,  // measure 15
0010
0000
0000
0000
,  // measure 16
0001
0000
1000
0000
,  // measure 17
0001
0000
0000
0000
,  // measure 18
0010
0000
0000
0000
,  // measure 19
0001
0000
0000
0000
,  // measure 20
1001
0000
0000
0000
,  // measure 21
1000
0000
0000
0000
,  // measure 22
0100
0000
0000
0000
,  // measure 23
1000
0000
0000
0000
,  // measure 24
1001
0000
0000
0000
,  // measure 25
0001
0000
0000
0000
,  // measure 26
0100
0000
0000
0000
,  // measure 27
0010
0000
0000
0000
,  // measure 28
1001
0000
0000
0000
,  // measure 29
1000
0000
0000
0000
,  // measure 30
1001
0000
0000
0000
,  // measure 31
0001
0000
0000
0000
,  // measure 32
1001
0000
0000
0000
,  // measure 33
0010
0000
0000
0000
,  // measure 34
0100
0000
0000
0000
,  // measure 35
1000
0000
0000
0000
,  // measure 36
0010
0000
0010
0000
,  // measure 37
0010
0000
0010
0000
,  // measure 38
0100
0000
0100
0000
,  // measure 39
0100
0000
0000
0000
,  // measure 40
1001
0000
0000
0000
,  // measure 41
0001
0000
0000
0000
,  // measure 42
0010
0000
0000
0000
,  // measure 43
0100
0000
0000
0000
,  // measure 44
0000
1001
0000
0000
0000
0000
0000
1000
,  // measure 45
0000
0000
0000
0000
0000
0000
0000
0010
,  // measure 46
0000
0000
0000
0000
0000
0000
0000
0100
,  // measure 47
0000
0000
0000
0000
0000
0000
0000
0001
;
