#TITLE:Searching...;
#SUBTITLE:;
#ARTIST:Tia;
#TITLETRANSLIT:;
#SUBTITLETRANSLIT:;
#ARTISTTRANSLIT:;
#CREDIT:DMAxel;
#BANNER:Searching.png;
#BACKGROUND:Searching-bg.png;
#LYRICSPATH:Searching.lrc;
#CDTITLE:pop'n music.png;
#MUSIC:Searching.mp3;
#OFFSET:-11.720;
#SAMPLESTART:74.354;
#SAMPLELENGTH:12.000;
#SELECTABLE:YES;
#BPMS:0.000=170.000;
#STOPS:;
#BGCHANGES:;

//---------------dance-single - ----------------
#NOTES:
     dance-single:
     :
     Easy:
     3:
     0.186,0.222,0.007,0.180,0.000:
2000
0000
0000
0000
,
3002
0000
0000
0000
,
2003
0000
0000
0000
,
3002
0000
0000
0000
,
0103
0000
0010
0000
,
0100
0000
0010
0000
,
0100
0000
0001
0000
,
1000
0000
0001
0000
,
2000
0000
0000
0000
,
0000
0000
0000
0000
,
3002
0000
0000
0000
,
0000
0000
0000
0000
,
1003
0010
0000
1000
,
0000
0001
0000
0100
,
0000
0001
0000
1000
,
0000
0100
1000
0100
,
2000
0000
0000
0001
,
0000
0001
0000
3001
,
0000
1000
0000
0001
,
0100
0001
0100
0000
,
0001
1000
0000
0001
,
0000
1000
0000
0001
,
0000
0100
0000
0001
,
0000
1000
0001
0010
,
0002
1000
0000
1000
,
0000
1003
0000
0001
,
0000
1000
0000
0001
,
0100
0010
0100
0010
,
0100
0001
0000
1000
,
0000
0001
0000
1000
,
0000
0100
0000
1000
,
0000
0001
0100
0001
,
2000
0000
0000
0001
,
0000
3001
0000
1000
,
0000
0001
0000
1000
,
0010
0100
0010
0100
,
0010
1000
0000
0001
,
0000
0100
0000
0010
,
0000
1000
0000
0100
,
0000
0010
0000
0001
,
2000
0000
0000
0001
,
0000
0001
0000
3001
,
0000
0100
0000
0001
,
0000
1000
0100
0010
,
0002
0000
0000
0000
,
0000
0000
0000
0000
,
2003
0000
0000
0000
,
0000
0000
0000
0000
,
3002
0000
0000
0000
,
0203
0000
0000
0000
,
0320
0000
0000
0000
,
2030
0000
0000
0000
,
3002
0000
0000
0000
,
0000
0000
0000
0000
,
2003
0000
0000
0000
,
0000
0000
0000
0000
,
3002
0000
0000
0000
,
0023
0000
0000
0000
,
0230
0000
0000
0000
,
2300
0000
0000
0000
,
3002
0000
0000
0000
,
0000
0000
0000
0000
,
2000
0000
0000
0000
,
0000
0000
0003
0000
,
0000
0000
0000
3001
,
0000
0001
0000
1000
,
0000
1000
0000
0001
,
0000
0001
0010
0100
,
1001
0000
0001
0000
,
1000
0000
0001
0000
,
1000
0000
0001
0000
,
0100
0010
0100
0001
,
1000
0000
1000
0000
,
0001
0000
0001
0000
,
0100
0000
0010
0000
,
0100
0001
1000
0100
,
1000
0000
0010
0000
,
0100
0000
0001
0000
,
0010
0000
0100
0000
,
1000
0001
0100
0010
,
0100
0000
0001
0000
,
1000
0000
0100
0000
,
0010
0000
0001
0000
,
0010
0100
1000
0001
,
0200
0000
0000
0000
,
0000
0000
0000
0000
,
0000
0000
0000
0000
,
0000
0000
0000
0000
,
0300
0000
0000
0000
;

//---------------dance-single - ----------------
#NOTES:
     dance-single:
     :
     Medium:
     5:
     0.351,0.412,0.166,0.173,0.000: // measure 1
0001
1000
0000
0001
,  // measure 2
0100
0001
0000
1000
,  // measure 3
0100
1000
0000
0001
,  // measure 4
0010
0001
0000
1000
,  // measure 5
0100
0010
0000
0001
,  // measure 6
0100
0010
0000
1000
,  // measure 7
0010
0100
0000
0001
,  // measure 8
0010
0100
1000
0001
,  // measure 9
0200
0001
0000
0001
,  // measure 10
0000
0001
0000
0302
,  // measure 11
0000
1000
0000
1003
,  // measure 12
0001
0011
1000
0100
,  // measure 13
0010
0001
0000
0010
,  // measure 14
0100
0001
0000
0010
,  // measure 15
0100
1000
0000
1010
,  // measure 16
0001
0010
0100
1000
,  // measure 17
0002
0000
0000
0000
0000
1003
0100
1000
,  // measure 18
0000
0001
1000
0000
0001
0000
0010
0000
,  // measure 19
0100
1000
0000
0101
,  // measure 20
1000
0010
1000
0010
0100
0000
0010
0000
,  // measure 21
1000
0000
0011
0000
0000
1000
0001
0000
,  // measure 22
0100
0000
0010
0000
0000
1000
0001
0000
,  // measure 23
0010
0100
0000
1010
,  // measure 24
0001
0000
1000
0000
0100
0010
0100
0000
,  // measure 25
2000
0000
0000
0001
0000
0000
0001
0000
,  // measure 26
0000
0001
0000
0000
0000
0000
3001
0000
,  // measure 27
0010
0100
0000
0101
,  // measure 28
1000
0000
0010
0000
0100
0010
0100
0000
,  // measure 29
1001
0000
0011
0000
1000
0010
1000
0000
,  // measure 30
0001
0000
1000
0000
0001
0010
0001
0000
,  // measure 31
0200
0000
0001
0000
0300
0001
1000
0000
,  // measure 32
0010
0000
0100
0000
0010
0100
0010
0000
,  // measure 33
2000
0001
0000
0001
,  // measure 34
0000
3001
0000
1000
,  // measure 35
0010
0000
0100
0000
0001
1000
0001
0000
,  // measure 36
0100
0010
0100
0000
0010
0100
0010
0000
,  // measure 37
1000
0000
1100
0000
0001
0100
0001
0000
,  // measure 38
1000
0000
0001
0000
1000
0100
1000
0000
,  // measure 39
0001
0100
0001
0011
,  // measure 40
1000
0000
0010
0000
0100
0001
0100
0000
,  // measure 41
0002
0000
0000
1000
0000
0000
1000
0000
,  // measure 42
0000
1000
0000
1003
,  // measure 43
0010
0100
0001
0010
,  // measure 44
0100
0010
0100
0000
0010
0001
1000
0000
,  // measure 45
0020
0000
0000
0000
,  // measure 46
0000
0000
0000
0000
0000
1030
0000
0000
,  // measure 47
2000
0000
0000
0000
,  // measure 48
0000
0000
0000
0000
0000
3001
0000
0000
,  // measure 49
0002
0000
1000
0000
,  // measure 50
2003
0000
0001
0000
,  // measure 51
3020
0000
0100
0000
,  // measure 52
0230
0000
0010
0000
,  // measure 53
0302
0000
0010
0000
,  // measure 54
0010
0000
0013
0000
,  // measure 55
0002
0000
1000
0000
,  // measure 56
1000
0000
1003
0000
,  // measure 57
2000
0000
0010
0000
,  // measure 58
3020
0000
0100
0000
,  // measure 59
0230
0000
0001
0000
,  // measure 60
0301
0010
0100
1000
,  // measure 61
2002
0000
0000
0000
,  // measure 62
0000
0000
0000
3003
,  // measure 63
0020
0000
0000
0000
,  // measure 64
0000
0000
0000
0000
,  // measure 65
0000
0000
0000
0130
,  // measure 66
0000
0001
0000
0010
,  // measure 67
0000
0100
0000
1000
,  // measure 68
0000
0000
0001
1000
0001
1000
0001
1000
,  // measure 69
0001
0000
0101
0000
1000
0001
1000
0000
,  // measure 70
0010
0000
1010
0000
0001
1000
0001
0000
,  // measure 71
1000
0000
1100
0000
0001
1000
0001
0000
,  // measure 72
0100
0010
0100
0010
0100
0000
0001
0000
,  // measure 73
1000
0000
0011
0000
1000
0001
1000
0000
,  // measure 74
0001
0000
1100
0000
0001
1000
0001
0000
,  // measure 75
0100
0000
0101
0000
1000
0001
1000
0000
,  // measure 76
0010
0100
0010
0100
0010
0000
1000
0000
,  // measure 77
0001
0000
1001
0000
0010
0100
0010
0000
,  // measure 78
1000
0000
1001
0000
0100
0010
0100
0000
,  // measure 79
0001
0000
1001
0000
0010
0100
0010
0000
,  // measure 80
1000
0001
1000
0001
1000
0000
0010
0000
,  // measure 81
1000
0000
1001
0000
0001
0100
0001
0000
,  // measure 82
1000
0000
1001
0000
1000
0010
1000
0000
,  // measure 83
0001
0000
1001
0000
0100
0010
0100
0000
,  // measure 84
0001
1000
0001
1000
0001
0000
1000
0000
,  // measure 85
0020
0000
0000
0000
,  // measure 86
0200
0000
0000
0000
,  // measure 87
0300
0000
0000
0000
,  // measure 88
0200
0000
0000
0000
,  // measure 89
0330
0000
0000
0000
;

//---------------dance-single - ----------------
#NOTES:
     dance-single:
     :
     Hard:
     8:
     0.498,0.508,0.252,0.130,0.011: // measure 1
0100
0000
1001
0000
0000
0001
1000
0000
,  // measure 2
0100
0000
1001
0000
0000
1000
0001
0000
,  // measure 3
0010
0000
1001
0000
0000
1000
0001
0000
,  // measure 4
0010
0000
1001
0000
0000
0001
1000
0000
,  // measure 5
0010
1000
0010
0000
0000
1000
0001
0000
,  // measure 6
0100
0001
0100
0000
0000
0001
1000
0100
,  // measure 7
1000
0000
1001
0000
0000
1000
0001
0010
,  // measure 8
0001
0000
1001
0000
0000
0010
0100
0001
,  // measure 9
2000
0100
0000
0001
,  // measure 10
0000
0100
0000
0001
,  // measure 11
0000
0100
0000
3001
,  // measure 12
1000
0000
1100
0000
0010
0001
1000
0000
,  // measure 13
1001
0001
0101
1000
,  // measure 14
0100
0010
0100
0000
1000
0010
0100
0000
,  // measure 15
0001
1010
1000
1001
,  // measure 16
0010
0100
0010
0000
0001
0100
0010
1000
,  // measure 17
0002
0000
1003
0010
0000
0100
0001
0100
,  // measure 18
0000
0010
1000
0100
0000
1000
0100
0010
,  // measure 19
0100
1010
0001
1001
,  // measure 20
1000
0010
0100
0001
0010
0100
2000
0000
,  // measure 21
3100
1000
1010
0001
,  // measure 22
0010
0100
0010
0000
0001
0100
0010
0000
,  // measure 23
1000
0000
1001
0000
0100
0010
0100
0000
,  // measure 24
1000
0010
0100
0001
1000
0100
1000
0000
,  // measure 25
0002
0000
1003
0010
0000
0100
0001
0100
,  // measure 26
0000
0010
1000
0100
0000
0010
0100
1000
,  // measure 27
0001
0101
1000
1001
,  // measure 28
0001
0010
0100
1000
0010
0100
0001
0000
,  // measure 29
1001
0000
0011
0000
1000
0010
0100
0000
,  // measure 30
0001
0100
1000
0000
0100
0010
0100
1000
,  // measure 31
0001
0000
0011
0000
1000
0010
0110
0000
,  // measure 32
0001
0100
1000
0000
0100
0010
0001
1000
,  // measure 33
0002
0000
1003
0010
0000
0100
0001
0010
,  // measure 34
0000
0100
0010
0100
0000
0010
0100
1000
,  // measure 35
0100
0000
1001
0000
0010
0100
0010
0000
,  // measure 36
0001
0100
0010
1000
0001
0010
0002
0000
,  // measure 37
1003
0000
1010
0000
0001
0010
0100
0000
,  // measure 38
1000
0100
0001
0000
0010
0100
0010
0001
,  // measure 39
1000
0000
1010
0000
0001
0100
0110
0000
,  // measure 40
1000
0100
0001
0000
0010
0100
1000
0001
,  // measure 41
2000
0000
3001
0100
0000
0010
1000
0010
,  // measure 42
0000
0100
0010
0100
0000
0010
0100
0010
,  // measure 43
0001
0101
1000
1100
,  // measure 44
0010
0001
0010
0100
1000
0100
0001
0100
,  // measure 45
0020
0000
1000
0000
,  // measure 46
1030
0000
0000
0000
1000
0001
0000
0000
,  // measure 47
0200
0000
0001
0000
,  // measure 48
0301
0000
0000
0000
0001
1000
0000
0000
,  // measure 49
0010
1000
0010
1000
,  // measure 50
0001
0010
0001
0010
,  // measure 51
0200
0000
0310
0000
,  // measure 52
0020
0000
0130
0000
,  // measure 53
1000
0001
0000
0001
0100
0000
0010
1000
,  // measure 54
0000
1000
0001
0000
0100
0010
0100
0000
,  // measure 55
0001
1000
0000
1000
0100
0000
0010
0001
,  // measure 56
0000
0001
1000
0000
0010
0100
0010
0000
,  // measure 57
0100
0001
0000
0001
0010
0000
0100
1000
,  // measure 58
0000
1000
0010
0000
0100
0001
0100
0001
,  // measure 59
1000
0010
0000
0010
0100
0000
0001
0100
,  // measure 60
0010
0100
0010
0100
0010
1000
0001
1000
,  // measure 61
2002
0000
0000
0000
,  // measure 62
0000
0000
0000
3003
,  // measure 63
0100
0000
0100
0000
,  // measure 64
0100
0000
0100
0000
,  // measure 65
0020
0100
0000
0130
,  // measure 66
0000
0002
0000
1000
,  // measure 67
0000
1000
0000
1000
,  // measure 68
0000
0000
1003
0010
0100
0001
0010
0100
,  // measure 69
1000
0010
0100
0000
0001
0100
1000
0000
,  // measure 70
1100
0000
0010
0001
1000
0010
0100
0010
,  // measure 71
1000
0000
1001
0000
1000
0100
0001
0000
,  // measure 72
0101
0000
0010
1000
0001
0100
0010
0100
,  // measure 73
0001
0000
1000
0010
0100
0001
1000
0000
,  // measure 74
0001
0100
1000
0000
0100
0010
0100
1000
,  // measure 75
0001
0000
0000
0000
1001
0000
0000
0000
0100
0000
1000
0000
0001
0100
0000
0000
,  // measure 76
0001
0100
0010
1000
0100
0010
0100
1000
,  // measure 77
0001
0010
0100
0000
1000
0100
0001
0000
,  // measure 78
0010
0100
0010
0001
1000
0010
0100
0000
,  // measure 79
0001
0000
0000
0000
1001
0000
0000
0000
0010
0000
0001
0000
1000
0010
0000
0000
,  // measure 80
1000
0010
0100
0001
0010
0100
0010
0001
,  // measure 81
1000
0000
1001
0000
0001
0100
1000
0000
,  // measure 82
0100
0010
0100
1000
0001
0010
0100
0000
,  // measure 83
1000
0000
0000
0000
1001
0000
0000
0000
0100
0000
1000
0000
0001
0100
0000
0000
,  // measure 84
0001
0100
0010
1000
0100
0001
0100
1000
,  // measure 85
0020
0000
0000
0000
,  // measure 86
2000
0000
0000
0000
,  // measure 87
3000
0000
0000
0000
,  // measure 88
0200
0000
0000
0000
,  // measure 89
0330
0000
0000
0000
;

//---------------dance-single - ----------------
#NOTES:
     dance-single:
     :
     Beginner:
     2:
     0.084,0.151,0.036,0.000,0.000:
0001
0000
0000
0000
,
1000
0000
0000
0000
,
0001
0000
0000
0000
,
1000
0000
0000
0000
,
0001
0000
0000
0000
,
1000
0000
0000
0000
,
0001
0000
0000
0000
,
1000
0000
0000
0000
,
0001
0000
0000
0000
,
0000
0000
0000
0000
,
0000
0000
0000
0000
,
1000
0000
0000
0000
,
1001
0000
0000
0000
,
1000
0000
0000
0000
,
0010
0000
0000
0000
,
1000
0000
0000
0000
,
1000
0000
0000
0000
,
1000
0000
0000
0000
,
1000
0000
0000
0000
,
1000
0000
0000
0000
,
0001
0000
0000
0000
,
0100
0000
0000
0000
,
0001
0000
0000
0000
,
0100
0000
0000
0000
,
0001
0000
0000
0000
,
0001
0000
0000
0000
,
0001
0000
0000
0000
,
1000
0000
0000
0000
,
1001
0000
0000
0000
,
1000
0000
0000
0000
,
0001
0000
0000
0000
,
1000
0000
0000
0000
,
0010
0000
0000
0000
,
0000
0000
0000
0000
,
0100
0000
0000
0000
,
0000
0000
0000
0000
,
0010
0000
0000
0000
,
1000
0000
0000
0000
,
0001
0000
0000
0000
,
1000
0000
0000
0000
,
1000
0000
0000
0000
,
0000
0000
0000
0000
,
0001
0000
0000
0000
,
1000
0000
0000
0000
,
1001
0000
0000
0000
,
0000
0000
0000
0000
,
0001
0000
0000
0000
,
0000
0000
0000
0000
,
1000
0000
0000
0000
,
0000
0000
0000
0000
,
0001
0000
0000
0000
,
0000
0000
0000
0000
,
1000
0000
0000
0000
,
0000
0000
0000
0000
,
1000
0000
0000
0000
,
0000
0000
0000
0000
,
0001
0000
0000
0000
,
0000
0000
0000
0000
,
0001
0000
0000
0000
,
0000
0000
0000
0000
,
1001
0000
0000
0000
,
0000
0000
0000
0000
,
0000
0000
0000
0000
,
0000
0000
0000
0000
,
1000
0000
0000
0000
,
1000
0000
0000
0000
,
1000
0000
0000
0000
,
1000
0000
0000
0000
,
1001
0000
0001
0000
,
1000
0000
0000
0000
,
0001
0000
1000
0000
,
0001
0000
0000
0000
,
1000
0000
0001
0000
,
1000
0000
0000
0000
,
0001
0000
1000
0000
,
0001
0000
0000
0000
,
0100
0000
0010
0000
,
0100
0000
0000
0000
,
0010
0000
0100
0000
,
0010
0000
0000
0000
,
0100
0000
0010
0000
,
0100
0000
0000
0000
,
0010
0000
0100
0000
,
0010
0000
0000
0000
,
0010
0000
0000
0000
;
