#TITLE:SYNCHRONIZED LOVE;
#SUBTITLE:('95 Original Version);
#ARTIST:JOE RINOIE;
#TITLETRANSLIT:;
#SUBTITLETRANSLIT:;
#ARTISTTRANSLIT:;
#CREDIT:DMAxel;
#BANNER:SYNCHRONIZED LOVE ('95 Original Version).png;
#BACKGROUND:SYNCHRONIZED LOVE ('95 Original Version)-bg.png;
#LYRICSPATH:SYNCHRONIZED LOVE ('95 Original Version).lrc;
#CDTITLE:Dancemania EX0.png;
#MUSIC:SYNCHRONIZED LOVE ('95 Original Version).mp3;
#OFFSET:-7.960;
#SAMPLESTART:64.067;
#SAMPLELENGTH:12.000;
#SELECTABLE:YES;
#BPMS:0.000=124.000;
#STOPS:16.000=0.484
;
#BGCHANGES:;

//---------------dance-single - ----------------
#NOTES:
     dance-single:
     :
     Easy:
     3:
     0.225,0.258,0.154,0.164,0.000: // measure 1
0010
0000
0100
0000
,  // measure 2
0010
0000
1000
0000
,  // measure 3
0001
0000
1000
0000
,  // measure 4
0010
0010
0010
0010
,  // measure 5
0000
0000
0000
1001
,  // measure 6
0000
0000
0010
0000
,  // measure 7
0001
0000
1000
0001
,  // measure 8
0000
0000
0010
0000
,  // measure 9
0100
0000
1000
0001
,  // measure 10
0000
0000
1000
0000
,  // measure 11
0100
0000
0010
0002
,  // measure 12
0000
0000
0000
2003
,  // measure 13
0000
0000
3000
1001
,  // measure 14
0001
0000
0010
0000
,  // measure 15
0100
0000
1000
0001
,  // measure 16
1000
0000
0010
0000
,  // measure 17
0100
0000
0001
1000
,  // measure 18
0001
0000
0010
0200
,  // measure 19
0000
2300
0000
3020
,  // measure 20
0000
0130
0001
0020
,  // measure 21
0000
0031
1000
0220
,  // measure 22
0000
0000
0000
0000
,  // measure 23
0000
0330
0000
0022
,  // measure 24
0000
0000
0033
0100
,  // measure 25
1000
0100
0010
1002
,  // measure 26
0000
0000
0000
0203
,  // measure 27
0000
0320
0000
1030
,  // measure 28
0100
0010
0001
1000
,  // measure 29
1000
1001
1001
0001
,  // measure 30
0010
0001
0000
1000
,  // measure 31
0010
1000
0000
0010
,  // measure 32
0100
0010
0100
0010
,  // measure 33
0100
0001
0000
0010
,  // measure 34
0001
0010
0000
0100
,  // measure 35
1000
0100
0000
1000
,  // measure 36
0001
0010
0100
1000
,  // measure 37
0001
1000
0000
0002
,  // measure 38
0000
2003
0000
3000
,  // measure 39
0010
0100
0010
2000
,  // measure 40
0000
3002
0000
0003
,  // measure 41
0100
0010
0100
0001
,  // measure 42
0001
1000
0011
0011
,  // measure 43
1000
0100
0010
0001
,  // measure 44
0001
0010
1100
1100
,  // measure 45
0010
0100
0010
1000
,  // measure 46
1000
0010
0101
0101
,  // measure 47
0010
1000
0001
0100
,  // measure 48
0010
1010
1010
0100
,  // measure 49
0010
0100
0001
1001
;

//---------------dance-single - ----------------
#NOTES:
     dance-single:
     :
     Hard:
     7:
     0.396,0.398,0.327,0.096,0.034: // measure 1
0010
0100
0001
0010
0100
0000
1000
0000
,  // measure 2
1001
1100
0010
1001
,  // measure 3
0100
0010
1000
0100
0010
0000
0001
0000
,  // measure 4
0101
1100
0110
1001
,  // measure 5
0001
0000
0000
1001
,  // measure 6
0010
0100
1000
0000
0010
0000
0100
0000
,  // measure 7
0001
0010
1000
1001
,  // measure 8
0100
0010
0001
0000
0100
0000
0010
0000
,  // measure 9
1000
0000
0100
1000
0100
0010
0001
0000
,  // measure 10
0010
0000
0100
0010
0001
0010
1000
0000
,  // measure 11
0010
0100
0000
0001
0000
1000
0010
0000
,  // measure 12
0100
0000
0001
0000
0100
0010
2000
0000
,  // measure 13
0000
3002
0000
0000
1003
0000
1001
0000
,  // measure 14
1000
0010
0100
0001
1000
0100
1000
0000
,  // measure 15
0100
0000
0001
0000
1000
0000
0001
0100
,  // measure 16
0010
1000
0001
0010
0001
1000
0000
0100
,  // measure 17
0000
0001
0000
0100
0010
1000
0100
0000
,  // measure 18
1000
0000
0000
0000
0100
0000
0000
0000
0001
0000
0000
0000
1001
0000
0000
1000
,  // measure 19
0000
0000
1000
0000
0001
0000
0000
0001
0000
0000
0001
0000
1000
0000
0000
0000
,  // measure 20
1000
0010
0100
0000
0011
0000
1002
0000
,  // measure 21
0000
2003
0000
3020
,  // measure 22
0000
0100
0000
0001
,  // measure 23
0000
1000
0030
0200
,  // measure 24
0000
0001
0000
1300
,  // measure 25
1010
0001
0101
1001
,  // measure 26
0100
0010
0000
0010
1000
0100
0010
0000
,  // measure 27
0001
0100
0000
0100
0010
1000
0001
0000
,  // measure 28
0001
0000
1000
0000
0000
0000
1000
0000
0100
0000
0000
0000
1000
0010
0000
0000
,  // measure 29
1000
0010
0000
0000
0100
0001
0000
0000
0100
0001
0000
0000
0100
0000
0010
0000
,  // measure 30
1000
0100
1000
0000
1000
0010
0000
0010
,  // measure 31
0100
0001
0010
0000
0001
0100
0000
0100
,  // measure 32
0010
1000
0100
0010
0001
1000
1000
0001
,  // measure 33
0100
0000
1001
0000
0100
1000
0000
1000
,  // measure 34
0100
0010
0001
0000
0100
0001
0000
0001
,  // measure 35
0010
0100
1000
0000
0010
1000
0000
1000
,  // measure 36
0010
0100
0001
0000
1001
0000
1000
0100
,  // measure 37
0010
0000
1001
0000
0001
0100
2000
0000
,  // measure 38
0000
0000
3002
0000
0000
0103
0000
0010
,  // measure 39
0100
1000
0100
0010
0001
0000
0200
0000
,  // measure 40
0000
0000
0320
0000
0000
1030
0000
0001
,  // measure 41
0010
0100
1000
0010
0100
0001
0010
0000
,  // measure 42
0011
1000
1010
0011
,  // measure 43
1000
0100
0001
1100
,  // measure 44
0001
1100
0101
1001
,  // measure 45
1000
0000
0100
0000
0001
0000
0100
0010
,  // measure 46
1000
0100
0010
0001
1000
0010
1000
0000
,  // measure 47
0101
0000
1100
0000
1001
0000
0010
0100
,  // measure 48
0001
0010
0100
1000
0001
0000
0011
0000
,  // measure 49
0110
0000
0000
0000
1100
0000
0000
0000
1001
0000
0000
1001
0000
0000
0000
0000
;

//---------------dance-single - ----------------
#NOTES:
     dance-single:
     :
     Challenge:
     8:
     0.518,0.492,0.385,0.096,0.260: // measure 1
1000
0000
0100
0000
1000
0000
0001
0100
0000
0000
0001
0100
0010
0100
0010
0100
,  // measure 2
0000
0101
0110
0101
,  // measure 3
0001
0000
0010
0000
0001
0000
1000
0010
0100
0010
0100
0000
0000
0000
0010
0000
,  // measure 4
1010
0110
1010
1001
,  // measure 5
0001
0000
0000
0000
1000
0001
0000
1000
0001
1000
0001
0000
0010
0000
0100
0000
,  // measure 6
1000
0000
0010
0000
1000
0000
0000
1001
0000
0000
0001
0000
0000
0000
0010
0000
,  // measure 7
0000
0001
0000
0000
0010
0000
0000
0001
0000
0000
1000
0100
0000
0000
1000
0000
,  // measure 8
0100
0000
1000
0000
0001
0000
0000
1001
0000
0000
1000
0000
0000
0000
0100
0000
,  // measure 9
0000
1000
0000
0000
0001
0000
1000
0000
0100
0000
0010
0000
0001
0000
0100
0000
,  // measure 10
0000
0001
0000
0000
0100
0000
0001
0000
1000
0000
0100
0000
0010
0000
0000
0000
,  // measure 11
0001
0010
0100
1000
0001
0010
0001
1000
,  // measure 12
0000
0100
0000
0000
1000
0000
0000
0001
0000
0000
1000
0000
2200
0000
0000
0000
,  // measure 13
3300
0022
0000
0000
0033
0000
1001
0001
,  // measure 14
0010
0000
0100
0000
1000
0000
0000
1001
0000
0000
0001
0000
0000
0000
0010
0000
,  // measure 15
0000
0100
0000
0000
0010
0000
0000
0100
0000
0000
1000
0001
0000
0000
0010
0000
,  // measure 16
0100
0000
1000
0000
0001
0000
0000
0010
0000
0000
0001
0000
0100
0000
0010
0000
,  // measure 17
0100
0001
0000
0010
0100
1000
0001
1000
,  // measure 18
0000
0010
0000
0000
1000
0000
0000
0010
0000
0000
1000
0000
0100
0000
0000
0100
,  // measure 19
0000
0000
0100
0000
0010
0000
0000
0010
0000
0000
0010
0000
0001
0000
0000
0000
,  // measure 20
0010
0100
1000
0000
1010
0000
1001
0000
,  // measure 21
1000
0010
0100
0001
0010
0100
1002
0000
,  // measure 22
1000
0000
1003
0100
0010
0001
1000
0100
,  // measure 23
1000
0000
0001
0000
0010
0000
0000
0001
1000
0000
0000
0000
1001
0000
0000
0001
,  // measure 24
2000
0000
0001
0000
3001
0100
0010
1000
,  // measure 25
0001
0010
0100
1000
1010
0000
1001
0000
,  // measure 26
0010
1000
0000
0010
1000
0001
0100
0001
,  // measure 27
0100
0001
0000
0100
0001
1000
0100
1000
,  // measure 28
0100
0000
1000
0000
0000
0000
0100
0000
1000
0000
0001
0000
0010
0001
0000
0000
,  // measure 29
0010
0001
0000
0000
1000
0100
0000
0000
1000
0100
0000
0000
1000
0000
0010
0000
,  // measure 30
0100
0001
0011
0000
0001
1000
0001
0100
,  // measure 31
0010
1000
1100
0000
1000
0001
1000
0010
,  // measure 32
0100
0001
0010
1000
0100
0010
0001
1000
,  // measure 33
0001
0100
0001
0000
1000
0100
0000
0000
0101
0000
0000
0000
1002
0000
0000
0000
,  // measure 34
1000
0000
1003
0010
0100
0002
1000
0000
,  // measure 35
1003
0001
0010
0100
1000
0001
0000
0010
,  // measure 36
0100
1000
0001
0010
1000
0100
0010
0001
,  // measure 37
1000
0000
0001
0010
0001
0000
1000
0000
1001
0000
0000
0000
1002
0000
0000
0000
,  // measure 38
1000
0000
1003
0010
0100
0001
0000
0010
,  // measure 39
0100
1000
0001
0010
0001
1000
2001
0000
,  // measure 40
0001
0000
3001
0100
0010
1000
0000
0100
,  // measure 41
0010
0001
0010
1000
0001
0010
0100
1000
,  // measure 42
0001
0000
0100
0001
0000
0000
0100
0001
1000
0001
1000
0001
0000
0000
0000
0000
,  // measure 43
1010
0000
0011
0000
1001
0000
0001
0010
,  // measure 44
0001
0000
1000
0010
0000
1000
0010
1000
0000
0010
0100
0010
0000
0000
0000
0000
,  // measure 45
1100
0000
0101
0000
1001
0000
0010
0001
,  // measure 46
1000
0000
0100
1000
0000
0000
0100
1000
0001
1000
0001
1000
0000
0000
0000
0000
,  // measure 47
0011
0000
1010
0000
1001
0000
0010
0001
,  // measure 48
1000
0000
0100
1000
0100
1000
0100
1000
0000
0001
0100
0000
0110
0000
0000
0000
,  // measure 49
1010
0000
0000
0000
1001
0000
0000
0000
1100
0000
0000
0101
0000
0000
0000
0000
;

//---------------dance-single - ----------------
#NOTES:
     dance-single:
     :
     Medium:
     5:
     0.318,0.305,0.221,0.077,0.005: // measure 1
0100
0100
0100
0001
,  // measure 2
0100
1000
0100
0010
,  // measure 3
0001
1000
0001
0100
,  // measure 4
1000
0100
0010
1001
,  // measure 5
0000
0000
0000
0100
,  // measure 6
0010
1000
0010
0100
,  // measure 7
0010
0000
1000
0000
0010
0100
0001
0000
,  // measure 8
0010
0001
0100
0010
,  // measure 9
1000
0000
0010
1000
0100
0001
0100
0000
,  // measure 10
0010
0000
1000
0000
0001
0010
0100
0000
,  // measure 11
1000
0010
0100
1100
,  // measure 12
1001
0100
0010
0002
,  // measure 13
0000
2000
0000
0000
3003
0000
1001
0000
,  // measure 14
0011
1000
0010
0100
,  // measure 15
0001
0010
0100
1001
,  // measure 16
0010
0000
0100
0000
0001
0000
1000
0010
,  // measure 17
1000
0000
0001
0010
0001
0000
1000
0000
,  // measure 18
0001
1000
0001
0101
,  // measure 19
1000
0101
1000
1001
,  // measure 20
0010
0100
0010
0000
1000
0000
0002
0000
,  // measure 21
0000
0023
0000
0031
,  // measure 22
0010
0100
1000
0010
,  // measure 23
0100
0000
0010
0100
0010
0000
1000
0001
,  // measure 24
1000
1000
0001
0100
,  // measure 25
0100
0100
0110
1001
,  // measure 26
0010
1000
0000
0010
1000
0000
0001
0000
,  // measure 27
0010
0001
0000
0010
0001
0000
1000
0000
,  // measure 28
0001
1000
0000
0001
1000
0000
0010
0000
,  // measure 29
0010
0110
1001
0001
,  // measure 30
0001
0011
0000
1000
,  // measure 31
1000
1100
0000
0001
,  // measure 32
0010
0000
0100
0000
1000
0000
0010
0100
,  // measure 33
0010
0010
1000
0001
,  // measure 34
0001
0101
0000
1000
,  // measure 35
1000
1010
0001
0010
,  // measure 36
0100
0000
1000
0000
0010
0100
0010
0000
,  // measure 37
0010
0110
0110
1002
,  // measure 38
0000
0000
2003
0000
0000
3001
0000
1000
,  // measure 39
0001
0010
0100
2000
,  // measure 40
0000
0000
3002
0000
0000
1003
0000
0001
,  // measure 41
1000
0100
0010
0001
,  // measure 42
1000
0000
0001
0100
0001
0000
0000
0000
,  // measure 43
0001
0010
0100
1000
,  // measure 44
0001
0000
1000
0010
1000
0000
0000
0000
,  // measure 45
1000
0100
0010
0001
,  // measure 46
1000
0000
0001
0010
0001
0000
0000
0000
,  // measure 47
0001
0010
0100
1000
,  // measure 48
0001
0010
0001
0010
0001
0000
1001
0000
,  // measure 49
1001
0000
0000
0000
1000
0000
0000
0000
0001
0000
0000
1001
0000
0000
0000
0000
;

//---------------dance-single - ----------------
#NOTES:
     dance-single:
     :
     Beginner:
     1:
     0.098,0.094,0.106,0.000,0.000: // measure 1
0001
0000
0000
0000
,  // measure 2
0000
1000
0000
0000
,  // measure 3
0001
0000
0000
0000
,  // measure 4
1000
0000
0001
0000
,  // measure 5
1000
0000
0000
1001
,  // measure 6
0000
0000
0000
0001
,  // measure 7
0000
0000
0000
1000
,  // measure 8
0000
0000
0000
0001
,  // measure 9
0000
0000
0000
0100
,  // measure 10
0000
0000
0000
0010
,  // measure 11
0000
0000
0000
0010
,  // measure 12
0000
0000
0000
0100
,  // measure 13
0000
0000
0000
1001
,  // measure 14
0000
0000
0000
0000
,  // measure 15
0000
0000
0000
1000
,  // measure 16
0000
0000
0000
0000
,  // measure 17
0000
0000
0000
0010
,  // measure 18
0000
0000
0000
0100
,  // measure 19
0000
0000
0000
0010
,  // measure 20
0000
1000
0000
0001
,  // measure 21
0000
0000
0000
1001
,  // measure 22
0000
0000
0000
0010
,  // measure 23
0000
0000
0000
0110
,  // measure 24
0000
0000
0000
0100
,  // measure 25
0000
0000
0000
1001
,  // measure 26
0000
0000
0000
1000
,  // measure 27
0000
0000
0000
0001
,  // measure 28
0000
0000
0000
0100
,  // measure 29
0000
0000
0000
0110
,  // measure 30
0000
0000
0000
0000
,  // measure 31
0000
0000
0000
0001
,  // measure 32
0000
0001
0000
1000
,  // measure 33
0000
1000
0000
0001
,  // measure 34
0000
0001
0000
1000
,  // measure 35
0000
1000
0000
0010
,  // measure 36
0000
0010
0000
0100
,  // measure 37
0000
0100
0000
1001
,  // measure 38
0000
0000
0000
0010
,  // measure 39
0000
0000
0000
1001
,  // measure 40
0000
0000
0000
0100
,  // measure 41
0000
0000
0000
0001
,  // measure 42
0000
0001
0000
0001
,  // measure 43
0000
0000
0000
0010
,  // measure 44
0000
0010
0000
0010
,  // measure 45
0000
0000
0000
0100
,  // measure 46
0000
0100
0000
0100
,  // measure 47
0000
0000
0000
1000
,  // measure 48
0000
1000
0000
1001
,  // measure 49
0000
1001
0000
1001
;
