#TITLE:SUPER HERO;
#SUBTITLE:(FROM NONSTOP MEGAMIX);
#ARTIST:DJ YOSHITAKA feat. Michaela Thurlow;
#TITLETRANSLIT:;
#SUBTITLETRANSLIT:;
#ARTISTTRANSLIT:;
#CREDIT:DMAxel;
#BANNER:SUPER HERO (FROM NONSTOP MEGAMIX).png;
#BACKGROUND:SUPER HERO (FROM NONSTOP MEGAMIX)-bg.png;
#LYRICSPATH:SUPER HERO (FROM NONSTOP MEGAMIX).lrc;
#CDTITLE:Konami original REMIX.png;
#MUSIC:SUPER HERO (FROM NONSTOP MEGAMIX).mp3;
#OFFSET:-5.560;
#SAMPLESTART:52.513;
#SAMPLELENGTH:12.000;
#SELECTABLE:YES;
#BPMS:0.000=180.000;
#STOPS:;
#BGCHANGES:;

//---------------dance-single - ----------------
#NOTES:
     dance-single:
     :
     Easy:
     4:
     0.323,0.376,0.232,0.093,0.000: // measure 1
2000
0000
0000
0000
,  // measure 2
3001
0000
0000
0000
,  // measure 3
0200
0000
0000
0000
,  // measure 4
0310
0000
0000
0000
,  // measure 5
2000
0000
0000
0000
,  // measure 6
3100
0000
0000
0000
,  // measure 7
0020
0000
0031
0000
,  // measure 8
1001
0000
0000
0000
0000
0000
0000
0010
,  // measure 9
0000
0010
0011
0000
,  // measure 10
0100
1000
0100
0010
,  // measure 11
0001
0000
1000
0000
0001
0000
0000
1001
,  // measure 12
0000
0001
0010
0100
,  // measure 13
1000
1000
1100
0000
,  // measure 14
0010
0000
0100
0000
,  // measure 15
0001
0000
0010
0000
0100
0000
0000
1001
,  // measure 16
0000
0000
1001
0000
1001
0000
1000
0002
,  // measure 17
0000
0000
0000
0000
0103
0000
0000
0020
,  // measure 18
0000
0000
0000
0000
1030
0000
0000
1000
,  // measure 19
0000
0000
0000
0000
0001
0000
0000
1000
,  // measure 20
0000
0000
0001
0000
1000
0000
0000
1001
,  // measure 21
0000
0000
0000
0010
,  // measure 22
0001
0100
0001
0000
,  // measure 23
1001
0000
0000
0100
,  // measure 24
1000
0010
1000
0100
,  // measure 25
1001
0000
0000
0010
,  // measure 26
0001
0100
0010
0100
,  // measure 27
0002
0000
2003
0000
,  // measure 28
3001
0010
0100
1000
,  // measure 29
0000
1001
0000
0000
,  // measure 30
0000
0010
0000
0001
0000
0000
0000
0000
,  // measure 31
0000
0000
1001
0000
0000
0000
0000
0100
,  // measure 32
0000
1000
0000
0000
0000
0000
0000
1000
,  // measure 33
0000
0100
1000
0100
,  // measure 34
1000
0010
1000
0010
,  // measure 35
0100
0010
0100
0001
,  // measure 36
0010
0000
0000
0000
,  // measure 37
1001
0001
0010
0100
,  // measure 38
1000
0100
0010
0001
,  // measure 39
0100
0000
0010
0000
1000
0000
0000
1001
,  // measure 40
0000
0010
0001
0010
,  // measure 41
0001
0010
0100
1000
,  // measure 42
0001
0010
0100
1000
,  // measure 43
0010
0000
0100
0000
0010
0000
0000
1001
,  // measure 44
0000
0001
0010
0100
,  // measure 45
1000
0100
0010
0001
,  // measure 46
1000
0100
0010
0001
,  // measure 47
0100
0000
0010
0000
0100
0000
0000
1001
,  // measure 48
0000
0100
0010
0100
,  // measure 49
0001
0010
0100
1000
,  // measure 50
0001
0010
0100
1000
,  // measure 51
0010
0000
0000
0000
0010
0000
0000
1001
,  // measure 52
0000
0010
0100
1000
,  // measure 53
0010
0010
0010
0000
,  // measure 54
0100
0100
0100
0001
,  // measure 55
0010
0100
1000
0100
,  // measure 56
0010
0001
0010
0100
,  // measure 57
1001
0000
0000
0001
0000
0000
0100
0000
,  // measure 58
0000
0010
0000
0000
1000
0000
0000
1001
,  // measure 59
0000
0000
0000
0000
,  // measure 60
1001
0000
0000
0000
;

//---------------dance-single - ----------------
#NOTES:
     dance-single:
     :
     Challenge:
     8:
     0.647,0.615,0.614,0.162,0.000: // measure 1
1001
0000
0001
0010
0001
1000
0000
0010
,  // measure 2
0000
0010
0000
0100
0010
0100
0001
0000
,  // measure 3
1001
0000
1000
0100
1000
0001
0000
0100
,  // measure 4
0000
0100
0000
0010
0100
0010
1000
0000
,  // measure 5
1001
0000
1000
0001
0010
0100
0000
1000
,  // measure 6
0001
1000
0000
1000
0001
0010
0100
0000
,  // measure 7
1001
0000
0001
1000
0100
0010
0001
0000
,  // measure 8
1001
0000
1001
0000
1001
0000
1001
1100
,  // measure 9
0000
0010
0001
1000
0001
0000
0100
0010
,  // measure 10
0000
0100
0000
0010
1000
0000
0010
0000
,  // measure 11
1000
0010
0100
0010
1000
0001
0100
0110
,  // measure 12
0000
0001
0010
0100
,  // measure 13
1100
0000
1001
0000
1001
0000
0010
0001
,  // measure 14
0010
0100
0000
1000
0100
0000
1000
0000
,  // measure 15
1001
0000
0010
0100
0001
0010
0100
1001
,  // measure 16
0000
0000
1100
0000
0110
0000
0011
1001
,  // measure 17
0000
0010
0002
0000
0100
0100
0103
1001
,  // measure 18
0000
0100
2000
0000
0010
0010
3010
1001
,  // measure 19
0000
0000
0001
0100
0010
0100
0001
1001
,  // measure 20
0000
1000
0100
0010
0001
1000
0001
1001
,  // measure 21
0000
0000
1100
0000
0010
0001
0010
0001
,  // measure 22
0200
0000
0310
2000
0001
0000
3001
0000
,  // measure 23
1001
0000
0011
0000
0100
1000
0100
1000
,  // measure 24
0020
0000
0130
0002
1000
0000
1003
0000
,  // measure 25
1001
0000
0101
0000
0010
1000
0010
1000
,  // measure 26
0002
0000
0103
0020
1000
0000
1030
0001
,  // measure 27
1001
0100
1001
0010
,  // measure 28
1001
0011
0110
1100
,  // measure 29
0000
0000
1001
0000
0010
0001
0001
0100
,  // measure 30
0000
0011
0000
0110
0000
1000
1000
0000
,  // measure 31
0001
0000
1001
0000
0100
1000
1000
0010
,  // measure 32
0000
1100
0000
0110
0000
0001
0001
0000
,  // measure 33
1000
0100
0010
0001
1000
0100
0010
0100
,  // measure 34
0001
0010
0100
1000
0001
0010
0100
0010
,  // measure 35
1000
0001
0001
0000
0001
1000
1000
0000
,  // measure 36
2002
0000
0000
3003
,  // measure 37
1001
0000
0010
0000
0001
0100
0000
0010
,  // measure 38
0100
0010
0000
1000
0010
0100
0010
0000
,  // measure 39
1000
0100
0010
0001
1000
0010
0100
0110
,  // measure 40
0000
1000
0100
0010
,  // measure 41
0001
0010
0001
1000
0010
0100
0001
0000
,  // measure 42
1000
0100
1000
0001
0100
0010
1000
0000
,  // measure 43
0001
0000
0101
0000
0010
1000
0010
0110
,  // measure 44
0000
0001
0010
0100
,  // measure 45
1000
0010
1000
0010
0100
0001
0000
0100
,  // measure 46
0001
0010
0000
0001
1000
0000
0010
0000
,  // measure 47
1000
0100
0010
0001
1000
0010
0100
0110
,  // measure 48
0000
0001
0010
0100
,  // measure 49
1000
0100
1000
0001
0100
0010
1000
0000
,  // measure 50
0001
0010
0001
1000
0010
0100
0001
0000
,  // measure 51
1000
0000
1010
0000
0100
0001
0100
0110
,  // measure 52
0000
0000
1000
0000
0001
0000
1000
0010
,  // measure 53
0000
1000
0002
0000
0010
0010
0013
1001
,  // measure 54
0000
0001
2000
0000
0100
0100
3100
1001
,  // measure 55
0000
0000
0001
0010
0100
1000
0001
0011
,  // measure 56
0000
0000
0100
1000
0100
0010
0001
1000
,  // measure 57
1100
0000
0001
0100
0000
0010
0100
0000
,  // measure 58
0010
1000
0000
0001
1000
0010
0020
0200
,  // measure 59
0000
0000
0000
0330
,  // measure 60
1001
0000
0000
0000
;

//---------------dance-single - ----------------
#NOTES:
     dance-single:
     :
     Beginner:
     2:
     0.126,0.137,0.012,0.000,0.000: // measure 1
1000
0000
0000
0000
,  // measure 2
0001
0000
0000
0000
,  // measure 3
1000
0000
0000
0000
,  // measure 4
0001
0000
0000
0000
,  // measure 5
0100
0000
0000
0000
,  // measure 6
0010
0000
0000
0000
,  // measure 7
0100
0000
0100
0000
,  // measure 8
0100
0000
0000
0000
,  // measure 9
0000
0010
0000
0010
,  // measure 10
0000
0010
0000
0000
,  // measure 11
0000
1000
0000
1000
,  // measure 12
0000
0000
0000
0000
,  // measure 13
0000
0001
0000
0001
,  // measure 14
0000
0001
0000
0000
,  // measure 15
0000
1000
0000
1000
,  // measure 16
0000
0000
0000
0000
,  // measure 17
0000
0000
0010
0000
,  // measure 18
0000
0000
0100
0000
,  // measure 19
0000
0001
0000
1000
,  // measure 20
0000
0000
0000
0000
,  // measure 21
0000
0010
0000
0100
,  // measure 22
0000
0010
0000
0100
,  // measure 23
0000
0001
0000
1000
,  // measure 24
0000
0001
0000
1000
,  // measure 25
0000
0010
0000
0100
,  // measure 26
0000
0010
0000
0100
,  // measure 27
0000
0000
0000
0000
,  // measure 28
0001
0000
0000
0000
,  // measure 29
0000
1000
0000
0000
,  // measure 30
0000
0000
0000
0000
,  // measure 31
0000
0100
0000
0000
,  // measure 32
0000
0000
0000
0000
,  // measure 33
0000
0010
0000
0001
,  // measure 34
0000
0010
0000
0001
,  // measure 35
0000
1000
0000
0001
,  // measure 36
0000
0000
0000
0000
,  // measure 37
0000
1000
0000
0100
,  // measure 38
0000
1000
0000
0100
,  // measure 39
0000
1000
0000
0001
,  // measure 40
0000
0000
0000
0000
,  // measure 41
0000
0100
0000
0010
,  // measure 42
0000
0100
0000
0001
,  // measure 43
0000
1000
0000
0001
,  // measure 44
0000
0000
0000
0000
,  // measure 45
0000
1000
0000
0001
,  // measure 46
0000
1000
0000
0001
,  // measure 47
0000
0100
0000
0001
,  // measure 48
0000
0000
0000
0000
,  // measure 49
0000
1000
0000
0010
,  // measure 50
0000
1000
0000
0001
,  // measure 51
0000
1000
0000
0001
,  // measure 52
0000
0000
0000
0000
,  // measure 53
0000
0000
0100
0000
,  // measure 54
0000
0000
0010
0000
,  // measure 55
0000
1000
0000
0001
,  // measure 56
0000
0000
0100
0000
,  // measure 57
0100
0000
0000
0000
,  // measure 58
0000
0000
0000
0000
,  // measure 59
0000
0000
0000
0000
,  // measure 60
1001
0000
0000
0000
;

//---------------dance-single - ----------------
#NOTES:
     dance-single:
     :
     Hard:
     7:
     0.516,0.478,0.417,0.243,0.000: // measure 1
2002
0000
0000
3003
,  // measure 2
0010
0010
0010
0010
,  // measure 3
0220
0000
0000
0330
,  // measure 4
0001
0001
0001
0001
,  // measure 5
0220
0000
0000
0330
,  // measure 6
1000
1000
1000
1000
,  // measure 7
1001
0100
0010
0001
,  // measure 8
0100
0000
0100
0000
0100
0000
0100
0010
,  // measure 9
0000
0000
1000
0000
0010
0000
0100
0010
,  // measure 10
0000
0100
0000
0010
1000
0000
0001
0000
,  // measure 11
0010
0000
0001
0000
1000
0100
1000
1001
,  // measure 12
0000
1000
0100
0010
,  // measure 13
1001
0000
0010
0000
0001
0000
0100
0010
,  // measure 14
0000
0100
0000
0001
0100
0000
0010
0000
,  // measure 15
1000
0000
0010
0000
0100
0001
1000
1001
,  // measure 16
0000
0000
1001
0000
1001
0000
0001
1000
,  // measure 17
0000
0100
0010
0000
0002
0000
0000
1003
,  // measure 18
0000
0010
0100
0000
2000
0000
0000
3002
,  // measure 19
0000
0000
0103
0000
0001
0000
1000
1010
,  // measure 20
0000
0100
0001
0010
0001
0010
0001
1001
,  // measure 21
0000
0010
0100
0001
,  // measure 22
0020
0000
0031
2000
0000
0000
3100
0000
,  // measure 23
1001
0001
0100
0010
,  // measure 24
2000
0000
3010
0200
0000
0000
0301
0000
,  // measure 25
1001
1000
0010
0100
,  // measure 26
0002
0000
0103
0020
0000
0000
1030
0000
,  // measure 27
1001
0010
1001
0100
,  // measure 28
1001
1100
0110
0011
,  // measure 29
0000
0000
1001
0000
0100
1000
1000
0010
,  // measure 30
0000
0100
0000
0010
0000
0100
0010
0000
,  // measure 31
1000
0000
1001
0000
0010
0001
0001
0100
,  // measure 32
0000
0010
0000
0100
0000
0010
0100
0000
,  // measure 33
0001
0010
0100
0010
0000
0001
1000
0000
,  // measure 34
1000
0100
0010
0100
0000
1000
0001
0000
,  // measure 35
1001
0010
0100
1000
,  // measure 36
2002
0000
0000
3003
,  // measure 37
1001
0000
0100
0000
1000
0010
0000
0100
,  // measure 38
0010
0100
0000
0001
0100
0000
0010
0000
,  // measure 39
1000
0000
1000
0100
0010
0001
0000
1001
,  // measure 40
0000
0001
0010
0100
,  // measure 41
1000
0000
0010
1000
0001
0010
0001
0000
,  // measure 42
1000
0000
1000
0001
0000
1000
0001
0000
,  // measure 43
1001
0000
1000
0000
0001
0010
0100
1001
,  // measure 44
0000
1000
0100
0010
,  // measure 45
0001
0100
0010
0100
0001
0000
0000
0010
,  // measure 46
0100
1000
0000
0010
0100
0000
0001
0000
,  // measure 47
1000
0000
1000
0100
0010
0001
0000
1001
,  // measure 48
0000
1000
0100
0010
,  // measure 49
0001
0000
0100
0001
1000
0100
0000
1000
,  // measure 50
0100
0010
0000
0001
1000
0000
1000
0000
,  // measure 51
0001
0000
0101
0000
0010
1000
0001
1001
,  // measure 52
0000
0000
0010
0000
0100
0000
1000
0001
,  // measure 53
0000
0001
0020
0000
0001
0000
0031
1000
,  // measure 54
0000
1000
0200
0000
1000
0000
1300
0001
,  // measure 55
0000
0000
0100
0001
0010
0100
1000
0001
,  // measure 56
0000
0000
0100
0001
0010
0100
1000
0000
,  // measure 57
1001
0000
0000
1100
0000
0000
0110
0000
,  // measure 58
0000
0011
0000
0000
1001
0000
0020
0200
,  // measure 59
0000
0000
0000
0330
,  // measure 60
1001
0000
0000
0000
;

//---------------dance-single - ----------------
#NOTES:
     dance-single:
     :
     Medium:
     6:
     0.418,0.410,0.301,0.220,0.000: // measure 1
1002
0000
0000
0000
,  // measure 2
0203
0000
0000
0000
,  // measure 3
0320
0000
0000
0000
,  // measure 4
2030
0000
0000
0000
,  // measure 5
3200
0000
0000
0000
,  // measure 6
0320
0000
0000
0000
,  // measure 7
0031
0000
0101
0000
,  // measure 8
1010
0000
0000
0000
0000
0000
0000
0100
,  // measure 9
0000
0000
0001
0000
0100
0000
0010
0100
,  // measure 10
0000
0010
0000
0100
0001
0000
1000
0000
,  // measure 11
0100
0000
1000
0000
0001
0000
1000
0001
,  // measure 12
0000
0001
0010
0100
,  // measure 13
1001
0000
0100
0000
1000
0000
0010
0100
,  // measure 14
0000
0010
0000
1000
0010
0000
0100
0000
,  // measure 15
0001
0000
0100
0000
0010
0000
1000
0001
,  // measure 16
0000
0000
1001
0000
0001
0000
1000
0001
,  // measure 17
0000
0010
0001
0000
2000
0000
0000
3001
,  // measure 18
0000
0100
1000
0000
0002
0000
0000
1003
,  // measure 19
0000
0001
0100
0000
0001
0000
0100
0010
,  // measure 20
0000
0100
0010
0000
1000
0000
0001
1000
,  // measure 21
0000
0010
0100
0010
,  // measure 22
2000
0000
0000
3002
0000
0000
0013
0000
,  // measure 23
1001
1000
0010
0100
,  // measure 24
0002
0000
0000
2003
0000
0000
3100
0000
,  // measure 25
1001
0001
1000
0001
,  // measure 26
0200
0000
0000
0320
0000
0000
0130
0000
,  // measure 27
1001
0001
0010
0100
,  // measure 28
1000
1001
0110
1001
,  // measure 29
0000
0000
1001
0000
0001
0000
1000
0001
,  // measure 30
0000
0010
0000
0100
0000
1000
0001
0000
,  // measure 31
0000
0000
1001
0000
1000
0000
0001
1000
,  // measure 32
0000
0100
0000
0010
0000
0001
0000
1010
,  // measure 33
0000
0100
0001
0100
,  // measure 34
1001
0010
0001
0010
,  // measure 35
1001
0100
1001
0010
,  // measure 36
2002
0000
0000
3003
,  // measure 37
1001
0000
0010
0000
0001
0100
0000
0010
,  // measure 38
0100
0010
0000
1000
0010
0000
1000
0000
,  // measure 39
0100
0000
0010
0000
0001
1000
0000
1001
,  // measure 40
0000
1000
0100
0010
,  // measure 41
0001
0100
0010
0100
,  // measure 42
0001
1000
0001
1000
,  // measure 43
0100
0000
1000
0000
0010
0000
0100
0001
,  // measure 44
0000
0001
0010
0100
,  // measure 45
1001
0000
1000
0000
0001
0010
0000
0001
,  // measure 46
0010
0001
0000
1000
0010
0000
0100
0000
,  // measure 47
0001
0000
0001
0000
1000
0001
0000
1001
,  // measure 48
0000
0001
0010
0100
,  // measure 49
1000
0001
0100
0010
,  // measure 50
0100
0010
1000
0010
,  // measure 51
0100
0000
0001
0000
0010
0000
0100
1000
,  // measure 52
0000
0000
0001
0000
1000
0000
0010
0200
,  // measure 53
0000
0000
0310
0000
0100
0000
0000
0020
,  // measure 54
0000
0000
0130
0000
0100
0000
0000
1001
,  // measure 55
0000
0001
0010
1000
,  // measure 56
0010
0001
0100
1000
,  // measure 57
1001
0000
0000
0001
0000
0000
0010
0000
,  // measure 58
0000
0100
0000
0000
1001
0000
0010
0200
,  // measure 59
0000
0000
0000
0300
,  // measure 60
1001
0000
0000
0000
;
