#TITLE:SUMMER TIME;
#SUBTITLE:;
#ARTIST:shinpei;
#TITLETRANSLIT:;
#SUBTITLETRANSLIT:;
#ARTISTTRANSLIT:;
#CREDIT:DMAxel;
#BANNER:SUMMER TIME.png;
#BACKGROUND:SUMMER TIME-bg.png;
#LYRICSPATH:;
#CDTITLE:pop'n music.png;
#MUSIC:SUMMER TIME.mp3;
#OFFSET:-15.500;
#SAMPLESTART:82.700;
#SAMPLELENGTH:12.000;
#SELECTABLE:YES;
#BPMS:0.000=100.000;
#STOPS:;
#BGCHANGES:;

//---------------dance-single - ----------------
#NOTES:
     dance-single:
     :
     Easy:
     2:
     0.188,0.198,0.094,0.215,0.000: // measure 1
1000
0000
0001
0000
,  // measure 2
1000
0000
1001
0000
,  // measure 3
0001
0000
1000
0000
,  // measure 4
0001
0000
1001
0000
,  // measure 5
1001
1000
1000
1000
,  // measure 6
0001
0001
0101
0000
,  // measure 7
1001
0001
0001
0001
,  // measure 8
1000
1000
1010
0000
,  // measure 9
1001
0001
0001
0000
,  // measure 10
1000
0000
0010
0100
,  // measure 11
0001
0001
0001
1000
,  // measure 12
0010
0010
0010
0010
,  // measure 13
2000
3200
0320
0032
,  // measure 14
0000
0000
1003
0001
,  // measure 15
2000
3200
0320
0032
,  // measure 16
0000
0000
1003
0001
,  // measure 17
2000
3020
0230
0302
,  // measure 18
0000
0000
1003
0001
,  // measure 19
2000
3020
0230
0302
,  // measure 20
0000
0000
1003
0001
,  // measure 21
1001
0000
0001
0000
,  // measure 22
0001
0000
1000
0000
,  // measure 23
1000
0000
0010
0000
,  // measure 24
0100
0000
0001
0000
,  // measure 25
0110
0000
1000
0000
,  // measure 26
0010
0000
0100
0000
,  // measure 27
0001
0010
0100
1000
,  // measure 28
0001
0010
0100
1000
,  // measure 29
1001
0001
1000
1000
,  // measure 30
0010
0010
2000
0001
,  // measure 31
3001
0001
1000
1000
,  // measure 32
0100
0100
0020
0000
,  // measure 33
0130
1000
0001
1000
,  // measure 34
0010
0100
0002
0000
,  // measure 35
0013
0100
1000
0010
,  // measure 36
0100
0001
2000
0001
,  // measure 37
3020
1000
0230
0001
,  // measure 38
0320
1030
2002
0000
,  // measure 39
0000
0000
3003
0000
;

//---------------dance-single - ----------------
#NOTES:
     dance-single:
     :
     Challenge:
     9:
     0.647,0.562,0.172,0.009,0.988: // measure 1
1100
0000
0010
0100
0000
0010
0100
0000
0001
0000
0100
0010
0000
0100
0010
1000
,  // measure 2
0100
0000
1000
0001
0000
1000
0001
0000
0010
0100
0010
0100
0010
0100
0010
0000
,  // measure 3
0001
0000
0100
0010
0000
0100
0010
0000
1000
0000
0010
0100
0000
0010
0100
0001
,  // measure 4
0010
0000
0000
0000
0001
0000
1000
0100
0000
0000
1000
0000
0100
0000
0000
0000
1000
0000
0001
0000
1000
0000
0001
0000
1000
0000
0001
0000
1000
0000
0000
0000
,  // measure 5
0101
0000
0010
1000
0000
1000
0010
0000
1000
0000
0100
0010
0000
0010
0100
1000
,  // measure 6
0001
0000
0100
0001
0000
0001
0100
0000
0010
1000
0010
1000
0010
1000
0010
0000
,  // measure 7
1000
0000
0001
0010
0000
0010
0001
0000
0100
0000
0010
1000
0000
1000
0100
0010
,  // measure 8
0100
0000
0000
0000
1000
0000
0001
0100
0000
0000
0001
0000
0100
0000
0000
0000
0001
0000
0100
0000
0001
0000
0100
0000
0001
0000
0100
0000
0001
0000
0100
0000
,  // measure 9
1001
0000
1000
0000
1000
0100
0010
0001
1000
0000
0001
1000
0001
0010
0100
1000
,  // measure 10
0001
0000
1000
0010
1000
0001
0010
0100
1000
0100
0001
0010
0100
1000
0001
0000
,  // measure 11
1000
0000
0001
0000
0001
0010
0100
1000
0001
0000
1000
0001
1000
0100
0010
0001
,  // measure 12
1000
0100
0001
0100
1000
0001
0010
0100
1000
0000
1010
0000
0001
0100
0001
1000
,  // measure 13
0100
1000
0100
1000
0100
0001
0100
0001
0100
1000
0100
1000
0100
0001
0100
0001
,  // measure 14
0100
0001
0100
0001
0100
0001
0100
0001
0100
0000
1010
0000
0010
1000
0001
0000
,  // measure 15
0010
0001
0010
0001
0010
1000
0010
1000
0010
0001
0010
0001
0010
1000
0010
1000
,  // measure 16
0010
1000
0010
1000
0010
1000
0010
1000
0010
0000
0101
0000
0100
0001
1000
0000
,  // measure 17
0010
1000
0010
1000
0010
0001
0010
0001
0010
1000
0010
1000
0010
0001
0010
0001
,  // measure 18
0010
0001
0010
0001
0010
0001
0010
0001
0010
0000
1100
0000
1000
0001
0100
0000
,  // measure 19
0001
0100
0001
0100
1000
0100
1000
0100
0001
0100
0001
0100
1000
0100
1000
0100
,  // measure 20
1000
0100
1000
0100
1000
0100
1000
0100
1100
0000
0101
0000
0100
0001
1000
0000
,  // measure 21
1100
0000
0010
0001
0000
0010
0001
0000
0011
0000
0100
1000
0000
0100
1000
0000
,  // measure 22
1010
0000
0100
0001
0000
0100
0001
0000
0101
0000
0010
1000
0010
1000
0010
0000
,  // measure 23
1000
0100
0010
0001
1000
0010
1000
0010
0000
0100
0001
0100
0001
0010
0100
1000
,  // measure 24
0001
0000
0000
0000
0100
0000
0001
0000
0010
0000
0100
0000
1000
0001
1000
0001
1000
0000
0000
0000
0001
1000
0001
1000
0001
0000
0000
0000
1000
0001
1000
0001
,  // measure 25
0000
0000
0101
0000
0010
1000
0000
0100
0000
1000
0000
0001
0100
0001
0100
0001
,  // measure 26
1000
0100
0010
0001
1000
0010
1000
0100
0010
0001
1000
0000
0100
1000
0001
0000
,  // measure 27
0101
0000
0010
1000
0100
0010
0001
1000
1010
0000
0100
0001
0010
0100
1000
0001
,  // measure 28
0101
0000
0000
0000
0010
0000
1000
0000
0100
0000
0010
0000
0001
0000
1000
0000
1010
0000
0000
0010
0000
0000
1000
0000
0001
0000
0000
0000
1000
0000
0001
0000
,  // measure 29
1000
0000
0100
0010
0000
0010
0100
0000
1000
0000
0010
0100
0000
0100
0010
0100
,  // measure 30
0001
0000
0010
0100
0000
0100
0010
0000
0001
1000
0001
1000
0001
1000
0001
0100
,  // measure 31
0001
0000
0010
0100
0000
0100
0010
0000
0001
0000
0100
0010
0000
0010
0100
0010
,  // measure 32
1000
0000
0000
0000
0100
0000
0010
0100
0000
0000
1000
0000
0001
0000
0000
0000
1000
0000
0001
0000
1000
0001
1000
0000
0001
0000
1000
0000
0001
0000
0100
0000
,  // measure 33
0101
0000
0010
1000
0000
1000
0001
0000
0100
0000
0010
1000
0000
1000
0001
0010
,  // measure 34
0001
0000
0100
0001
0000
0001
1000
0000
0010
0100
0010
0100
0010
0100
0010
1000
,  // measure 35
0100
0000
0010
0001
0000
0001
0100
0000
0010
0000
1000
0010
0000
0010
1000
0100
,  // measure 36
1000
0000
0000
0000
0001
0000
0100
0010
0000
0000
0100
0000
0010
0000
0000
0000
1000
0000
0001
0000
1000
0001
1000
0000
0001
0000
1000
0000
0001
0000
1000
0000
,  // measure 37
0100
0000
0001
0000
0100
0001
0100
0000
0001
0000
0100
0000
0001
0000
0100
0000
1000
0000
0100
0000
1000
0100
1000
0000
0100
0000
1000
0000
0100
0000
1000
0000
,  // measure 38
0001
0000
0100
0000
0001
0100
0001
0000
1000
0000
0100
0000
0010
0000
0000
0000
1002
0000
0000
0000
1000
0000
0000
0000
1000
0000
0000
0000
1000
0000
0000
0000
,  // measure 39
1000
1000
1000
1000
1003
0000
0000
0000
;

//---------------dance-single - ----------------
#NOTES:
     dance-single:
     :
     Medium:
     5:
     0.309,0.281,0.146,0.069,0.116: // measure 1
0001
0010
0000
0100
0010
0000
0001
1000
,  // measure 2
0001
0000
0000
1000
0200
0000
0000
0000
,  // measure 3
1300
0100
0000
0010
0100
0000
1000
0001
,  // measure 4
1000
0000
1000
0001
0200
0000
0000
0000
,  // measure 5
0301
0010
0100
0000
1000
0100
0010
0000
,  // measure 6
0001
0010
0100
0000
2000
0000
0000
0000
,  // measure 7
3001
0010
0100
0000
1000
0100
0010
0000
,  // measure 8
0001
0010
0100
0000
2000
0000
0000
0000
,  // measure 9
3001
0000
0000
0100
0000
0000
0001
0000
1000
0000
0000
0100
0000
0000
1000
0000
,  // measure 10
0001
0000
0000
0010
0000
0000
0001
0000
1000
0000
0000
0010
0000
0000
1000
0000
,  // measure 11
0001
0000
0000
1000
0000
0000
0010
0000
0100
0000
0000
0001
0000
0000
0100
0000
,  // measure 12
0010
0100
0000
0000
0001
1000
0000
0000
0010
0100
0000
0000
0001
0000
0001
0000
,  // measure 13
1000
0010
1000
0010
1000
0001
0010
0001
,  // measure 14
0010
0001
0010
0001
0010
0000
0011
0000
,  // measure 15
0001
0010
0001
0010
0001
1000
0010
1000
,  // measure 16
0010
1000
0010
1000
0010
0000
1010
0000
,  // measure 17
0100
0001
0100
0001
0100
0010
0100
0010
,  // measure 18
0100
0010
0100
0010
0100
0000
0110
0000
,  // measure 19
0010
1000
0010
1000
0010
0100
0010
0100
,  // measure 20
0010
0100
0010
0100
0010
0000
0110
0000
,  // measure 21
1001
0000
0000
1000
0000
0000
0010
0000
1000
0000
0000
0001
0000
0000
0010
0000
,  // measure 22
0001
0000
0000
1000
0000
0000
0010
0000
1000
0000
1000
0000
0001
0000
0001
0000
,  // measure 23
1000
0000
0000
0010
0000
0000
1000
0000
0001
0000
0000
0010
0000
0000
0001
0000
,  // measure 24
0010
0000
0000
0001
0000
0000
1000
0000
1000
0000
0001
0000
0001
0000
0001
0000
,  // measure 25
0100
0220
0000
0000
0000
0000
0330
0000
,  // measure 26
0100
0010
0001
1000
0010
0000
0110
0000
,  // measure 27
1100
0000
0001
0100
1100
0000
0001
0100
,  // measure 28
1100
0000
0001
0100
1100
0000
1001
0000
,  // measure 29
0100
0000
0000
0001
0000
0000
1000
0000
0001
0000
0000
0100
0000
0000
0001
0000
,  // measure 30
1000
0000
0000
0100
0000
0000
1000
0000
0001
0000
0100
0000
0001
0000
0100
0000
,  // measure 31
0001
0000
0000
1000
0000
0000
0010
0000
1000
0000
0000
0001
0000
0000
0010
0000
,  // measure 32
0001
0000
0000
1000
0000
0000
0010
0000
1000
0000
0001
0000
1000
0000
0001
0000
,  // measure 33
1000
0000
0000
0100
0000
0000
0010
0000
0100
0000
0000
1000
0000
0000
0001
0000
,  // measure 34
0010
0000
0000
0100
0000
0000
0010
0000
0001
0000
1000
0000
0001
0000
1000
0000
,  // measure 35
0001
0000
0000
0010
0000
0000
0100
0000
0010
0000
0000
0001
0000
0000
1000
0000
,  // measure 36
0100
0000
0000
0010
0000
0000
0100
0000
1100
0000
0000
0000
1000
0000
0100
0000
,  // measure 37
0101
0000
1000
0100
0101
0000
1000
0100
,  // measure 38
0101
0000
1000
0100
0220
0000
0000
0000
,  // measure 39
0000
0000
0330
0000
;

//---------------dance-single - ----------------
#NOTES:
     dance-single:
     :
     Hard:
     8:
     0.535,0.496,0.086,0.026,0.717: // measure 1
0001
0000
0000
0100
0000
0000
0001
0000
0100
0000
0000
0001
0000
1000
0100
1000
,  // measure 2
0100
0000
0000
1000
0000
0000
0100
0000
1000
0000
0100
0000
0010
0000
0001
0000
,  // measure 3
1000
0000
0000
0010
0000
0000
1000
0000
0010
0000
0000
1000
0000
0001
0010
0001
,  // measure 4
0010
0000
0000
0001
0000
0000
0010
0000
0001
0000
0010
0000
0100
0000
1000
0000
,  // measure 5
0001
0000
0100
0001
0000
0000
0100
0000
0001
0000
1000
0100
0000
1000
0100
1000
,  // measure 6
0100
0000
1000
0010
0000
0000
1000
0000
0001
0000
0010
0000
0100
0000
1000
0000
,  // measure 7
1000
0000
0010
1000
0000
0000
0010
0000
1000
0000
0001
0010
0000
0001
0010
0001
,  // measure 8
0010
0000
0001
0100
0000
0000
0001
0000
1000
0000
0100
0000
0010
0000
0001
0000
,  // measure 9
1000
0000
1000
0000
0010
0100
0010
0100
0010
0000
1000
0000
0010
0000
1000
0010
,  // measure 10
1000
0000
0001
0010
0001
0010
0001
0000
0010
0000
0100
0000
1000
0100
0010
0000
,  // measure 11
0001
0000
0001
0000
0100
0010
0100
0010
0100
0000
0001
0000
0100
0000
0001
0100
,  // measure 12
0001
1001
0000
0000
1000
1001
0000
0000
0001
1001
0000
0000
1000
0000
0001
0010
,  // measure 13
0100
0000
1000
0100
0010
0001
0100
0001
0100
0000
0001
0010
0100
1000
0010
1000
,  // measure 14
0010
0000
1000
0100
0010
0001
0100
0001
0100
0000
0001
0000
1000
0100
1000
0000
,  // measure 15
0001
0000
1000
0100
0010
0000
0100
0001
0100
0000
0001
0010
0100
1000
0010
1000
,  // measure 16
0010
0000
1000
0100
0010
0000
0001
0100
0001
0000
1000
0100
0010
0001
0100
0000
,  // measure 17
0001
0000
1000
0100
0010
0000
0001
0100
0001
0000
0010
0100
1000
0010
1000
0010
,  // measure 18
1000
0000
0100
0010
0001
0000
0100
0001
0100
0000
0001
0000
1000
0100
1000
0000
,  // measure 19
0001
0000
0010
0100
1000
0000
0010
1000
0010
0000
1000
0100
0010
0001
0100
0001
,  // measure 20
0100
0000
0001
0010
0100
0000
1000
0010
1000
0001
0010
0100
1000
0001
1000
0000
,  // measure 21
0001
0000
0010
0001
0000
0100
0010
0000
0100
0001
0000
1000
0100
1000
0100
1000
,  // measure 22
0100
0010
0000
0001
0100
0010
0000
0100
0001
0100
0001
0100
0001
0010
0100
0000
,  // measure 23
1000
0001
0010
0100
1000
0001
0100
0001
1000
0100
0000
1000
0100
0010
0100
0010
,  // measure 24
0001
0100
0001
0100
0001
0010
0100
1000
0001
0000
0010
0100
1000
0000
0100
0010
,  // measure 25
0001
0000
0110
0000
0001
1000
0000
0100
0000
1000
0000
0010
0000
0100
0000
0001
,  // measure 26
0010
0001
0010
0100
1000
0001
0100
0001
0100
0001
1000
0100
0010
0000
0010
0000
,  // measure 27
0101
0000
1000
0100
0010
0001
1000
0000
0101
0000
1000
0100
0010
0001
1000
0000
,  // measure 28
0101
0000
0000
0000
1000
0000
0100
0000
0010
0000
0001
0000
1000
0000
0000
0000
0101
0000
0000
0001
0000
0000
1000
0000
0002
0000
0000
0000
0000
0000
0000
0000
,  // measure 29
0013
0000
0100
1000
0000
0000
0010
0000
1000
0000
0100
0010
0000
0100
0010
0100
,  // measure 30
0010
0000
0001
0010
0000
0000
0100
0000
0010
0100
0010
0100
0010
0100
0010
0000
,  // measure 31
1000
0000
0100
0010
0000
0000
0001
0000
0100
0000
0010
0100
0000
0010
0100
0010
,  // measure 32
0100
0000
1000
0010
0000
0000
0100
0000
0001
1000
0001
1000
0001
1000
0001
0000
,  // measure 33
0101
0000
0010
1000
0000
0010
1000
0000
0001
0000
0010
0001
0000
0010
0001
0010
,  // measure 34
0001
0000
1000
0010
0000
1000
0010
0000
0100
0010
0100
0010
0100
0010
0100
0010
,  // measure 35
0100
0000
0001
0100
0000
0001
0100
0000
0010
0000
1000
0100
0000
1000
0100
1000
,  // measure 36
0100
0000
1000
0010
0000
1000
0010
0000
0100
0001
0100
0001
0100
0001
0100
0001
,  // measure 37
1000
0100
1000
0100
1000
0100
1000
0100
0010
0100
0010
0100
0010
0100
0010
0100
,  // measure 38
1000
0001
1000
0001
1000
0001
1000
0001
2002
0000
0000
0000
0000
0000
0000
0000
,  // measure 39
0000
0000
3003
0000
;

//---------------dance-single - ----------------
#NOTES:
     dance-single:
     :
     Beginner:
     1:
     0.091,0.113,0.120,0.000,0.000: // measure 1
0001
0000
0000
0000
,  // measure 2
0001
0000
0000
0000
,  // measure 3
1000
0000
0000
0000
,  // measure 4
1000
0000
0000
0000
,  // measure 5
1001
0000
0001
0000
,  // measure 6
1000
0000
0001
0000
,  // measure 7
1000
0000
0001
0000
,  // measure 8
1000
0000
0001
0000
,  // measure 9
1001
0000
0000
0000
,  // measure 10
0010
0000
0000
0000
,  // measure 11
0100
0000
0000
0000
,  // measure 12
0010
0000
0000
0000
,  // measure 13
0110
0000
0000
0000
,  // measure 14
0000
0000
1000
0000
,  // measure 15
0110
0000
0000
0000
,  // measure 16
0000
0000
0001
0000
,  // measure 17
0110
0000
0000
0000
,  // measure 18
0000
0000
1001
0000
,  // measure 19
1000
0000
0001
0000
,  // measure 20
1000
0000
1001
0000
,  // measure 21
0001
0000
1000
0000
,  // measure 22
0001
0000
1000
0000
,  // measure 23
0001
0000
0010
0000
,  // measure 24
0100
0000
1000
0000
,  // measure 25
1001
0000
0000
0000
,  // measure 26
1000
0000
0001
0000
,  // measure 27
1000
0000
1000
0000
,  // measure 28
0001
0000
0001
0000
,  // measure 29
1001
0000
0000
0000
,  // measure 30
1000
0000
0001
0000
,  // measure 31
1000
0000
0100
0000
,  // measure 32
0010
0000
0001
0000
,  // measure 33
1001
0000
0001
0000
,  // measure 34
1000
0000
0001
0000
,  // measure 35
1000
0000
0100
0000
,  // measure 36
0010
0000
1001
0000
,  // measure 37
1001
0000
1001
0000
,  // measure 38
1001
0000
1000
0000
;
