#TITLE:隅田川夏恋歌;
#SUBTITLE:;
#ARTIST:seiya-murai feat. ALT;
#TITLETRANSLIT:SUMIDAGAWA NATSU RENKA;
#SUBTITLETRANSLIT:;
#ARTISTTRANSLIT:;
#CREDIT:DMAxel;
#BANNER:SUMIDAGAWA NATSU RENKA.png;
#BACKGROUND:SUMIDAGAWA NATSU RENKA-bg.png;
#LYRICSPATH:SUMIDAGAWA NATSU RENKA.lrc;
#CDTITLE:jubeat.png;
#MUSIC:SUMIDAGAWA NATSU RENKA.mp3;
#OFFSET:-0.500;
#SAMPLESTART:45.473;
#SAMPLELENGTH:12.000;
#SELECTABLE:YES;
#BPMS:0.000=180.000;
#STOPS:;
#BGCHANGES:;

//---------------dance-single - ----------------
#NOTES:
     dance-single:
     :
     Easy:
     4:
     0.337,0.473,0.249,0.178,0.000: // measure 1
0000
0000
0000
0000
,  // measure 2
0000
0000
0000
0000
,  // measure 3
1000
0000
1000
0000
,  // measure 4
0001
0000
0000
0000
,  // measure 5
0001
0000
0001
0000
,  // measure 6
1000
0000
0000
0000
,  // measure 7
0010
0000
0010
0000
,  // measure 8
0100
0000
0000
0000
,  // measure 9
0100
0000
0100
0000
,  // measure 10
0010
0000
0000
0000
,  // measure 11
0120
0000
1000
0000
,  // measure 12
1030
0000
0001
0000
,  // measure 13
1000
0000
0002
0000
,  // measure 14
1000
0000
1003
0000
,  // measure 15
0210
0000
0001
0000
,  // measure 16
0301
0000
1000
0000
,  // measure 17
0001
1000
0001
0000
,  // measure 18
0100
0010
0100
0000
,  // measure 19
1001
0000
0001
0000
,  // measure 20
0100
0000
0000
0000
,  // measure 21
0010
0000
1000
0000
,  // measure 22
1000
0000
0000
0000
,  // measure 23
1000
0000
1000
0000
,  // measure 24
0010
0000
0000
0000
,  // measure 25
0100
0000
0001
0000
,  // measure 26
0001
0000
0000
0000
,  // measure 27
0100
0010
0100
0000
,  // measure 28
0010
0100
0010
0000
,  // measure 29
1000
0001
1000
0000
,  // measure 30
0001
1000
0001
0010
,  // measure 31
0100
0010
0100
0000
,  // measure 32
1000
0001
1000
0000
,  // measure 33
1001
0000
1000
0000
,  // measure 34
1000
0010
1000
1001
,  // measure 35
0001
0100
0001
0010
,  // measure 36
0100
1000
0001
0000
,  // measure 37
2000
0000
3200
0000
,  // measure 38
2300
0000
3001
0000
,  // measure 39
1000
0010
1000
0100
,  // measure 40
0010
0001
1000
0000
,  // measure 41
1001
0000
0110
0000
,  // measure 42
1001
0000
0000
1001
,  // measure 43
1000
0010
1000
0100
,  // measure 44
0010
0001
1000
0000
,  // measure 45
0002
0000
0023
0000
,  // measure 46
0032
0000
1003
0000
,  // measure 47
0001
0100
0001
0010
,  // measure 48
0100
1000
0001
0000
,  // measure 49
1001
0000
0110
0000
,  // measure 50
1001
0000
0010
0100
,  // measure 51
2000
0001
0001
0001
,  // measure 52
3001
0010
0100
1000
,  // measure 53
0002
1000
1000
1000
,  // measure 54
1003
0100
0010
0001
,  // measure 55
2000
0001
0001
0001
,  // measure 56
3001
0010
0100
1000
,  // measure 57
0001
0010
0001
1000
,  // measure 58
0110
0110
0110
1001
,  // measure 59
0001
0010
0001
1000
,  // measure 60
0100
0010
0001
1000
,  // measure 61
0020
0000
0230
0000
,  // measure 62
0320
0000
1030
0001
,  // measure 63
1000
0100
1000
0001
,  // measure 64
0010
0100
1000
0001
,  // measure 65
1001
0000
0110
0000
,  // measure 66
1001
0000
0000
1001
,  // measure 67
1000
0100
1000
0001
,  // measure 68
0010
0100
1000
0001
,  // measure 69
0200
0000
0320
0000
,  // measure 70
0230
0000
0301
1000
,  // measure 71
0001
0010
0001
1000
,  // measure 72
0100
0010
0001
1000
,  // measure 73
1001
0000
0110
0000
,  // measure 74
1001
0000
0010
0100
,  // measure 75
1001
0000
0110
0000
,  // measure 76
1001
0000
0100
0010
,  // measure 77
1001
0010
0001
0010
,  // measure 78
0001
0100
1000
0001
,  // measure 79
1000
0100
1000
0100
,  // measure 80
1000
0010
0001
1000
,  // measure 81
0220
0000
0000
0000
,  // measure 82
0000
0000
0000
0330
;

//---------------dance-single - ----------------
#NOTES:
     dance-single:
     :
     Medium:
     7:
     0.572,0.619,0.285,0.205,0.000: // measure 1
0000
0000
0000
0000
,  // measure 2
0000
0000
0000
0000
,  // measure 3
0020
0000
0130
1000
,  // measure 4
0020
0000
0130
0001
,  // measure 5
0200
0000
0310
0001
,  // measure 6
0200
0000
0000
0000
0310
0000
1000
1000
,  // measure 7
0002
0000
0000
1000
1003
0000
0010
0000
,  // measure 8
1000
0000
0001
0010
0000
0000
0001
0001
,  // measure 9
2000
0000
0000
0001
3001
0000
0100
0000
,  // measure 10
0001
0000
1000
0100
1000
0000
0001
0001
,  // measure 11
0100
0000
0001
0100
0000
0000
0001
0000
,  // measure 12
1000
0000
0001
0010
0001
0000
1000
0000
,  // measure 13
0001
0000
1000
0010
0000
0000
1000
0000
,  // measure 14
0001
0000
1000
0100
1000
0000
0001
0001
,  // measure 15
0100
0000
0010
0100
0000
0000
0001
0100
,  // measure 16
0001
0000
0100
0010
0000
0000
1000
0010
,  // measure 17
1000
1001
0001
1001
,  // measure 18
1000
0100
0010
0001
0100
0000
0000
0000
,  // measure 19
1001
0000
0010
1000
0000
0000
0001
0000
,  // measure 20
1000
0000
0001
0010
0001
0000
1000
0000
,  // measure 21
0001
0000
0100
0001
2000
0000
3010
1000
,  // measure 22
0002
0000
0103
0001
2000
0000
3010
1000
,  // measure 23
0001
0000
0100
0001
0000
0000
1000
0000
,  // measure 24
0001
0000
1000
0100
1000
0000
0001
0000
,  // measure 25
0200
0000
0000
0001
0301
0000
0100
0001
,  // measure 26
1000
0000
1000
0000
1001
0000
0001
0001
,  // measure 27
1000
0100
1000
0000
0010
0100
0010
0000
,  // measure 28
1000
0100
1000
0000
0001
0100
0010
1000
,  // measure 29
0001
0010
0001
0000
0100
0010
0100
0000
,  // measure 30
0001
0010
0001
0000
1000
0010
0100
0001
,  // measure 31
1000
0100
1000
0000
0010
0100
0010
0000
,  // measure 32
1000
0100
1000
0000
0001
0100
0010
1000
,  // measure 33
0001
1001
1000
1001
,  // measure 34
0001
0010
0100
1000
0010
0000
1001
0000
,  // measure 35
1001
0000
1000
0001
0010
0001
0010
0000
,  // measure 36
0001
0000
0010
0000
1000
0000
0100
0010
,  // measure 37
0002
0000
1000
0000
1003
0000
0010
0100
,  // measure 38
2000
0000
0000
0001
3001
0000
1000
0000
,  // measure 39
1001
0000
0010
1000
0100
1000
0100
0000
,  // measure 40
1000
0000
0100
0000
0001
0000
0010
0100
,  // measure 41
1000
0000
0010
0100
0010
0000
1000
0100
,  // measure 42
0002
0000
0000
1000
1003
0000
1001
0000
,  // measure 43
1001
0000
0010
1000
0100
1000
0100
0000
,  // measure 44
1000
0000
0100
0000
0001
0000
0010
0100
,  // measure 45
2000
0000
0001
0000
3001
0000
0100
0010
,  // measure 46
0002
0000
0000
1000
1003
0000
0001
0000
,  // measure 47
1001
0000
0100
0001
0010
0001
0010
0000
,  // measure 48
0001
0000
0010
0000
1000
0000
0100
0010
,  // measure 49
0001
0000
0100
0010
0100
0000
0001
0100
,  // measure 50
2000
0000
0001
3001
,  // measure 51
0110
0100
0100
0100
,  // measure 52
0100
0001
1000
0000
0100
1000
0010
0000
,  // measure 53
0110
0010
0010
0010
,  // measure 54
0010
1000
0001
0000
0010
0001
0100
0000
,  // measure 55
0110
0100
0100
0100
,  // measure 56
0100
0001
1000
0000
0100
1000
0010
0000
,  // measure 57
0100
0010
0100
0010
0100
0010
0100
0000
,  // measure 58
0110
0110
0110
1001
,  // measure 59
1001
0000
0001
1000
0010
1000
0010
0000
,  // measure 60
1000
0000
0010
0000
0001
0000
0010
0100
,  // measure 61
2000
0000
0001
0000
3001
0000
0100
0010
,  // measure 62
0002
0000
0000
1000
1003
0000
1000
0000
,  // measure 63
1001
0000
1000
0001
0100
0001
0100
0000
,  // measure 64
0001
0000
0010
0000
1000
0000
0100
0010
,  // measure 65
0001
0000
0100
0010
0100
0000
0001
0010
,  // measure 66
2000
0000
0000
0001
3001
0000
1001
0000
,  // measure 67
1001
0000
1000
0001
0100
0001
0100
0000
,  // measure 68
0001
0000
0010
0000
1000
0000
0100
0010
,  // measure 69
0002
0000
1000
0000
1003
0000
0010
0100
,  // measure 70
2000
0000
0000
0001
3001
0000
1000
0000
,  // measure 71
1001
0000
0001
1000
0010
1000
0010
0000
,  // measure 72
1000
0000
0100
0000
0001
0000
0010
0100
,  // measure 73
1000
0000
0010
0100
0010
0000
1000
0100
,  // measure 74
0001
0000
0000
0100
0010
1000
0001
0000
,  // measure 75
1001
0000
0010
0100
1000
0000
0010
0100
,  // measure 76
0010
0000
1000
0100
0001
0100
1000
0000
,  // measure 77
1001
1000
1010
0001
,  // measure 78
0101
0000
0010
1000
0001
0000
1001
0000
,  // measure 79
1001
0001
0101
1000
,  // measure 80
0001
0001
1000
0000
0000
0001
1000
0000
,  // measure 81
0220
0000
0000
0000
,  // measure 82
0000
0000
0000
0330
;

//---------------dance-single - ----------------
#NOTES:
     dance-single:
     :
     Hard:
     8:
     0.665,0.655,0.472,0.142,0.000: // measure 1
0000
0000
0000
0000
,  // measure 2
0000
0000
0000
0000
,  // measure 3
0001
0000
0000
1000
0100
0000
1000
0001
,  // measure 4
0010
0000
0001
0100
0000
0001
1000
0001
,  // measure 5
1000
0000
0000
0001
0010
0000
0001
1000
,  // measure 6
0100
1000
0010
0000
1000
0000
0001
1000
,  // measure 7
0001
0000
0000
1000
0010
0000
1000
0001
,  // measure 8
0010
0000
0001
0010
0000
0001
1000
0001
,  // measure 9
1000
0000
0000
0001
0100
0000
0001
1000
,  // measure 10
0100
0000
1000
0100
1000
0000
0001
1000
,  // measure 11
0001
0000
0100
0001
0000
0001
1000
0000
,  // measure 12
0010
0000
0010
1000
0000
1000
0001
0000
,  // measure 13
0100
0000
0100
0001
0000
0001
1000
0000
,  // measure 14
0010
0000
0010
1000
0000
1000
0001
1000
,  // measure 15
0010
0000
1000
0001
0000
0001
0010
0000
,  // measure 16
0100
0000
0100
1000
0000
1000
0001
0000
,  // measure 17
0101
1001
0101
1001
,  // measure 18
1000
0100
0010
0001
0100
0000
0000
0000
,  // measure 19
1001
0000
0000
0001
0100
0000
0001
0010
,  // measure 20
0001
1000
0100
1000
0000
0010
1000
0001
,  // measure 21
0001
0000
0000
0100
0002
0000
0000
1000
,  // measure 22
1003
0100
0010
0001
2000
0000
0001
0000
,  // measure 23
3001
0000
0000
1000
0010
0000
1000
0100
,  // measure 24
1000
0001
0010
0001
0000
0100
0001
1000
,  // measure 25
2000
0000
0000
0001
3002
0000
0000
1000
,  // measure 26
1003
0100
0010
0001
0100
0000
0001
0001
,  // measure 27
2000
0000
0010
0000
0010
0000
3010
0100
,  // measure 28
0002
0000
0100
0000
0100
0000
0103
0010
,  // measure 29
2000
0000
0010
0000
0010
0000
3010
0100
,  // measure 30
0002
0000
0100
0000
0103
0010
0100
0001
,  // measure 31
2000
0000
0100
0000
0100
0000
3100
0010
,  // measure 32
0002
0010
0010
0013
,  // measure 33
1010
1001
1010
1001
,  // measure 34
0001
0010
0100
1000
0010
0000
1001
0000
,  // measure 35
1000
0010
1000
0010
1000
0100
0010
0100
,  // measure 36
1000
0001
0010
0100
1000
0000
0010
1000
,  // measure 37
0001
0000
0010
0001
1000
0000
0010
0100
,  // measure 38
2000
0000
0000
0001
3001
0000
1000
0000
,  // measure 39
0001
0100
0001
0100
0001
0010
0100
0010
,  // measure 40
0001
1000
0100
0010
0001
1000
0100
0001
,  // measure 41
1001
0011
1001
1100
,  // measure 42
1002
0000
0000
1000
1003
0000
1001
0000
,  // measure 43
0001
0100
0001
0100
0001
0010
0100
0010
,  // measure 44
0001
1000
0100
0010
0001
0000
0100
0001
,  // measure 45
1000
0000
0100
1000
0001
0000
0010
0100
,  // measure 46
2000
0000
0000
0001
3001
0000
0001
0000
,  // measure 47
1000
0010
1000
0010
1000
0100
0010
0100
,  // measure 48
1000
0001
0010
0100
1000
0001
0010
1000
,  // measure 49
1001
1100
1001
0011
,  // measure 50
1001
0000
0001
1000
0010
0010
0010
0000
,  // measure 51
1001
0100
0001
0010
,  // measure 52
0100
0010
0001
1000
0100
1000
0010
0000
,  // measure 53
1001
0010
1000
0100
,  // measure 54
0010
0100
1000
0001
0010
0001
0100
0000
,  // measure 55
1001
0010
0001
0100
,  // measure 56
0010
0100
0001
1000
0100
1000
0010
1000
,  // measure 57
0001
0010
0001
0010
1000
0010
1000
0010
,  // measure 58
0001
0010
0100
1000
0010
0000
1001
0000
,  // measure 59
1000
0100
1000
0100
1000
0001
0010
0001
,  // measure 60
1000
0001
0010
0100
1000
0000
0010
1000
,  // measure 61
0001
0000
0010
0001
1000
0000
0100
0010
,  // measure 62
0002
0000
0000
1000
1003
0000
1000
0000
,  // measure 63
0001
0010
0001
0010
0001
1000
0100
1000
,  // measure 64
0001
0010
0100
1000
0001
0010
1000
0001
,  // measure 65
1001
1100
1001
0011
,  // measure 66
1002
0000
0000
1000
1003
0000
1001
0000
,  // measure 67
0001
0010
0001
0010
0001
1000
0100
1000
,  // measure 68
0001
1000
0100
0010
0001
0000
0100
0010
,  // measure 69
1000
0000
0100
1000
0001
0000
0010
0100
,  // measure 70
2000
0000
0000
0001
3001
0000
1000
0000
,  // measure 71
0001
0010
0001
0010
0001
1000
0100
1000
,  // measure 72
0001
0010
0100
1000
0001
0010
1000
0001
,  // measure 73
1001
1100
1001
1100
,  // measure 74
1001
1100
0110
0011
,  // measure 75
1001
0011
1001
0011
,  // measure 76
1001
0011
0110
1100
,  // measure 77
1001
1000
0110
0001
,  // measure 78
1000
0100
0010
0001
1000
0001
0011
0000
,  // measure 79
1001
0001
0110
1000
,  // measure 80
0001
0010
0100
1000
0001
0001
1000
0010
,  // measure 81
0110
0001
0010
1000
,  // measure 82
0001
1000
0100
0010
;

//---------------dance-single - ----------------
#NOTES:
     dance-single:
     :
     Challenge:
     9:
     0.766,0.691,0.338,0.089,0.147: // measure 1
0000
0000
0000
0000
,  // measure 2
0000
0000
0000
0000
,  // measure 3
0100
0000
0000
0000
0000
0000
0100
0010
0100
0000
0000
0000
0001
0000
1000
0000
,  // measure 4
0010
1000
0010
2000
0000
0001
3001
0000
,  // measure 5
0010
0000
0000
0000
0000
0000
0010
0100
0010
0000
0000
0000
1000
0000
0001
0000
,  // measure 6
0100
0001
1000
0100
0010
0000
0001
0001
,  // measure 7
0100
0000
0000
0000
0000
0000
0100
0010
0100
0000
0000
0000
0001
0000
1000
0000
,  // measure 8
0100
1000
0100
1000
0000
0001
1000
1000
,  // measure 9
0010
0000
0000
0000
0000
0000
0010
0100
0010
0000
0000
0000
1000
0000
0001
0010
,  // measure 10
0001
0100
0010
0100
0001
0000
1000
1000
,  // measure 11
0001
0000
1000
0100
0000
0010
0100
1000
,  // measure 12
0001
0010
0001
0010
1000
0100
0010
0001
,  // measure 13
1000
0000
0000
0000
0000
0000
0010
1000
0020
0000
0000
0000
0000
0000
0000
0000
,  // measure 14
1030
0000
1000
0010
0000
0010
1000
0001
,  // measure 15
0010
0000
0001
0010
0000
0100
0010
0001
,  // measure 16
1000
0100
1000
0100
0001
0010
0100
1000
,  // measure 17
0001
0010
0001
1000
0100
1000
0001
0010
,  // measure 18
1000
0010
0001
1000
0100
0000
0000
0000
,  // measure 19
1001
0000
0000
0000
0000
0000
1000
0001
1000
0000
0000
0000
0001
0000
0010
0000
,  // measure 20
0001
1000
0100
1000
0000
0100
0010
0001
,  // measure 21
1000
0000
0000
0000
0000
0000
0001
1000
0002
0000
0000
0000
0000
0000
1003
0001
,  // measure 22
1000
0100
0010
0001
1000
0000
0001
0001
,  // measure 23
0100
0000
0000
0000
0000
0000
0010
0100
0020
0000
0000
0000
0000
0000
1000
0000
,  // measure 24
1030
0001
0010
0001
0000
0010
0100
1000
,  // measure 25
0010
0000
0000
0000
0000
0000
0100
0010
0200
0000
0000
0000
0000
0000
0001
0000
,  // measure 26
0301
0001
1000
0100
0010
0000
0100
1000
,  // measure 27
0001
0000
0010
0000
0001
0000
0010
0000
0001
0000
0010
0000
0001
0000
1000
0010
,  // measure 28
1000
0000
0100
0000
1000
0000
0100
0000
1000
0000
0100
0000
1000
0000
0001
0100
,  // measure 29
0001
0010
0001
0010
0001
0010
0001
0010
,  // measure 30
0001
0010
0001
1000
0010
0100
0010
1000
,  // measure 31
0001
0000
0100
0000
0001
0000
0100
0000
0001
0000
0100
0000
0001
0000
1000
0100
,  // measure 32
1000
0000
0010
0000
1000
0000
0010
0000
1000
0000
0010
0000
1000
0000
0001
0010
,  // measure 33
0001
0100
0001
1000
0100
1000
0001
0010
,  // measure 34
0001
1000
0100
0001
0101
0000
1001
0000
,  // measure 35
1000
0100
1000
0001
0010
0100
0010
0001
,  // measure 36
1000
0100
0001
0100
1000
0001
0100
0001
,  // measure 37
1000
0000
0100
1000
0001
0000
0010
0100
,  // measure 38
2000
0000
0000
0000
0000
0000
3001
1000
0001
0000
1000
0000
1000
0000
0100
0000
,  // measure 39
0001
0010
0001
1000
0100
0010
0100
1000
,  // measure 40
0001
0000
0010
0000
0100
0000
0010
0000
0001
0000
1000
0100
1000
0000
0001
0000
,  // measure 41
1001
0000
0001
1000
1001
0000
0010
1000
,  // measure 42
0002
0000
0000
0000
0000
0000
1003
0001
1000
0000
0000
0000
1001
0000
0000
0000
,  // measure 43
1000
0100
1000
0001
0010
0100
0010
0001
,  // measure 44
1000
0000
0100
0000
0001
0000
0100
0000
1000
0000
0001
0010
0001
0000
1000
0000
,  // measure 45
0010
0000
0100
0001
1000
0000
0100
0010
,  // measure 46
0002
0000
0000
0000
0000
0000
1003
0001
1000
0000
0001
0000
0001
0000
1000
0000
,  // measure 47
0001
0010
0001
1000
0100
0010
0100
1000
,  // measure 48
0001
0010
0100
0010
0001
1000
0100
0001
,  // measure 49
1001
0000
0001
1000
1001
0000
1000
0001
,  // measure 50
1001
0000
0000
0000
1000
0000
0010
0100
0010
0000
1000
0000
0001
0000
0100
0000
,  // measure 51
0110
0101
0110
1010
,  // measure 52
0010
0100
1000
0001
0010
0001
1000
0010
,  // measure 53
0110
1010
0110
0101
,  // measure 54
0100
0000
0010
0000
0001
0000
1000
0000
0010
0100
0000
0000
0010
0100
0000
0000
,  // measure 55
1001
1010
1001
0101
,  // measure 56
0100
0010
1000
0001
0010
0001
0100
0001
,  // measure 57
1000
1000
0100
0010
0001
0001
0010
0100
,  // measure 58
1000
0001
0010
0001
0101
0000
1001
0000
,  // measure 59
0001
0010
0001
1000
0100
0010
0100
1000
,  // measure 60
0001
0000
0010
0000
1000
0000
0010
0000
0001
0000
1000
0100
1000
0000
0001
0000
,  // measure 61
0010
0000
0100
1000
0001
0000
0010
0100
,  // measure 62
2000
0000
0000
0000
0000
0000
3001
1000
0001
0000
1000
0000
1000
0000
0010
0000
,  // measure 63
1000
0100
1000
0001
0010
0100
0010
0001
,  // measure 64
1000
0100
0010
0100
1000
0001
0010
1000
,  // measure 65
1001
0000
1000
0001
1001
0000
0001
1000
,  // measure 66
1001
1100
0011
1001
,  // measure 67
1000
0010
1000
0001
0010
0100
0010
0001
,  // measure 68
1000
0000
0100
0000
0001
0000
0100
0000
1000
0000
0001
0010
0001
0000
1000
0000
,  // measure 69
0010
0000
0100
0001
1000
0000
0100
0010
,  // measure 70
0002
0000
0000
0000
0000
0000
1003
0001
1000
0000
0001
0000
0001
0000
1000
0000
,  // measure 71
0001
1000
0100
0010
0100
1000
0001
0010
,  // measure 72
1000
0000
0010
0000
0001
0000
1000
0000
0001
0000
1000
0100
1000
0000
0001
0000
,  // measure 73
1000
0100
1000
0001
0100
0001
1000
0100
,  // measure 74
1000
0000
0001
0000
0100
0000
0010
0100
0010
0000
1000
0000
0100
0000
0010
0000
,  // measure 75
0001
0010
0001
1000
0010
1000
0001
0010
,  // measure 76
0001
1000
0000
0000
0001
1000
0000
0000
0010
0000
0100
0000
0001
0000
1000
0000
,  // measure 77
1010
0011
1010
0011
,  // measure 78
0010
0000
0100
0000
1000
0000
0001
0000
0001
0000
0100
0000
0010
0100
0000
0000
,  // measure 79
0101
1100
0101
1100
,  // measure 80
0100
0000
0010
0000
0001
0000
0000
0100
0010
0000
0100
0000
0001
0000
1000
0000
,  // measure 81
1100
0010
0001
0010
,  // measure 82
1000
0100
0001
1000
;

//---------------dance-single - ----------------
#NOTES:
     dance-single:
     :
     Beginner:
     2:
     0.121,0.249,0.125,0.000,0.000: // measure 1
0000
0000
0000
0000
,  // measure 2
0000
0000
0000
0000
,  // measure 3
0010
0000
0000
0000
,  // measure 4
0000
0000
0000
0000
,  // measure 5
0010
0000
0000
0000
,  // measure 6
0000
0000
0000
0000
,  // measure 7
0010
0000
0000
0000
,  // measure 8
0000
0000
0000
0000
,  // measure 9
0010
0000
0000
0000
,  // measure 10
0000
0000
0000
0000
,  // measure 11
1000
0000
0000
0000
,  // measure 12
0000
0000
0000
0000
,  // measure 13
0001
0000
0000
0000
,  // measure 14
0000
0000
0000
0000
,  // measure 15
1000
0000
0000
0000
,  // measure 16
0000
0000
0000
0000
,  // measure 17
0100
0000
0000
0000
,  // measure 18
0100
0000
0000
0000
,  // measure 19
1001
0000
0000
0000
,  // measure 20
0000
0000
0000
0000
,  // measure 21
1000
0000
0000
0000
,  // measure 22
0000
0000
0000
0000
,  // measure 23
0001
0000
0000
0000
,  // measure 24
0000
0000
0000
0000
,  // measure 25
1000
0000
0000
0000
,  // measure 26
0000
0000
0000
0000
,  // measure 27
0100
0000
0000
0000
,  // measure 28
0000
0000
0000
0000
,  // measure 29
0100
0000
0000
0000
,  // measure 30
0000
0000
0000
0000
,  // measure 31
0100
0000
0000
0000
,  // measure 32
0000
0000
0000
0000
,  // measure 33
0100
0000
0000
0000
,  // measure 34
1001
0000
0000
0000
,  // measure 35
1000
0000
1000
0000
,  // measure 36
1000
0000
0000
0000
,  // measure 37
0001
0000
0001
0000
,  // measure 38
0001
0000
0000
0000
,  // measure 39
1000
0000
1000
0000
,  // measure 40
1000
0000
0000
0000
,  // measure 41
1001
0000
0001
0000
,  // measure 42
1001
0000
0000
0000
,  // measure 43
0001
0000
0001
0000
,  // measure 44
0001
0000
0000
0000
,  // measure 45
1000
0000
1000
0000
,  // measure 46
1000
0000
0000
0000
,  // measure 47
0001
0000
0001
0000
,  // measure 48
0001
0000
0000
0000
,  // measure 49
1001
0000
1000
0000
,  // measure 50
1001
0000
0000
0000
,  // measure 51
0010
0000
0000
0000
,  // measure 52
0000
0000
0000
0000
,  // measure 53
0010
0000
0000
0000
,  // measure 54
0000
0000
0000
0000
,  // measure 55
0100
0000
0000
0000
,  // measure 56
0000
0000
0000
0000
,  // measure 57
0100
0000
0000
0000
,  // measure 58
0110
0000
0000
0000
,  // measure 59
0001
0000
0001
0000
,  // measure 60
0001
0000
0000
0000
,  // measure 61
1000
0000
1000
0000
,  // measure 62
1000
0000
0000
0000
,  // measure 63
0001
0000
0001
0000
,  // measure 64
0001
0000
0000
0000
,  // measure 65
1001
0000
1000
0000
,  // measure 66
1001
0000
0000
0000
,  // measure 67
1000
0000
1000
0000
,  // measure 68
1000
0000
0000
0000
,  // measure 69
0001
0000
0001
0000
,  // measure 70
0001
0000
0000
0000
,  // measure 71
1000
0000
1000
0000
,  // measure 72
1000
0000
0000
0000
,  // measure 73
1001
0000
0001
0000
,  // measure 74
1001
0000
0000
0000
,  // measure 75
1001
0000
1000
0000
,  // measure 76
1001
0000
0000
0000
,  // measure 77
0010
0000
0100
0000
,  // measure 78
0010
0000
0000
0000
,  // measure 79
0100
0000
0010
0000
,  // measure 80
0100
0000
0000
0000
,  // measure 81
1001
0000
0000
0000
;
