#TITLE:STUCK IN YOUR LOVE;
#SUBTITLE:;
#ARTIST:m-flo loves melody.;
#TITLETRANSLIT:;
#SUBTITLETRANSLIT:;
#ARTISTTRANSLIT:;
#CREDIT:DMAxel;
#BANNER:STUCK IN YOUR LOVE.png;
#BACKGROUND:STUCK IN YOUR LOVE-bg.png;
#LYRICSPATH:STUCK IN YOUR LOVE.lrc;
#CDTITLE:DMAxel original simfile.png;
#MUSIC:STUCK IN YOUR LOVE.mp3;
#OFFSET:-0.920;
#SAMPLESTART:72.296;
#SAMPLELENGTH:12.000;
#SELECTABLE:YES;
#BPMS:0.000=110.100;
#STOPS:;
#BGCHANGES:;

//---------------dance-single - ----------------
#NOTES:
     dance-single:
     :
     Easy:
     3:
     0.232,0.267,0.235,0.149,0.000:
0000
0000
0000
0000
,
0000
0000
0000
0000
,
0000
0000
0000
0000
,
0000
0000
0000
0000
,
0000
0000
0000
0000
,
0001
0001
1001
0000
,
1000
0100
1000
0001
,
1000
1000
1001
0000
,
0001
0010
0001
1000
,
0102
0100
0000
1003
,
0100
1000
0001
1000
,
2010
0010
0000
3001
,
0010
0001
1000
0001
,
0021
0001
0000
0031
,
0100
0001
1000
0100
,
1200
1000
0000
1300
,
0010
0100
0000
0001
,
1001
0001
0000
1000
,
0100
1000
0000
0000
,
0010
0100
0001
0000
,
0010
0100
1000
0001
,
1000
0100
0000
1000
,
0001
0010
0001
0010
,
0100
1000
1001
0000
,
0010
0001
1001
0000
,
1000
1000
0001
0001
,
1000
0100
0010
0001
,
1000
1000
0001
0001
,
1000
0100
0010
0001
,
0100
0010
0100
0010
,
0100
0001
0010
0100
,
1000
0001
0100
0110
,
1001
1001
1001
0000
,
1002
0000
0010
0000
,
2003
0000
3001
1000
,
2001
0000
0100
0000
,
3002
0000
1003
0001
,
1002
0000
0100
0000
,
2003
0000
3001
1000
,
1001
1000
1001
0001
,
0110
0110
1001
0000
,
1002
0000
0010
0000
,
1003
0100
0001
1000
,
2001
0000
0100
0000
,
3001
0010
1000
0001
,
1002
0000
0010
0000
,
1003
0100
0001
1000
,
1001
0001
1001
1000
,
0110
0110
1001
0000
,
2000
0000
0000
0000
,
3200
0000
0000
0000
,
0320
0000
0000
0000
,
0031
1000
0001
1000
,
0002
0000
0000
0000
,
0023
0000
0000
0000
,
0230
0000
0000
0000
,
1300
0001
1000
1001
;

//---------------dance-single - ----------------
#NOTES:
     dance-single:
     :
     Hard:
     7:
     0.475,0.467,0.455,0.125,0.051: // measure 1
0000
0000
0000
0000
,  // measure 2
0000
0000
0000
0000
,  // measure 3
0000
0000
0000
0000
,  // measure 4
0000
0000
0000
0000
,  // measure 5
0000
0000
0000
0000
,  // measure 6
0001
0010
0001
1000
0010
0010
0110
0000
,  // measure 7
0001
0001
1000
0100
1000
0001
0101
0000
,  // measure 8
1000
0100
1000
0001
0100
0100
0010
1000
,  // measure 9
0001
0010
0001
1000
0100
1000
1010
0000
,  // measure 10
1001
0001
1000
0010
0000
1000
0010
1000
,  // measure 11
0001
0010
1100
0010
0001
1000
0100
0001
,  // measure 12
1001
0000
0101
0000
1001
0001
0100
0001
,  // measure 13
1000
0100
0011
0100
1000
0001
0010
1000
,  // measure 14
1001
0000
1010
0000
1001
0001
1000
0010
,  // measure 15
1000
0001
0010
1000
0001
0100
0110
0000
,  // measure 16
1000
0100
0010
0001
0000
0100
0001
0010
,  // measure 17
1000
0000
1000
0000
0002
0000
1000
0000
0000
1003
0000
0000
1001
0000
0000
0000
,  // measure 18
1000
0010
0200
0000
0000
0301
1001
0000
,  // measure 19
1000
1000
0001
0001
1000
0100
0001
1000
,  // measure 20
0001
0100
0020
0000
0000
1030
1001
0000
,  // measure 21
0001
0001
1000
1000
0001
0010
1000
0001
,  // measure 22
1000
0100
0020
0000
0000
0031
1001
0000
,  // measure 23
1000
1000
0001
0001
1000
0010
0001
1000
,  // measure 24
0001
0010
0100
1000
0001
0100
0101
0000
,  // measure 25
1000
0100
0010
0001
1000
0010
1010
0000
,  // measure 26
1100
0000
1100
0000
0100
0001
1001
0000
,  // measure 27
1000
0010
0100
0001
1000
0100
0001
1000
,  // measure 28
0011
0000
0011
0000
0010
1000
1001
0000
,  // measure 29
0001
0100
0010
1000
0001
0010
1000
0001
,  // measure 30
1100
0000
1100
0000
0100
0001
1001
0000
,  // measure 31
1000
0100
0001
0100
1000
0001
1001
0000
,  // measure 32
0001
0010
0100
1000
0000
0001
1001
0000
,  // measure 33
0001
1000
0001
1000
0001
1000
0001
1000
0001
1000
0000
1000
0001
0000
0000
0000
,  // measure 34
0201
0000
0001
0000
0301
0001
0010
1000
,  // measure 35
0100
0010
0001
1000
0100
1000
1001
0000
,  // measure 36
1020
0000
1000
0000
1030
1000
0100
0001
,  // measure 37
0010
0100
1000
0001
0010
0001
1001
0000
,  // measure 38
0021
0000
0001
0000
0031
0001
0010
1000
,  // measure 39
0100
0010
0001
1000
0100
1000
1001
0000
,  // measure 40
1100
1000
0011
0001
1000
0100
0010
0001
,  // measure 41
0101
0100
1001
0000
1001
0000
1000
0001
,  // measure 42
0021
0000
0001
0000
0031
0001
0100
1000
,  // measure 43
0001
0010
1000
0001
0100
0001
0101
0000
,  // measure 44
1200
0000
1000
0000
1300
1000
0010
0001
,  // measure 45
1000
0100
0001
1000
0010
1000
1010
0000
,  // measure 46
0201
0000
0001
0000
0301
0001
0100
1000
,  // measure 47
0001
0010
1000
0001
0100
0001
0101
0000
,  // measure 48
0011
0001
1100
1000
0001
0010
0100
1000
,  // measure 49
1010
0010
1001
0000
1001
0000
1000
0100
,  // measure 50
0002
0000
0000
1000
0000
1003
0001
0010
,  // measure 51
2000
0000
0000
0001
0000
3001
1000
0010
,  // measure 52
0002
0000
1003
0100
1000
0001
0011
0000
,  // measure 53
0101
0100
1001
0000
1010
0010
1001
0001
,  // measure 54
0200
0000
0000
0001
0000
0301
1000
0001
,  // measure 55
0020
0000
0000
1000
0000
1030
0001
1000
,  // measure 56
0200
0000
0301
0010
0001
1000
1100
0000
,  // measure 57
1000
0001
1000
0001
1000
0001
1000
0001
1000
0010
0000
0100
0001
0000
0000
0000
;

//---------------dance-single - ----------------
#NOTES:
     dance-single:
     :
     Medium:
     5:
     0.371,0.356,0.447,0.102,0.031:
0000
0000
0000
0000
,
0000
0000
0000
0000
,
0000
0000
0000
0000
,
0000
0000
0000
0000
,
0000
0000
0000
0000
,
0010
0010
0110
0000
1100
0000
0011
0000
,
0100
0100
0110
0000
0011
0000
1100
0000
,
0010
0001
1000
0001
0000
1000
1000
0000
,
1100
0101
0101
1100
,
1002
0000
1000
0000
1003
0000
1000
0001
,
0010
0001
0000
1000
0000
0010
1000
0001
,
2001
0000
0001
0000
3001
0000
0001
1000
,
0100
1000
0000
0001
0000
0100
0001
1000
,
1002
0000
1000
0000
1003
0000
1000
0001
,
0010
0001
0000
1000
0000
0010
1000
0001
,
1000
0100
0010
0001
0000
1000
0100
0000
,
1000
0001
0100
0000
0000
0000
0000
0000
,
0101
0000
1000
0000
1000
0001
1001
0000
,
1010
0000
0001
0000
0001
1000
0010
0000
,
1010
0000
0001
0000
0000
1000
1001
0000
,
1100
0000
0011
0000
0100
1000
0001
0000
,
1000
0010
0100
0000
0000
0001
1001
0000
,
0011
0000
1100
0000
0010
0001
1000
0000
,
0001
0010
0100
1000
0000
0001
0100
0000
,
0001
1000
0010
1001
,
0110
0110
1001
0001
,
1000
0010
0000
1000
0000
0001
0000
0100
,
0110
0110
1001
1000
,
0001
0100
0000
0001
0000
1000
0000
0010
,
0110
0110
1001
0001
,
1000
0010
0000
1000
0100
0001
1000
0000
,
0001
0010
0100
1000
0000
0001
0100
0000
,
0001
0000
0001
0000
0001
0000
0001
1000
0001
0000
0000
0000
1001
0000
0000
0000
,
1002
0000
0000
0000
1000
0000
1003
0010
,
0001
0000
0000
0010
0000
0000
1000
0000
0100
0000
0010
0000
0001
0000
0000
0000
,
2001
0000
0000
0000
0001
0000
3001
0100
,
1000
0000
0000
0100
0000
0000
0001
0000
0010
0000
0100
0000
1000
0000
0000
0000
,
1002
0000
0000
0000
1000
0000
1003
0100
,
0001
0000
0000
0100
0000
0000
1000
0000
0100
0000
0010
0000
0001
0000
0000
0000
,
0101
1100
1100
0101
,
0010
1000
0001
0000
1001
0000
0001
0000
,
2001
0000
0000
0000
0001
0000
3001
0010
,
1000
0000
0000
0010
0000
0000
0001
0000
0010
0000
0100
0000
1000
0000
0000
0000
,
1002
0000
0000
0000
1000
0000
1003
0100
,
0001
0000
0000
0100
0000
0000
1000
0000
0100
0000
0010
0000
0001
0000
0000
0000
,
2001
0000
0000
0000
0001
0000
3001
0010
,
1000
0000
0000
0010
0000
0000
0001
0000
0010
0000
0100
0000
1000
0000
0000
0000
,
1010
0011
0011
1010
,
0100
0001
1000
0000
1001
0000
0011
1000
,
2000
0000
0000
0001
0000
3001
0000
0001
,
0002
0000
0000
1000
0000
1003
0000
0010
,
0010
0000
0010
0100
0010
1000
0001
0000
,
1001
0000
0011
0000
1001
0000
1100
0001
,
0002
0000
0000
1000
0000
1003
0000
1000
,
2000
0000
0000
0001
0000
3001
0000
0100
,
0100
0000
0100
0010
0100
0001
1000
0000
,
0010
0000
0010
0000
1010
0000
0010
0100
0010
0000
0000
0000
1001
0000
0000
0000
;

//---------------dance-single - ----------------
#NOTES:
     dance-single:
     :
     Beginner:
     1:
     0.067,0.089,0.047,0.000,0.000:
0000
0000
0000
0000
,
0000
0000
0000
0000
,
0000
0000
0000
0000
,
0000
0000
0000
0000
,
0000
0000
0000
0000
,
0001
0000
0000
0000
,
0001
0000
0000
0000
,
1000
0000
0000
0000
,
1000
0000
0000
0000
,
1001
0000
0000
0000
,
0001
0000
0000
0000
,
0001
0000
0000
0000
,
0001
0000
0000
0000
,
1000
0000
0000
0000
,
1000
0000
0000
0000
,
1000
0000
0000
0000
,
1000
0000
0000
0000
,
1001
0000
0000
0000
,
0010
0000
0000
0000
,
0010
0000
0000
0000
,
0100
0000
0000
0000
,
0100
0000
0000
0000
,
0010
0000
0000
0000
,
0010
0000
0000
0000
,
0100
0000
0000
0000
,
0100
0000
0000
0000
,
0001
0000
0000
0000
,
1000
0000
0000
0000
,
0001
0000
0000
0000
,
1000
0000
0000
0000
,
0001
0000
0000
0000
,
0010
0000
0000
0000
,
0110
0000
0000
0000
,
1000
0000
0000
0000
,
0001
0000
0000
0000
,
1000
0000
0000
0000
,
0100
0000
0000
0000
,
0010
0000
0000
0000
,
0100
0000
0000
0000
,
0010
0000
0000
0000
,
0001
0000
0000
0000
,
1001
0000
0000
0000
,
0001
0000
0000
0000
,
0010
0000
0000
0000
,
0100
0000
0000
0000
,
1000
0000
0000
0000
,
0001
0000
0000
0000
,
1000
0000
0000
0000
,
1001
0000
0000
0000
,
0010
0000
0000
0000
,
0100
0000
0000
0000
,
0010
0000
0000
0000
,
1000
0000
0001
0000
,
0100
0000
0000
0000
,
0010
0000
0000
0000
,
0100
0000
0000
0000
,
0001
0000
1001
0000
;
