#TITLE:STEEL CAGE;
#SUBTITLE:;
#ARTIST:Des-ROW;
#TITLETRANSLIT:;
#SUBTITLETRANSLIT:;
#ARTISTTRANSLIT:;
#CREDIT:DMAxel;
#BANNER:STEEL CAGE.png;
#BACKGROUND:STEEL CAGE-bg.png;
#LYRICSPATH:;
#CDTITLE:beatmania.png;
#MUSIC:STEEL CAGE.mp3;
#OFFSET:-9.060;
#SAMPLESTART:39.700;
#SAMPLELENGTH:12.000;
#SELECTABLE:YES;
#BPMS:0.000=125.000;
#STOPS:;
#BGCHANGES:;

//---------------dance-single - ----------------
#NOTES:
     dance-single:
     :
     Beginner:
     1:
     0.090,0.136,0.139,0.000,0.000:
0001
0000
0000
0000
,
1000
0000
0000
0000
,
0001
0000
0000
0000
,
1000
0000
0000
0000
,
0001
0000
0000
0000
,
0001
0000
0000
0000
,
1000
0000
0000
0000
,
1000
0000
0000
0000
,
0010
0000
0000
0000
,
0010
0000
0000
0000
,
0100
0000
0000
0000
,
0100
0000
0000
0000
,
0001
0000
0000
0000
,
0010
0000
0000
0000
,
0100
0000
0000
0000
,
1000
0000
0000
0000
,
1001
0000
0000
0000
,
0100
0000
0000
0000
,
1001
0000
0000
0000
,
0100
0000
0000
0000
,
1001
0000
0000
0000
,
0010
0000
0000
0000
,
1001
0000
0000
0000
,
0001
0000
1000
0000
,
1001
0000
0000
0000
,
1000
0000
0001
0000
,
1001
0000
0000
0000
,
0100
0000
0000
0000
,
1001
0000
0000
0000
,
0001
0000
0000
0000
,
1001
0000
0000
0000
,
1000
0000
0000
0000
,
1001
0000
0000
0000
,
0001
0000
0000
0000
,
0110
0000
0000
0000
,
1001
0000
0000
0001
;

//---------------dance-single - ----------------
#NOTES:
     dance-single:
     :
     Easy:
     2:
     0.153,0.181,0.227,0.063,0.000:
0100
0000
0000
0000
,
0010
0000
0000
0000
,
0100
0000
0000
0000
,
0010
0000
0000
0000
,
1000
0000
0001
0000
,
1000
0000
0001
0000
,
1000
0000
0010
0000
,
0010
0000
0010
0000
,
0110
0000
0000
0000
,
0001
0000
1000
0000
,
0110
0000
0000
0000
,
1000
0000
0001
0000
,
0220
0000
0000
0030
,
0302
0000
0000
0000
,
2003
0000
0000
0000
,
3002
0000
0000
0003
,
1001
0000
0000
0000
0000
1000
0000
0000
,
1100
0000
0000
0000
,
1001
0000
0000
0000
0000
0001
0000
0000
,
0101
0000
0000
0000
,
1001
0000
1000
0000
,
0001
0000
0100
0000
,
0110
0000
0001
0000
,
1000
0000
0010
0000
,
0110
0000
1000
0000
,
0001
0000
1000
0000
,
0110
0000
0001
0000
,
1000
0000
0001
0000
,
0110
0000
1000
0000
,
0110
0000
0001
0000
,
0110
0000
1000
0000
,
0110
0000
0001
0000
,
1001
0000
1000
0000
,
1001
0000
0001
0000
,
1001
0000
1000
0000
,
0001
1000
0001
1000
;

//---------------dance-single - ----------------
#NOTES:
     dance-single:
     :
     Medium:
     4:
     0.276,0.269,0.265,0.253,0.013:
1000
0000
0020
0000
0000
1030
0000
0000
,
0001
0000
0200
0000
0000
0301
0000
0000
,
1000
0000
0200
0000
0000
1300
0000
0000
,
0001
0000
0020
0000
0000
0031
0000
0000
,
1000
0010
0100
0101
,
1000
0010
0100
0101
,
1000
1001
0001
1001
,
0001
0100
0010
1010
,
0001
0100
0020
0000
,
1030
0010
0200
0000
,
0301
0001
1000
1000
,
0100
0010
0001
1000
,
1002
1000
1000
2003
,
0100
0100
0100
3100
,
0020
0001
0001
0031
,
2000
0001
0001
3001
,
1001
0000
0000
0000
0000
0000
0000
0000
0000
0000
0010
0000
0000
1000
0000
0000
,
0002
0000
0000
0000
0000
1003
0000
0000
,
1001
0000
0000
0000
0000
0000
0000
0000
0000
0000
0100
0000
0000
0001
0000
0000
,
2000
0000
0000
0000
0000
3001
0000
0000
,
2002
0000
0000
0000
,
3003
0010
0110
1000
,
0202
0000
0000
0000
,
0303
0100
0110
0001
,
2020
0000
0000
0000
,
3030
0010
0110
1000
,
2002
0000
0000
0000
,
3003
0100
0110
0001
,
1001
0100
0010
0001
,
1000
0001
0100
0010
,
0100
0001
1000
0010
,
1000
0001
0010
0100
,
1000
0001
0101
0000
,
0001
1000
1100
0000
,
0010
0100
0011
0000
,
0100
0010
1010
0000
;

//---------------dance-single - ----------------
#NOTES:
     dance-single:
     :
     Hard:
     7:
     0.468,0.408,0.581,0.253,0.082: // measure 1
0001
0000
1001
0000
0000
0200
0000
1000
,  // measure 2
1300
0000
0101
0000
0000
0200
0000
0001
,  // measure 3
0301
0100
0010
0000
0000
2000
0000
0001
,  // measure 4
3001
0000
1001
0000
0000
0002
0000
1000
,  // measure 5
1003
1010
1010
0011
,  // measure 6
0100
1000
0010
0000
0100
0001
1000
1000
,  // measure 7
1010
1001
0101
1001
,  // measure 8
0010
0001
0100
0000
0010
1000
1001
0000
,  // measure 9
0100
0100
0001
1000
0100
0010
0000
0000
,  // measure 10
0101
1001
1010
1001
,  // measure 11
0100
1000
0010
0000
0100
0001
1001
0000
,  // measure 12
0010
0010
1000
0001
0010
0100
1000
0001
,  // measure 13
0100
0001
0100
0001
0100
0001
0100
0001
,  // measure 14
0100
0010
0100
0010
0100
0010
0100
0010
,  // measure 15
1000
0010
1000
0010
1000
0010
1000
0010
,  // measure 16
0100
0010
0100
0010
0100
0001
0010
0100
,  // measure 17
2002
0000
0000
0000
0000
0000
3003
0000
0000
0000
1100
0000
0000
1100
0000
0000
,  // measure 18
2002
0000
0000
3003
,  // measure 19
2002
0000
0000
0000
0000
0000
3003
0000
0000
0000
0011
0000
0000
0011
0000
0000
,  // measure 20
2002
0000
0000
3003
,  // measure 21
0202
0000
0000
0000
0000
0000
0303
0000
0000
0000
1010
0000
0000
1010
0000
0000
,  // measure 22
1001
1100
1001
1010
,  // measure 23
2020
0000
0000
0000
0000
0000
3030
0000
0000
0000
0101
0000
0000
0101
0000
0000
,  // measure 24
1001
0101
1001
1100
,  // measure 25
2200
0000
0000
0000
0000
0000
3300
0000
0000
0000
0011
0000
0000
0011
0000
0000
,  // measure 26
1001
0000
0010
1000
0001
0010
0100
1000
,  // measure 27
2002
0000
0000
0000
0000
0000
3003
0000
0000
0000
0110
0000
0000
0110
0000
0000
,  // measure 28
1001
0000
0100
0001
1000
0100
0010
0001
,  // measure 29
1000
0000
1000
0000
0001
0000
0010
0000
0100
0000
1000
0000
0000
0001
0000
0000
,  // measure 30
1000
0000
1000
0000
0001
0000
0010
0000
0100
0000
1000
0000
0000
0001
0000
0000
,  // measure 31
1000
0000
0001
0000
1000
0000
0100
0000
0010
0000
0001
0000
0000
1000
0000
0000
,  // measure 32
0001
0000
0001
0000
1000
0000
0100
0000
0010
0000
0001
0000
0000
1000
0000
0000
,  // measure 33
0001
0000
0001
0000
1000
0000
0100
0000
0010
0000
0001
0000
0000
1000
0000
0000
,  // measure 34
0001
0000
0010
0000
0100
0000
1000
0000
0100
0000
0001
0000
0000
0100
0000
0000
,  // measure 35
0001
0000
0010
0000
0100
0000
1000
0000
0001
0000
0100
0000
0000
0001
0000
0000
,  // measure 36
1000
0100
0010
0001
1000
0010
0100
0100
;

//---------------dance-single - ----------------
#NOTES:
     dance-single:
     :
     Challenge:
     8:
     0.563,0.499,0.695,0.051,0.284:
0001
0100
2000
0000
0000
3100
0000
0001
,
1000
0100
0002
0000
0000
0103
0000
1000
,
0001
0100
2000
0000
0000
3100
0000
0001
,
1000
0100
0001
0000
0100
1000
0001
0100
,
0001
0010
0100
1000
0100
0001
0101
0000
,
0001
0010
0100
1000
0100
0001
0101
0000
,
1000
0010
1000
0000
0010
0000
1000
0000
0001
0100
0001
0000
0100
0000
0001
0000
,
1000
0100
0010
0001
1000
0010
1010
0000
,
0001
0001
1000
0100
0001
0200
0000
0000
,
1300
1000
0001
0100
1000
0010
0110
0000
,
1000
0100
0001
0000
0100
1000
1001
0000
,
0001
0100
1000
0100
0001
0100
0010
1000
,
0001
0100
0001
0100
0001
0100
0001
0100
,
0010
1000
0010
1000
0010
1000
0010
1000
,
0100
0010
0100
0010
0100
0010
0100
0010
,
0001
0000
1000
0000
0001
0000
1000
0000
0001
0000
0100
0001
0100
0001
0100
0001
,
1000
0000
0000
0000
0100
0000
0000
1000
0000
0000
1100
0000
0000
1001
0000
0000
,
0101
0000
0000
0000
0100
0000
0000
0001
0000
0000
0101
0000
0000
1100
0000
0000
,
1001
0000
0000
0000
0010
0000
0000
1000
0000
0000
1010
0000
0000
0011
0000
0000
,
1001
0000
0000
0000
1000
0000
0000
0001
0000
0000
0100
0010
0100
0010
0100
0010
,
0100
0000
0000
0000
0010
0000
1000
0010
0000
0000
1010
0000
0000
0011
0000
0000
,
1001
0000
0000
0000
0100
0000
0001
0100
0000
0000
0101
0000
0000
1100
0000
0000
,
1001
0000
0000
0000
0100
0000
1000
0100
0000
0000
1100
0000
0000
1001
0000
0000
,
0101
0000
0000
0000
0010
0000
0001
0010
0000
0000
0011
0000
0000
1001
0000
0000
,
1010
0000
0000
0100
0001
0000
0100
0001
0000
0000
0101
0000
0000
1001
0000
0000
,
0101
0000
0000
0010
1000
0000
0010
1000
0000
0000
1010
0000
0000
1001
0000
0000
,
1100
0000
0000
0001
0010
0000
0001
0010
0000
0000
0011
0000
0000
1001
0000
0000
,
0011
0000
0100
1000
0100
1000
0100
1000
0100
0000
0000
0000
0000
0000
1000
0001
,
1000
0000
0100
0000
0010
0000
0001
0000
1000
0000
1100
0000
0000
1100
0000
0000
,
0001
0000
0010
0000
0100
0000
1000
0000
0001
0000
0011
0000
0000
0011
0000
0000
,
1010
0000
1000
0000
0001
0000
0100
0000
1000
0000
0110
0000
0000
0110
0000
0000
,
0101
0000
0001
0000
1000
0000
0100
0000
0001
0000
0110
0000
0000
0110
0000
0000
,
1100
0000
1000
0000
0001
0000
0010
0000
1000
0000
0110
0000
0000
0110
0000
0000
,
0101
0000
0001
0000
1000
0000
0010
0000
0001
0000
0110
0000
0000
0110
0000
0000
,
1100
0000
1000
0000
0001
0000
0010
0000
0100
0000
0011
0000
0000
1010
0000
0000
,
0011
0000
0001
0000
1000
0000
0100
0000
0010
0000
0100
0010
0100
0010
0100
0000
;
