#TITLE:SPICY PIECE;
#SUBTITLE:;
#ARTIST:ORIGINAL SOUND TRACKS;
#TITLETRANSLIT:;
#SUBTITLETRANSLIT:;
#ARTISTTRANSLIT:;
#CREDIT:DMAxel;
#BANNER:SPICY PIECE.png;
#BACKGROUND:SPICY PIECE-bg.png;
#LYRICSPATH:;
#CDTITLE:pop'n music.png;
#MUSIC:SPICY PIECE.mp3;
#OFFSET:-0.040;
#SAMPLESTART:59.982;
#SAMPLELENGTH:12.000;
#SELECTABLE:YES;
#BPMS:0.000=156.000;
#STOPS:;
#BGCHANGES:;

//---------------dance-single - ----------------
#NOTES:
     dance-single:
     :
     Easy:
     3:
     0.160,0.279,0.044,0.076,0.000:
0000
0000
0000
0000
,
0000
0000
0000
0000
,
0000
0000
0000
0000
,
0000
0000
0000
0000
,
0000
0000
1000
0000
,
0000
0000
0001
0000
,
0000
0000
1000
0000
,
0000
0000
0000
0000
,
0000
0000
0010
0000
,
0000
0000
0100
0000
,
0000
0000
0010
0000
,
0000
0000
0000
0000
,
0000
0000
1000
0000
,
0000
0000
0100
0000
,
0000
0000
1000
0000
,
0000
0000
0000
0000
,
0000
0000
0001
0000
,
0000
0000
0010
0000
,
0000
0000
0001
0000
,
0000
0000
0000
0000
,
0000
0000
1000
0100
,
0000
1000
0000
0010
,
0000
0100
0000
0010
,
0000
0100
0000
0001
,
0000
0010
0000
0001
,
0000
1000
0000
0001
,
0000
1000
0000
0010
,
0000
1000
1001
0000
,
0000
0000
2000
0000
,
0000
0000
0000
3002
,
0000
0000
0000
0000
,
0203
0000
0000
0000
,
0300
0110
0000
0000
,
0000
0000
1000
1000
,
1000
1000
0010
0100
,
0100
0100
0100
0001
,
0010
0010
0010
0010
,
0001
2000
0000
0000
,
3000
1001
0000
0000
,
0100
1000
0000
0010
,
0000
0100
0000
0001
,
0000
0010
0000
0001
,
0000
0100
0000
0010
,
0000
1000
0000
0001
,
0000
1000
0000
0010
,
0000
0100
0000
0001
,
0020
0000
0000
0000
,
0031
0010
0001
0100
,
0000
0010
1000
0100
,
1000
0010
0000
0100
,
0001
0100
0010
1000
,
0000
0010
0100
0001
,
0000
0100
0010
1000
,
0000
0010
0100
0001
,
0010
0100
1000
2002
,
0000
0000
0000
0000
,
0000
0000
0000
0000
,
3003
0000
0000
0000
;

//---------------dance-single - ----------------
#NOTES:
     dance-single:
     :
     Challenge:
     8:
     0.546,0.590,0.283,0.196,0.082:
0000
0000
0000
0000
,
0000
0000
0000
0000
,
0000
0000
0000
0000
,
0000
0000
0000
0000
,
0000
0000
0200
0001
,
0001
0000
0301
0100
0020
0000
1000
0000
,
1000
0000
1030
0010
0100
0000
0000
0101
,
0000
0000
0001
0000
0010
0000
0100
0000
1000
0000
0010
0100
0010
0000
1000
0000
,
0100
0010
0001
0000
0200
0000
0001
0000
,
0001
0000
0301
0100
0020
0000
1000
0000
,
1030
0100
0010
0001
0100
0010
0000
1010
,
0000
0000
1000
0000
0100
0000
0010
0000
0001
0000
0100
0010
0100
0000
0001
0000
,
0100
1000
0100
0010
0001
0000
0001
0100
,
0000
0100
0010
1000
0100
0000
0100
1000
,
0000
1000
0010
0100
0001
0000
0000
1001
,
0000
0000
0001
0000
0010
0000
0100
0000
1000
0000
0010
0100
0010
0000
1000
0000
,
0010
0001
0010
0100
1000
0000
1000
0010
,
0000
0010
0100
0001
0010
0000
0010
0001
,
0010
0001
0010
0100
1000
0010
0000
1001
,
0000
0000
0001
0000
1000
0000
0010
0000
0100
0000
0010
0100
0010
0000
1000
0000
,
0100
0010
0001
0010
0002
0000
0100
0100
,
0000
0000
2003
0000
0000
0010
0000
3010
,
0100
0001
0010
0100
2000
0000
0010
0010
,
0000
0000
3002
0000
0000
0100
0000
0103
,
0010
1000
0010
0100
0002
0000
0100
0100
,
0000
0000
2003
0000
0000
0010
0000
3010
,
0100
0001
0100
0010
2000
0000
0010
0010
,
0000
3001
1001
0000
,
0000
0000
2000
0000
,
0000
0000
3001
0100
0010
1000
0020
0000
,
0000
0000
0000
0000
0130
0001
1000
0010
,
0200
0000
0000
0000
0000
0000
0301
1000
,
0100
0010
0001
1001
0000
0000
0010
0000
,
1000
0000
0000
0000
0100
0000
0000
0000
1001
0000
0000
0010
1000
0000
0000
0100
,
1000
0000
0000
0010
1000
0000
0100
0000
0010
0000
0001
0000
1001
0000
0000
0100
,
0001
0000
0000
0010
0001
0000
0000
0100
0001
0000
0010
0000
0100
0000
1000
0000
,
1001
0000
0000
0100
1000
0000
0000
0010
1000
0000
0000
0100
1000
0000
0100
0000
,
0010
0001
0100
0101
0000
0010
1010
0000
,
1010
1001
0000
0000
,
0100
1000
0000
1100
0000
0011
1001
0000
,
0001
0100
0001
0100
1000
0100
0001
0100
,
0001
1000
0001
0000
0100
0001
0100
0000
,
0010
1000
0100
1000
0100
0010
0001
0000
,
0100
0010
0000
1010
0000
0101
1001
0000
,
1000
0100
1000
0010
1000
0001
0010
2000
,
0010
0000
0010
0000
3010
0100
0001
0000
,
0100
0001
0100
0000
0010
0000
1000
0000
0100
0000
0010
0000
0001
0000
0010
0000
,
0100
0100
0000
1010
0000
0101
1001
0000
,
1000
0100
1000
0100
0001
0100
1000
0100
,
0010
0002
0010
0000
0013
0100
1000
0000
,
0010
1000
0100
0001
0010
0100
1000
0100
,
0010
0010
0000
0011
0000
1100
1001
0000
,
0010
0100
0001
0100
1000
0010
0100
0002
,
0100
0000
0100
0000
0103
0010
1000
0000
,
0010
1000
0010
0000
0100
0000
0001
0000
0010
0000
1000
0000
0100
0000
2001
0000
,
0000
0010
0100
0010
,
0100
0010
0100
0000
,
3000
0000
0000
0000
;

//---------------dance-single - ----------------
#NOTES:
     dance-single:
     :
     Hard:
     6:
     0.383,0.403,0.174,0.240,0.000:
0000
0000
0000
0000
,
0000
0000
0000
0000
,
0000
0000
0000
0000
,
0000
0000
0000
0000
,
0000
0000
0002
0000
,
0000
0000
0000
0103
0020
0000
0000
0000
,
0000
0000
0000
1030
0100
0000
0000
1001
,
0000
0000
0100
0000
0010
0100
0010
1000
,
0000
1000
0000
0000
0020
0000
0000
0000
,
0000
0000
0000
0130
0002
0000
0000
0000
,
1003
0100
0010
0001
0100
0001
0000
0001
,
0000
0000
0000
0000
0100
0010
0100
0000
,
0001
0010
0001
0000
2000
0000
0000
0000
,
0000
0000
0000
3010
0200
0000
0000
0000
,
0000
0000
0000
0301
0010
0000
0000
1001
,
0000
0000
0010
0000
0100
0010
0100
0001
,
0000
0001
0000
0000
2000
0000
0000
0000
,
0000
0000
0000
3001
0020
0000
0000
0000
,
0031
0010
0100
1000
0010
1000
0000
1000
,
0000
0000
0010
0000
0100
0010
1000
0100
,
0010
0001
0010
0100
2000
0000
0010
0010
,
0000
0000
3002
0000
0000
0100
0000
0103
,
0010
1000
0100
0010
0002
0000
0100
0100
,
0000
0000
2003
0000
0000
0010
0000
3010
,
0100
0001
0100
0010
2000
0000
0010
0010
,
0000
0000
3002
0000
0000
0100
0000
0103
,
0010
1000
0010
0100
0002
0000
0100
0100
,
0000
1003
1001
0000
,
0000
0000
0002
0000
,
0000
0000
0000
0000
0103
0010
0200
0000
,
0000
0000
0000
0000
0000
0000
0310
1000
,
0020
0000
0000
1030
,
0100
0000
1000
1001
0000
0000
0000
0000
,
0000
0000
0001
0010
,
0001
0000
0010
0000
0001
0010
1000
0000
,
0100
0000
1000
0000
0100
0000
1000
0100
,
0001
0000
0100
0000
0001
0000
0100
0010
,
0100
0000
0010
1010
0000
0100
0001
0000
,
0101
1001
0000
0000
,
0010
0001
0000
0011
0000
1100
0000
0000
,
0000
0000
1000
0010
0001
0010
1000
0010
,
0100
0001
1000
0000
1000
0000
0100
0000
,
0010
0001
0100
0010
,
0100
0010
0000
0101
0000
1010
0000
0000
,
0001
0000
0010
0000
0001
0100
0010
2000
,
0000
0010
0010
3010
,
0100
0001
0100
0000
0010
0100
0010
0000
,
1000
0100
0000
0101
0000
1010
0000
0000
,
0000
0000
0001
0010
1000
0010
0001
0010
,
0100
1000
0010
0000
0010
0100
0001
0000
,
0010
0001
0100
0000
0100
0010
1000
0000
,
0001
1000
0000
1100
0000
0011
0000
0000
,
0000
0000
1000
0000
0001
0100
0010
2000
,
0000
0010
0000
3010
,
0100
0010
0100
0001
0100
1000
0010
2002
,
0000
0000
0000
0000
,
0000
0000
0000
0000
,
3003
0000
0000
0000
;

//---------------dance-single - ----------------
#NOTES:
     dance-single:
     :
     Medium:
     5:
     0.308,0.341,0.196,0.142,0.000:
0000
0000
0000
0000
,
0000
0000
0000
0000
,
0000
0000
0000
0000
,
0000
0000
0000
0000
,
0000
0000
2000
0000
,
0000
0000
0000
3010
0200
0000
0000
0000
,
0000
0000
0000
0301
0010
0000
0000
1001
,
0000
0000
0010
1000
,
0100
0010
0002
0000
,
0000
0000
0000
0103
0020
0000
0000
0000
,
0000
0000
0030
0000
1000
0010
0000
1001
,
0000
0000
0010
1000
,
0100
0010
0002
0000
,
0000
0000
0000
0103
0020
0000
0000
0000
,
0000
0000
0000
1030
0100
0000
0000
1001
,
0000
0100
0001
0010
,
0100
1000
0002
0000
,
0000
0000
0000
1003
0200
0000
0000
0000
,
1300
0000
0010
0000
0100
0010
0000
1001
,
0000
0100
0010
0100
,
0001
1000
0001
0000
1001
0000
0000
0100
,
0000
0000
0010
0000
0000
1000
0000
0000
,
0100
0000
1000
0000
0010
0000
0000
0100
,
0000
0000
0001
0000
0000
0010
0000
0000
,
0001
0000
0100
0000
0010
0000
0000
1000
,
0000
0000
0100
0000
0000
1000
0000
0000
,
0010
0000
0100
0000
0001
0000
0000
0010
,
0000
0001
1001
0000
,
0000
0000
2000
0000
,
0000
0000
3010
0020
,
0000
0000
0000
0130
,
0200
0000
0000
0301
,
0010
0000
0001
1000
0000
0000
0000
0000
,
0000
0000
1000
0100
,
1000
0100
1000
0001
,
0010
0001
0010
0001
,
1000
0010
1000
0010
,
0100
0000
0011
0000
0000
1100
0000
0000
,
1010
1001
0000
0000
,
0100
1000
0000
1001
0000
1001
0000
0000
,
0000
0000
0010
0001
0010
0000
0100
0000
,
1000
0001
1000
0000
0001
0000
0010
0000
,
0100
1000
0010
0100
,
0001
0100
0000
1001
0000
1001
0000
0000
,
1000
0000
0100
0000
1000
0000
0001
1000
,
0001
0100
0010
1000
,
0010
0100
0010
1000
,
0001
0010
0000
1001
0000
1001
0000
0000
,
0000
0000
1000
0100
1000
0000
0010
0000
,
1000
0001
1000
0000
0010
0000
0100
0000
,
0010
0000
1000
0000
0001
1000
0001
0000
,
1000
0100
0000
1001
0000
1001
0000
0000
,
0000
0000
0001
0000
1000
0010
1000
0010
,
1000
0100
0010
0001
,
0100
0010
0100
0000
0001
1000
0002
2000
,
0000
0000
0000
0000
,
0000
0000
0000
0000
,
3003
0000
0000
0000
;

//---------------dance-single - ----------------
#NOTES:
     dance-single:
     :
     Beginner:
     1:
     0.086,0.119,0.044,0.000,0.000:
0000
0000
0000
0000
,
0000
0000
0000
0000
,
0000
0000
0000
0000
,
0000
0000
0000
0000
,
0000
0000
1000
0000
,
0000
0000
1000
0000
,
0000
0000
0001
0000
,
0000
0000
0000
0000
,
0000
0000
0001
0000
,
0000
0000
0001
0000
,
0000
0000
1000
0000
,
0000
0000
0000
0000
,
0000
0000
0001
0000
,
0000
0000
1000
0000
,
0000
0000
0001
0000
,
0000
0000
0000
0000
,
0000
0000
1000
0000
,
0000
0000
0001
0000
,
0000
0000
1000
0000
,
0000
0000
0000
0000
,
0000
0000
0001
0000
,
0000
0000
0000
0000
,
0000
0000
0010
0000
,
0000
0000
0000
0000
,
0000
0000
0100
0000
,
0000
0000
0000
0000
,
0000
0000
1000
0000
,
0000
0000
1001
0000
,
0000
0000
0001
0000
,
0000
0000
0000
0001
,
0000
0000
0000
0000
,
0001
0000
0000
0000
,
0000
0001
0000
0000
,
0000
0000
1000
0000
,
0000
0000
0000
1000
,
0000
0000
0000
0000
,
1000
0000
0000
0000
,
0000
1001
0000
0000
,
0000
1001
0000
0000
,
0000
1000
0000
1000
,
0000
0001
0000
0001
,
0000
1000
0000
1000
,
0000
0000
0000
0000
,
0000
0001
0000
0001
,
0000
1000
0000
1000
,
0000
0001
0000
0001
,
0000
0000
0000
0000
,
0000
0100
0000
0100
,
0000
0010
0000
0010
,
0000
1000
0000
1000
,
0000
0000
0000
0000
,
0000
0010
0000
0010
,
0000
0100
0000
0100
,
0000
0001
0000
0001
,
0000
0000
0000
1001
;

//---------------dance-double - ----------------
#NOTES:
     dance-double:
     :
     Easy:
     3:
     0.215,0.310,0.142,0.109,0.000: // measure 1
00000000
00000000
00000000
00000000
,  // measure 2
00000000
00000000
00000000
00000000
,  // measure 3
00000000
00000000
00000000
00000000
,  // measure 4
00000000
00000000
00000000
00000000
,  // measure 5
00000000
00000000
20000000
00000000
,  // measure 6
00000000
00000000
30020000
00000000
,  // measure 7
00000000
00000000
00000000
00000000
10030000
00000000
00000000
10010000
,  // measure 8
00000000
00000000
00000000
00000000
,  // measure 9
00000000
00000000
00020000
00000000
,  // measure 10
00000000
00000000
00032000
00000000
,  // measure 11
00000000
00000000
00000000
00000000
00013000
00000000
00000000
00011000
,  // measure 12
00000000
00000000
00000000
00000000
,  // measure 13
00000000
00000000
00002000
00000000
,  // measure 14
00000000
00000000
00003002
00000000
,  // measure 15
00000000
00000000
00000000
00000000
00001003
00000000
00000000
00001001
,  // measure 16
00000000
00000000
00000000
00000000
,  // measure 17
00000000
00000000
00002000
00000000
,  // measure 18
00000000
00000000
00023000
00000000
,  // measure 19
00000000
00000000
00000000
00000000
00031000
00000000
00000000
00011000
,  // measure 20
00000000
00000000
00000000
00100000
,  // measure 21
01000000
10000000
00100000
00100000
,  // measure 22
00000000
10000000
00000000
00100000
,  // measure 23
00000000
01000000
00000000
10010000
,  // measure 24
00000000
00100000
00000000
00001000
,  // measure 25
00000000
00010000
00000000
00011000
,  // measure 26
00000000
00000010
00000000
00001000
,  // measure 27
00000000
00000001
00000000
00000100
,  // measure 28
00000000
00000001
00001001
00000000
,  // measure 29
00000000
00000000
00000001
00000001
,  // measure 30
00000001
00000000
00000000
00000010
,  // measure 31
00000010
00000010
00000000
00000000
,  // measure 32
00000100
00000100
00000100
00000000
,  // measure 33
00001000
00001001
00000000
00000000
,  // measure 34
00000000
00000000
00010000
00010000
,  // measure 35
00010000
00010000
00000100
00001000
,  // measure 36
00001000
00001000
00001000
00100000
,  // measure 37
00010000
00010000
00010000
00010000
,  // measure 38
00001000
00101000
00000000
00000000
,  // measure 39
00000000
00011000
00000000
00000000
,  // measure 40
01000000
00010000
01000000
00000000
,  // measure 41
00000000
00100000
01000000
00100000
,  // measure 42
01000000
00100000
00000000
10000000
,  // measure 43
00000000
01000000
00000000
00100000
,  // measure 44
00010000
00100000
00001000
00000000
,  // measure 45
00000000
00010000
00001000
00010000
,  // measure 46
00000100
00001000
00000100
00001000
,  // measure 47
00001001
00000000
00000000
00000000
,  // measure 48
00000010
00000001
00000010
00000001
,  // measure 49
00000010
00000100
00001000
00010000
,  // measure 50
00100000
01000000
10000000
01000000
,  // measure 51
10000000
10000000
00100000
10000000
,  // measure 52
00100000
01000000
00100000
10000000
,  // measure 53
01000000
00100000
00010000
00001000
,  // measure 54
00010000
00001000
00000100
00000010
,  // measure 55
00000011
00000000
00000000
00002002
,  // measure 56
00000000
00000000
00000000
00000000
,  // measure 57
00000000
00000000
00000000
00000000
,  // measure 58
00003003
00000000
00000000
00000000
;
