#TITLE:SPEED METAL GYRUSS;
#SUBTITLE:;
#ARTIST:MEGADRIVER;
#TITLETRANSLIT:;
#SUBTITLETRANSLIT:;
#ARTISTTRANSLIT:;
#CREDIT:DMAxel;
#BANNER:SPEED METAL GYRUSS.png;
#BACKGROUND:SPEED METAL GYRUSS-bg.png;
#LYRICSPATH:;
#CDTITLE:DMAxel Original Simfile.png;
#MUSIC:SPEED METAL GYRUSS.mp3;
#OFFSET:0.320;
#SAMPLESTART:57.274;
#SAMPLELENGTH:12.000;
#SELECTABLE:YES;
#DISPLAYBPM:73.000:184.000;
#BPMS:0.000=60.500,6.500=72.960,8.500=72.860,13.500=184.100;
#STOPS:;
#BGCHANGES:;

//---------------dance-single - ----------------
#NOTES:
     dance-single:
     :
     Hard:
     7:
     0.504,0.542,0.194,0.141,0.000: // measure 1
0000
0000
0000
0000
,  // measure 2
0000
0000
0000
0000
,  // measure 3
0000
0000
0000
0000
,  // measure 4
0000
0000
0000
0000
0001
1000
0001
0000
,  // measure 5
1000
0010
1000
0000
0010
0100
0010
0000
,  // measure 6
1000
0001
1000
0000
0001
0010
0100
1000
,  // measure 7
0100
0010
0001
1000
0010
1000
0001
1000
,  // measure 8
0010
0000
0000
0000
0100
0010
0100
0000
,  // measure 9
0001
0010
0001
0000
1000
0001
1000
0000
,  // measure 10
0100
1000
0100
0000
1000
0100
0010
0001
,  // measure 11
0010
0100
1000
0001
0100
0001
1000
0001
,  // measure 12
0100
0000
0001
1000
,  // measure 13
0001
1000
0010
0100
,  // measure 14
0010
0100
0011
0011
,  // measure 15
1100
1100
0001
1000
,  // measure 16
0010
0000
0000
0000
1000
0100
1000
0000
,  // measure 17
0010
0100
0010
0000
0100
0001
0100
0000
,  // measure 18
0001
1000
0001
0000
1000
0010
0100
0001
,  // measure 19
0100
0010
1000
0010
1000
0001
1000
0010
,  // measure 20
1000
0000
0000
0010
1000
0100
1000
0000
,  // measure 21
0001
0010
0001
0000
0200
0000
0010
0000
,  // measure 22
0010
0000
0010
0000
0300
0002
0000
0000
,  // measure 23
0000
0000
0000
0000
1000
1003
0000
1001
,  // measure 24
0000
0001
0010
1000
,  // measure 25
0010
0000
0001
0000
0100
0100
0000
0110
,  // measure 26
0000
1000
0100
0001
,  // measure 27
0100
0000
1000
0000
0001
0001
0000
1001
,  // measure 28
0000
1000
0100
0001
,  // measure 29
0100
0000
1000
0000
0010
0010
0000
0110
,  // measure 30
0000
0000
1000
1000
0000
0000
2002
0000
,  // measure 31
0000
0000
3003
0000
0001
1000
0000
1000
,  // measure 32
0010
0000
0010
0100
0000
0100
0002
0000
,  // measure 33
0000
0000
0000
0000
1003
0010
0000
0010
,  // measure 34
0100
0000
0100
0001
0000
0001
2000
0000
,  // measure 35
0000
0000
0000
0000
3001
0100
0000
0100
,  // measure 36
0010
0000
0010
1000
0000
1000
0001
0000
,  // measure 37
0010
0100
2000
0001
,  // measure 38
0001
0000
3001
0100
0020
0000
0100
0000
,  // measure 39
0100
0000
0130
0000
0100
0010
0100
0000
,  // measure 40
0001
1000
0001
0000
0010
0001
0010
0000
,  // measure 41
0100
1000
0100
0000
1000
0100
0010
0001
,  // measure 42
0010
0100
1000
0010
1000
0100
1000
0010
,  // measure 43
1000
0000
0000
0000
0010
1000
0010
0000
,  // measure 44
0100
0001
0100
0000
0010
0100
0010
0000
,  // measure 45
0100
0010
0100
0000
0001
0010
0100
1000
,  // measure 46
0100
0010
0001
0100
0001
0010
0001
0100
,  // measure 47
0001
0000
1100
1100
,  // measure 48
0011
0011
1000
0100
,  // measure 49
0010
0001
0101
0101
,  // measure 50
1010
1010
0001
0010
,  // measure 51
0100
0000
0000
0000
1000
0100
0010
0001
,  // measure 52
0100
0010
1000
0000
0001
0010
0100
1000
,  // measure 53
0010
0100
0001
0000
1000
0010
1000
0001
,  // measure 54
0010
0001
0010
0100
1000
0010
0100
0001
,  // measure 55
0100
0000
0000
0001
1000
0100
0010
0001
,  // measure 56
0100
0010
0200
0000
0010
0000
0010
0000
,  // measure 57
0010
0000
0010
0000
0310
1000
0002
0000
,  // measure 58
1000
0000
1000
0000
1000
1003
0000
1001
,  // measure 59
0000
0001
0100
1000
,  // measure 60
0100
0000
0001
0000
0100
0100
0000
0110
,  // measure 61
0000
1000
0010
0001
,  // measure 62
0010
0000
1000
0000
0010
0010
0000
0110
,  // measure 63
0000
0001
0010
1000
,  // measure 64
0010
0000
0001
0000
0100
0100
0000
1001
,  // measure 65
0000
0000
0010
0010
0000
0000
2002
0000
,  // measure 66
0000
0000
3003
0000
0001
1000
0000
1000
,  // measure 67
0010
0000
0010
0100
0000
0100
0020
0000
,  // measure 68
0000
0000
0000
0000
0130
0001
0000
0001
,  // measure 69
1000
0000
1000
0010
0000
0010
0200
0000
,  // measure 70
0000
0000
0000
0000
0301
1000
0000
1000
,  // measure 71
0010
0000
0010
0100
0000
0100
0001
0000
,  // measure 72
0100
0010
2000
0000
,  // measure 73
0000
0000
3001
0010
0002
0000
0000
0000
,  // measure 74
0000
0000
1003
0100
0010
0001
0100
0010
,  // measure 75
0100
0010
0100
0000
0001
0010
0100
1000
,  // measure 76
0010
0100
0010
0000
0100
0001
0100
0000
,  // measure 77
0010
1000
0010
0000
1000
0001
0010
0100
,  // measure 78
1000
0000
0000
0000
;

//---------------dance-single - ----------------
#NOTES:
     dance-single:
     :
     Easy:
     4:
     0.271,0.339,0.176,0.106,0.000:
0000
0000
0000
0000
,
0000
0000
0000
0000
,
0000
0000
0000
0000
,
0000
0000
0001
0000
,
0001
0000
0010
0000
,
0010
0000
0001
0010
,
0100
1000
0100
0010
,
0001
0000
1000
0000
,
1000
0000
0010
0000
,
0010
0000
1000
0100
,
0010
0001
0010
0100
,
1000
0000
1001
0000
,
1001
0000
0010
0100
,
0010
0100
1001
0000
,
1001
0000
0100
0010
,
0100
0000
0001
0000
,
0001
0000
0100
0000
,
0100
0000
0001
0010
,
0100
1000
0100
0010
,
0001
0000
1000
0100
,
0010
0001
0200
0000
,
0000
0000
0320
0000
,
0000
0030
1001
0000
,
0000
0001
0010
0100
,
1000
0100
1001
0000
,
0000
1000
0100
0010
,
0001
0010
1001
0000
,
0000
0001
0100
0010
,
1000
0010
1001
0000
,
0000
1010
0000
0101
,
0010
0010
2000
0000
,
0000
0000
0000
0000
,
0000
0000
3200
0000
,
0000
0000
0000
0000
,
0000
0000
0320
0000
,
0000
0000
0000
0000
,
0031
0100
2000
0000
,
0000
3010
0200
0000
,
0000
0300
0010
0000
,
0010
0000
1000
0000
,
1000
0000
0001
0010
,
0100
1000
0100
0010
,
0001
0000
0100
0000
,
0100
0000
0001
0000
,
0001
0000
1000
0100
,
0010
0001
0010
0100
,
1000
0000
1001
0000
,
1001
0000
0010
0100
,
0010
0100
1001
0000
,
1001
0000
0100
0010
,
0100
0000
0001
0010
,
0100
1000
0100
0010
,
0001
0010
0100
1000
,
0100
0010
0001
0010
,
0100
0000
1000
0100
,
0010
0001
0100
0100
,
0100
0100
0020
0000
,
0000
0030
1001
0000
,
0000
0001
0010
0100
,
1000
0100
1001
0000
,
0000
1000
0100
0010
,
0001
0010
1001
0000
,
0000
0001
0100
0010
,
1000
0100
1001
0000
,
0000
0011
0000
1100
,
0010
0010
0002
0000
,
0000
0000
0000
0000
,
0000
0000
0023
0000
,
0000
0000
0000
0000
,
0000
0000
0230
0000
,
0000
0000
0000
0000
,
1300
0010
0001
0000
,
0000
0100
0020
0000
,
0000
0030
1000
0100
,
0010
0001
0010
0100
,
1000
0010
0100
0010
,
1000
0100
0010
0001
,
0100
0000
0000
0000
;

//---------------dance-single - ----------------
#NOTES:
     dance-single:
     :
     Medium:
     5:
     0.374,0.372,0.176,0.299,0.000:
0000
0000
0000
0000
,
0000
0000
0000
0000
,
0000
0000
0000
0000
,
0000
0000
1001
1000
,
0010
0100
0001
0010
,
0001
1000
0100
1000
,
0010
0100
0010
1000
,
1001
0000
0010
0100
,
0010
0100
0001
1000
,
0010
1000
1001
1001
,
0010
0100
0001
0010
,
1000
0000
0001
0001
,
1000
0000
1000
0000
0010
0100
0010
0000
,
0100
0010
0100
0000
0001
0000
0001
0000
,
1000
0000
1000
0000
0010
0100
0010
0000
,
0200
0000
0301
0010
,
0100
1000
0010
0100
,
0001
1000
0001
0010
,
0100
1000
0100
0010
,
0001
0000
1000
0010
,
0100
0001
2000
0010
,
0010
0010
3002
0000
,
0000
0000
0000
0000
1003
0000
0000
1001
,
0000
0010
0100
0001
,
1000
0000
0010
0000
0100
0000
0000
1001
,
0000
0010
0100
0001
,
0010
0000
0001
0000
1000
0000
0000
1001
,
0000
0010
0100
0001
,
1000
0000
0010
0000
0100
0000
0000
1001
,
0000
0010
0000
0110
,
1000
0000
1000
0000
0002
0000
0000
2003
,
0000
0000
3020
0000
0000
0230
0000
0000
,
0000
0000
0000
0000
0302
0000
0000
2003
,
0000
0000
3020
0000
0000
0230
0000
0000
,
0000
0000
0000
0000
0302
0000
0000
0023
,
0000
0000
0230
0000
0000
2300
0000
0000
,
3001
0100
0020
0000
,
0000
1030
0002
0000
,
0000
1003
1000
0001
,
1000
0001
0100
0010
,
0100
0010
1000
0100
,
0001
0100
1000
0100
,
0001
0000
0100
0010
,
0100
0001
0010
0001
,
1000
0100
1000
0010
,
0001
0010
1000
0010
,
0001
0000
1100
0000
,
0011
0000
1000
0001
,
1000
0010
0101
0000
,
1010
0000
0100
0001
,
2000
0000
3010
0100
,
0001
0100
0010
0100
,
0010
1000
0001
0010
,
0100
1000
0100
0010
,
0001
0000
1000
0001
1000
0000
0010
0000
,
0100
0010
2000
0001
,
0001
3001
0200
0000
,
0000
0000
0000
0000
0310
0000
0000
1001
,
0000
0001
0010
0100
,
1000
0000
0100
0000
0010
0000
0000
0110
,
0000
0001
0100
0010
,
1000
0000
0010
0000
0100
0000
0000
1001
,
0000
1000
0100
0010
,
0001
0000
0010
0000
0100
0000
0000
1001
,
0000
0100
0000
0110
,
0001
0000
0001
0000
2000
0000
0000
3200
,
0000
0000
0320
0000
0000
0032
0000
0000
,
0000
0000
0000
0000
0203
0000
0000
0320
,
0000
0000
2030
0000
0000
3002
0000
0000
,
0000
0000
0000
0000
2003
0000
0000
3020
,
0000
0000
0230
0000
0000
0302
0000
0000
,
1003
0001
0200
0000
,
0000
0301
2000
0000
,
0000
3001
0001
1000
,
0010
0100
0001
0010
,
0001
1000
1100
0011
,
1000
0100
0010
0001
,
0100
0000
0000
0000
;

//---------------dance-single - ----------------
#NOTES:
     dance-single:
     :
     Challenge:
     9:
     0.665,0.643,0.220,0.062,0.092: // measure 1
0000
0000
0000
0000
,  // measure 2
0000
0000
0000
0000
0000
0000
0001
0010
,  // measure 3
0100
0000
1000
0000
0100
0000
0010
0000
0001
0000
0000
0100
0000
0000
1010
0000
,  // measure 4
0000
0000
0000
0001
1000
0100
0010
0001
,  // measure 5
1000
0100
0010
0001
0100
0010
1000
0001
,  // measure 6
1000
0001
1000
0000
0001
0010
0100
1000
,  // measure 7
0001
0010
0100
1000
0010
0100
0001
1000
,  // measure 8
0001
0000
1000
0001
1000
0001
1000
0000
0001
0000
0010
0000
0100
0000
1000
0000
,  // measure 9
0001
0010
0100
1000
0010
0100
0001
1000
,  // measure 10
0001
1000
0001
0000
1000
0100
0010
0001
,  // measure 11
1000
0001
0100
0010
1000
0001
1000
0010
,  // measure 12
0100
0000
0000
0000
0010
0000
0000
0000
1000
0100
0000
0000
0100
0010
0000
0000
,  // measure 13
0010
0001
0000
0000
0001
1000
0000
0000
1000
0000
0100
0000
0010
0000
0001
0000
,  // measure 14
0010
0000
0100
0000
1000
0000
0000
0000
0001
0010
0000
0000
0010
0100
0000
0000
,  // measure 15
0100
1000
0000
0000
1000
0001
0000
0000
0001
0000
0010
0000
0100
0000
1000
0000
,  // measure 16
0020
0000
1000
0000
1030
0010
0100
0001
,  // measure 17
0100
0010
1000
0100
0010
0001
0010
0100
,  // measure 18
1000
0001
1000
0000
0001
0100
0010
1000
,  // measure 19
0010
0100
0001
0010
0100
1000
0001
1000
,  // measure 20
0001
0000
0000
1000
0001
0010
0100
1000
,  // measure 21
0010
0100
0001
1000
0001
0000
0011
0000
,  // measure 22
1000
0000
1100
0000
0100
0001
0010
0100
,  // measure 23
1000
0010
0100
0001
0100
0100
0000
1001
,  // measure 24
0000
0000
0010
1000
0100
0010
0001
0100
,  // measure 25
0010
1000
0001
0100
0010
0010
0000
1001
,  // measure 26
0000
0000
1000
0010
0100
0001
0010
0100
,  // measure 27
1000
0001
0100
0010
1000
1000
0000
1001
,  // measure 28
0000
0000
1000
0010
0100
0001
0100
0010
,  // measure 29
1000
0100
0010
0001
1000
1000
0000
1100
,  // measure 30
0000
0000
0001
0001
0000
0000
0011
0000
,  // measure 31
1010
0000
0101
0000
1000
0100
0000
0100
,  // measure 32
0001
0000
0001
0010
0000
0010
2000
0000
,  // measure 33
0010
0000
3100
0000
0001
0100
0000
0100
,  // measure 34
1000
0000
1000
0010
0000
0010
0002
0000
,  // measure 35
0100
0000
0013
0000
0001
0100
0000
0100
,  // measure 36
1000
0000
1000
0010
0000
0010
0001
0000
,  // measure 37
0011
1100
1001
0010
,  // measure 38
0100
0000
0001
0100
1000
0010
0100
0000
,  // measure 39
0001
0001
1001
0000
1000
0010
0100
0001
,  // measure 40
0010
0100
1000
0010
0100
0001
0010
0100
,  // measure 41
1000
0001
1000
0000
0001
0100
0010
1000
,  // measure 42
0100
0010
0001
0100
0010
1000
0100
0010
,  // measure 43
0001
0000
1000
0001
1000
0001
1000
0000
0010
0000
0100
0000
0001
0000
1000
0000
,  // measure 44
0100
0010
0001
1000
0010
0100
0010
1000
,  // measure 45
0100
0010
0001
0000
1000
0100
0010
0001
,  // measure 46
0100
0010
1000
0001
0010
0100
1000
0001
,  // measure 47
1000
0000
0000
0000
0001
0000
0000
0000
1000
0100
0000
0000
0100
0010
0000
0000
,  // measure 48
0010
0001
0000
0000
0001
1000
0000
0000
1000
0000
0100
0000
0010
0000
0001
0000
,  // measure 49
0100
0000
0010
0000
1000
0000
0000
0000
0001
0010
0000
0000
0010
0100
0000
0000
,  // measure 50
0100
1000
0000
0000
1000
0001
0000
0000
0001
0000
0010
0000
0100
0000
1000
0000
,  // measure 51
0020
0000
1000
0000
1030
0100
0010
0001
,  // measure 52
0100
0010
0010
1000
0001
0010
0100
1000
,  // measure 53
0010
0100
0100
0001
1000
0100
0001
0100
,  // measure 54
0010
1000
0010
0001
0010
0100
1000
0010
,  // measure 55
0100
0000
0001
0010
1000
0100
0010
0001
,  // measure 56
0100
1000
0100
0010
0001
0000
0101
0000
,  // measure 57
0010
0000
1010
0000
1000
0100
0001
0010
,  // measure 58
1000
0010
0100
0001
0010
0010
0000
1001
,  // measure 59
0000
0000
0001
0010
0100
1000
0100
0001
,  // measure 60
0010
1000
0010
0100
0010
0010
0000
1001
,  // measure 61
0000
0000
1000
0100
0010
0001
0010
1000
,  // measure 62
0100
0001
0100
0010
0100
0100
0000
0110
,  // measure 63
0000
0000
0001
0010
0100
1000
0010
0001
,  // measure 64
0100
1000
0010
0100
0010
0010
0000
1010
,  // measure 65
0000
0000
0100
0100
0000
0000
0101
0000
,  // measure 66
1100
0000
0011
0000
1000
0100
0000
0100
,  // measure 67
0001
0000
0001
0010
0000
0010
2000
0000
,  // measure 68
0010
0000
3100
0000
0001
0010
0000
0010
,  // measure 69
1000
0000
1000
0100
0000
0100
0002
0000
,  // measure 70
0100
0000
0013
0000
1000
0010
0000
0010
,  // measure 71
0001
0000
0001
0100
0000
0100
2000
0000
,  // measure 72
0010
3100
1001
0100
,  // measure 73
0010
0000
1000
0010
0001
0100
0010
0000
,  // measure 74
1000
1000
1001
0000
0001
0010
0100
1000
,  // measure 75
0001
0010
0100
1000
0001
1000
0100
1000
,  // measure 76
0001
0100
0100
0001
1000
0100
0010
0001
,  // measure 77
1000
0100
0010
0001
1000
0001
0010
0001
,  // measure 78
0100
0000
0000
0000
;

//---------------dance-single - ----------------
#NOTES:
     dance-single:
     :
     Beginner:
     2:
     0.108,0.169,0.097,0.000,0.000:
0000
0000
0000
0000
,
0000
0000
0000
0000
,
0000
0000
0000
0000
,
0000
0000
1000
0000
,
0000
0000
0000
0000
,
0000
0000
0001
0000
,
0000
0000
0000
0000
,
1001
0000
0010
0000
,
0000
0000
0000
0000
,
0000
0000
0100
0000
,
0000
0000
0000
0000
,
0110
0000
1000
0000
,
1000
0000
0000
0000
,
0000
0000
0001
0000
,
0001
0000
0000
0000
,
0000
0000
0100
0000
,
0100
0000
0100
0000
,
0000
0000
0010
0000
,
0010
0000
0010
0000
,
0000
0000
1000
0000
,
1000
0000
1001
0000
,
0000
0000
0000
0001
,
0000
0000
0110
0000
,
0000
0000
0000
0000
,
0000
0000
0110
0000
,
0000
0000
0000
0000
,
0000
0000
1001
0000
,
0000
0000
0000
0000
,
0000
0000
1001
0000
,
0000
0001
0000
0000
,
0000
0000
0010
0000
,
0000
0000
0000
0000
,
0000
0000
0100
0000
,
0000
0000
0000
0000
,
0000
0000
1000
0000
,
0000
0000
0000
0000
,
0000
0000
0001
0000
,
0000
1000
0000
0000
,
0000
0000
0001
0000
,
0001
0000
0001
0000
,
0001
0000
1000
0000
,
0000
0000
0000
0000
,
0000
0000
1000
0000
,
1000
0000
1000
0000
,
1000
0000
0001
0000
,
0000
0000
0000
0000
,
0000
0000
0100
0000
,
0100
0000
0100
0000
,
0000
0000
0010
0000
,
0010
0000
0010
0000
,
0000
0000
1000
0000
,
0001
0000
1000
0000
,
0001
0000
0100
0000
,
0010
0000
0100
0000
,
0010
0000
1000
0000
,
0001
0000
1000
0000
,
0000
0000
0010
0000
,
0000
0000
0110
0000
,
0000
0000
0000
0000
,
0000
0000
0110
0000
,
0000
0000
0000
0000
,
0000
0000
1001
0000
,
0000
0000
0000
0000
,
0000
0000
1001
0000
,
0000
0000
0000
0000
,
0000
0000
0001
0000
,
0000
0000
0000
0000
,
0000
0000
0010
0000
,
0000
0000
0000
0000
,
0000
0000
0100
0000
,
0000
0000
0000
0000
,
0000
0000
1000
0000
,
0000
1000
0000
0000
,
0000
0000
0001
0000
,
1000
0000
0001
0000
,
1000
0000
0010
0000
,
0100
0000
0010
0000
,
0100
0000
0000
0000
;
