#TITLE:走馬灯;
#SUBTITLE:-The Last Song-;
#ARTIST:TAKA;
#TITLETRANSLIT:SOUMATOU;
#SUBTITLETRANSLIT:;
#ARTISTTRANSLIT:;
#CREDIT:DMAxel;
#BANNER:SOUMATOU -The Last Song-.png;
#BACKGROUND:SOUMATOU -The Last Song--bg.png;
#LYRICSPATH:;
#CDTITLE:beatmaniaIIDX.png;
#MUSIC:SOUMATOU -The Last Song-.mp3;
#OFFSET:-0.240;
#SAMPLESTART:83.853;
#SAMPLELENGTH:12.000;
#SELECTABLE:YES;
#DISPLAYBPM:68.000:85.000;
#BPMS:0.000=85.000,46.000=83.000,47.000=81.000,48.000=85.000,62.000=86.500,64.000=87.000,68.000=82.700,72.000=85.000,116.000=80.000,118.000=71.500,119.000=76.000,119.979=84.000,124.000=85.000,150.000=80.000,151.000=79.000,152.000=85.000,167.000=81.000,170.000=77.000,171.000=73.000,172.000=76.000,172.500=71.000;
#STOPS:;
#BGCHANGES:-0.500=SOUMATOU -The Last Song-.avi=1.000=1=1=0,
99999=-nosongbg-=1.000=0=0=0 // don't automatically add -songbackground-
;

//---------------dance-single - ----------------
#NOTES:
     dance-single:
     :
     Hard:
     5:
     0.282,0.289,0.241,0.140,0.027:
0000
0000
0000
0000
,
0000
0000
0000
0000
,
0000
0000
0000
0000
,
0000
0000
0000
0000
,
1001
0000
1000
0010
1000
0000
0001
0000
0002
0000
0000
0000
1000
0000
0000
0000
,
1003
0010
0100
0001
0010
0100
1000
0000
,
0010
1000
0100
0020
0000
0031
0010
0100
,
2000
0000
3002
0000
,
2003
0000
0000
3000
,
2002
0000
0000
3003
,
0011
0000
1010
0000
,
1000
0010
0100
0001
1000
0000
1010
0000
,
1001
0000
0000
0000
0000
0000
0001
0100
0001
0000
0000
0000
0100
0000
0010
1000
,
0000
1000
0010
0100
0001
0000
0011
0000
,
1002
0000
0000
0000
0000
0000
0000
0000
1003
0000
0001
0000
0100
0000
0010
1000
,
0000
0000
0010
1000
0010
1000
0010
0100
,
0001
0000
0000
0000
0000
0000
1000
0001
1000
0000
0000
0000
0010
0000
0010
0000
,
0001
0010
0100
1000
0010
1000
0100
0001
,
1000
1010
1000
1001
0000
0000
0000
1000
,
0001
0101
0001
1001
0000
0000
0000
0001
,
1000
1100
1000
1001
0000
0001
0001
0010
,
0000
0100
1000
0010
0000
0100
0010
0000
,
1000
1100
1000
1001
0000
0000
0000
1000
,
0001
0011
0001
1001
0000
0000
0000
0001
,
1000
1010
1000
0100
0010
0001
0100
0010
,
0000
1000
0010
0001
0000
0000
0010
0010
,
1001
0000
0000
0001
0000
0000
0010
0000
0001
0000
0000
0000
1000
0000
0010
0000
,
1000
0000
0000
1000
0000
0000
0100
0000
1000
0000
0100
0000
0010
0000
0002
0000
,
0000
0000
0013
0200
0000
1000
0000
0300
,
1002
0000
1000
1000
,
1003
0100
0010
0001
0000
0001
1000
0001
,
0011
1010
1001
1010
,
1000
0010
0100
0001
0000
0001
0010
0100
,
1100
1010
0101
1001
,
0001
0100
0010
0100
0000
0010
1000
0100
,
0010
0010
0001
1000
0000
0001
0010
2000
,
0000
0000
3100
0020
0000
0001
0000
0032
,
0000
1000
1000
1003
,
1000
0010
1000
0100
0010
0000
0001
0010
,
0100
0000
1000
0000
1000
0000
0010
0100
,
0010
1000
0100
0010
0001
0000
0001
0000
,
0001
0010
0100
1000
0010
0000
0010
0000
,
0220
0000
0330
0001
,
2002
0000
0000
3003
;

//---------------dance-single - ----------------
#NOTES:
     dance-single:
     :
     Easy:
     1:
     0.090,0.136,0.093,0.086,0.000:
0000
0000
0000
0000
,
0000
0000
0000
0000
,
0000
0000
0000
0000
,
0000
0000
0000
0000
,
0001
0000
0001
0000
,
1000
0000
1000
0000
,
0002
0000
0000
0000
,
2003
0000
3020
0000
,
2030
0000
0000
0000
,
3002
0000
0000
0003
,
0100
0000
0100
0000
,
0100
0000
0000
0000
,
0110
0000
0001
0000
,
0001
0000
0000
0000
,
1001
0000
0010
0000
,
0010
0000
0000
0000
,
0110
0000
1000
0000
,
1000
0000
0000
0000
,
1001
0000
0000
0000
,
1001
0000
0000
0000
,
1001
0000
0000
0000
,
1001
0000
0000
0000
,
0002
0000
0000
0103
0000
0000
0000
0000
,
0002
0000
0000
1003
0000
0000
0000
0000
,
2000
0000
0000
3010
0000
0000
0000
0000
,
2000
0000
0000
3001
0000
0000
0000
0000
,
1001
0000
0001
0000
,
0100
0000
0010
0000
,
0010
0000
0000
0000
,
0110
0000
0000
0000
,
1001
0000
0000
0000
,
1000
0000
1000
0000
,
0001
0000
0000
0000
,
0010
0000
0010
0000
,
0100
0000
0000
0000
,
1000
0000
1000
0000
,
0001
0000
0000
0000
,
0001
0000
0000
0000
,
0110
0000
0010
0000
,
0100
0000
0010
0000
,
1000
0000
0000
0000
,
0001
0000
0000
0000
,
1000
0000
0000
0000
,
2002
0000
0000
3003
;

//---------------dance-single - ----------------
#NOTES:
     dance-single:
     :
     Medium:
     4:
     0.213,0.238,0.202,0.054,0.000:
0000
0000
0000
0000
,
0000
0000
0000
0000
,
0000
0000
0000
0000
,
0000
0000
0000
0000
,
1001
0001
0001
0010
,
0100
1000
0100
1000
,
0010
0000
0000
0010
0000
0000
0000
0000
,
0010
0100
0010
0000
,
2000
0000
0000
0000
,
3002
0000
0000
0003
,
1001
0000
0000
0000
1000
0001
0010
0001
,
0001
0010
0100
1001
,
1001
0000
0000
1000
0001
0000
0100
0010
,
0100
0001
1000
1001
,
1001
0000
0000
0000
0000
0010
0001
0010
,
0000
0001
1000
1001
,
1001
0000
0000
1000
0010
0000
0010
0100
,
0010
1000
0001
0100
,
1001
0000
0010
0010
0000
0000
0000
0001
,
1001
0000
0100
0100
0000
0000
0000
1000
,
1001
0000
0010
0010
0000
0000
0000
0001
,
1001
0000
0100
0100
0000
0000
0000
1000
,
1001
0000
0010
0010
0000
0000
0000
0001
,
1001
0000
0100
0100
0000
0000
0000
1000
,
1001
0000
0010
0010
0000
0000
0000
0001
,
1001
0000
0100
0100
0000
0000
1000
0100
,
0001
0000
0001
0000
0001
0000
0001
0010
,
1000
0000
1000
0000
1000
0100
0010
0001
,
0100
0000
0001
0100
0000
0100
0000
0000
,
0220
0000
0000
0330
,
0001
0100
0001
1000
0000
0000
1000
0000
,
1001
1000
1001
0001
,
1000
0010
1000
0001
0000
0000
0001
0000
,
1001
0001
1001
1000
,
0001
0010
0001
1000
0000
0000
1000
0000
,
1001
1000
1001
0001
,
1000
0100
1000
0001
0000
0001
0000
1000
,
0000
0010
0010
0010
,
1001
0000
1000
0010
0100
0000
0001
0100
,
0001
0001
0010
0100
,
1000
0010
0100
0001
1000
0000
1000
0000
,
0001
0100
0010
1000
0001
0000
0001
0000
,
0102
0000
0000
1003
,
2002
0000
0000
3003
;

//---------------dance-single - ----------------
#NOTES:
     dance-single:
     :
     Beginner:
     1:
     0.046,0.067,0.016,0.000,0.000:
0000
0000
0000
0000
,
0000
0000
0000
0000
,
0000
0000
0000
0000
,
0000
0000
0000
0000
,
1000
0000
0000
0000
,
1000
0000
0000
0000
,
0001
0000
0000
0000
,
0001
0000
0000
0000
,
0010
0000
0000
0000
,
0100
0000
0000
0000
,
1000
0000
0000
0000
,
1000
0000
0000
0000
,
0001
0000
0000
0000
,
0000
0000
0000
0000
,
1000
0000
0000
0000
,
0001
0000
0000
0000
,
0001
0000
0000
0000
,
1000
0000
0000
0000
,
1000
0000
0000
0000
,
1000
0000
0000
0000
,
1000
0000
0000
0000
,
1000
0000
0000
0000
,
0001
0000
0000
0000
,
0001
0000
0000
0000
,
0001
0000
0000
0000
,
0001
0000
0000
0000
,
0100
0000
0000
0000
,
0100
0000
0000
0000
,
0010
0000
0000
0000
,
0010
0000
0000
0000
,
1000
0000
0000
0000
,
1000
0000
0000
0000
,
0001
0000
0000
0000
,
0001
0000
0000
0000
,
1000
0000
0000
0000
,
1000
0000
0000
0000
,
0001
0000
0000
0000
,
0001
0000
0000
0000
,
1001
0000
0000
0000
,
0001
0000
0000
0000
,
1000
0000
0000
0000
,
0001
0000
0000
0000
,
0001
0000
0000
0000
,
1001
0000
0000
0000
;

//---------------dance-single - ----------------
#NOTES:
     dance-single:
     :
     Challenge:
     6:
     0.352,0.409,0.412,0.140,0.051: // measure 1
0000
0000
0000
0000
,  // measure 2
0000
0000
0000
0000
,  // measure 3
0000
0000
0000
0000
,  // measure 4
0000
0000
0000
0000
,  // measure 5
1001
0000
0001
0010
0001
0000
1100
0000
1001
0000
0000
0000
1000
0000
0000
0000
,  // measure 6
1000
0010
0100
0001
0100
1000
0100
0000
,  // measure 7
1000
0010
0100
0002
0000
0013
0100
1000
,  // measure 8
0001
0010
1000
0010
0002
0000
0000
0000
,  // measure 9
0203
0000
0000
0300
,  // measure 10
2002
0000
0000
3003
,  // measure 11
1100
0000
0000
0000
0000
0000
0000
0000
0101
0000
0001
0000
1000
0000
0010
1000
,  // measure 12
0010
0010
1000
0010
0100
0001
0001
1000
,  // measure 13
1001
0000
1000
0000
0010
0000
0100
0001
0100
0000
0000
0000
0001
0000
0100
1000
,  // measure 14
0100
1000
0100
0001
0100
0000
1000
0001
,  // measure 15
2000
0000
0000
0000
0000
0000
0000
0000
3001
0000
1000
0000
0100
0000
0010
0001
,  // measure 16
0010
0000
0001
0010
1000
0010
0001
0010
,  // measure 17
0100
0000
0000
0000
0000
0000
1000
0001
1000
0000
0000
0000
0001
0000
1000
0000
,  // measure 18
0001
0010
1000
0100
0010
0001
0010
1000
,  // measure 19
1001
1100
1000
1001
0010
0001
0010
0001
,  // measure 20
1001
0011
0001
1001
0100
1000
0100
1000
,  // measure 21
1001
1010
1000
1001
0100
0001
0100
1000
,  // measure 22
0010
0000
1000
0000
0100
0000
0001
0000
0100
0000
0001
0000
1000
0100
1000
0000
,  // measure 23
1001
0101
0001
1001
0010
1000
0010
1000
,  // measure 24
1001
1010
1000
1001
0100
0001
0100
0001
,  // measure 25
1001
0101
0001
1001
0010
0100
1000
0100
,  // measure 26
0010
0000
0001
0000
0100
0000
2000
0000
0000
0000
0000
0000
3001
1000
0001
1000
,  // measure 27
0001
0000
0010
0001
0000
0000
1010
0000
1001
0000
0001
0000
1000
0001
1000
0001
,  // measure 28
1000
0000
0100
1000
0000
0000
0101
0000
1001
0000
0010
0000
0100
0000
2000
0000
,  // measure 29
0001
0000
3001
0200
0000
0001
0301
0000
,  // measure 30
1001
0000
0011
0011
,  // measure 31
1001
0010
0100
1000
0000
1000
0001
1000
,  // measure 32
1100
0101
1100
1001
,  // measure 33
1001
0100
0010
0001
0000
0001
1000
0001
,  // measure 34
0011
1010
0011
1001
,  // measure 35
1001
0010
0100
1000
0000
1000
0010
0100
,  // measure 36
0101
0000
1100
0000
1001
1000
0100
0020
,  // measure 37
0001
0000
0031
0200
0000
1000
0000
2300
,  // measure 38
0000
3001
1100
1100
,  // measure 39
1001
1000
0001
0010
0100
0000
1000
0100
,  // measure 40
0002
0000
1000
0000
1000
0000
1003
0010
,  // measure 41
0100
0001
0010
0100
2000
0000
0001
0000
,  // measure 42
3001
0100
0010
1000
0001
0000
0101
0000
,  // measure 43
0220
0000
0330
1010
,  // measure 44
2002
0000
0000
3003
;
