#TITLE:SOLID STATE SQUAD;
#SUBTITLE:;
#ARTIST:kors k Vs. L.E.D.;
#TITLETRANSLIT:;
#SUBTITLETRANSLIT:;
#ARTISTTRANSLIT:;
#CREDIT:DMAxel;
#BANNER:SOLID STATE SQUAD.png;
#BACKGROUND:SOLID STATE SQUAD-bg.png;
#LYRICSPATH:;
#CDTITLE:beatmaniaIIDX.png;
#MUSIC:SOLID STATE SQUAD.mp3;
#OFFSET:-8.040;
#SAMPLESTART:65.350;
#SAMPLELENGTH:12.000;
#SELECTABLE:YES;
#DISPLAYBPM:155.000;
#BPMS:0.000=155.000;
#STOPS:12.000=1.161
,205.000=1.161
,238.000=1.161
;
#BGCHANGES:-20.000=SOLID STATE SQUAD.avi=1.000=1=1=0,
99999=-nosongbg-=1.000=0=0=0 // don't automatically add -songbackground-
;

//---------------dance-single - ----------------
#NOTES:
     dance-single:
     :
     Easy:
     3:
     0.244,0.283,0.105,0.090,0.000:
1000
0000
1000
0000
,
0010
0000
0010
0000
,
1001
0000
0001
0000
,
0000
0110
0100
0010
,
0100
0010
0100
0010
,
0000
1000
0001
1000
,
0001
1000
0001
1000
,
0000
0001
0100
0010
,
0000
1000
0010
0100
,
0000
0001
0010
0100
,
0000
1000
0100
0010
,
0000
0001
1000
0001
,
0000
1000
0001
1000
,
0000
0010
1000
0010
,
0000
0100
0001
0100
,
0000
0010
0100
0010
,
0100
0001
1000
0001
,
0000
0100
0010
0100
,
0010
2000
0000
0000
,
0000
3001
0000
0001
,
0000
1001
0000
0000
,
0000
1000
0000
1000
,
0000
1001
0000
0001
,
0000
0100
0010
0100
,
0010
0100
0010
0100
,
0010
1000
0001
1000
,
0001
0010
0100
1000
,
0001
1001
0000
0000
,
0000
2000
0000
0000
,
0000
0000
0000
0000
,
0000
3002
0000
0000
,
0000
0000
0000
0000
,
0000
2003
0000
0000
,
0000
0000
0000
0000
,
0000
3002
0000
0000
,
0000
0000
0000
0000
,
0000
0103
0000
0010
,
0000
1000
0000
1000
,
0000
0010
0000
0100
,
0000
0001
0000
0001
,
0000
0010
0000
0100
,
0000
1000
0000
1000
,
0000
0100
0000
0010
,
0000
1001
0000
0000
,
0000
1002
0000
0000
,
0000
2003
0000
0000
,
0000
3010
0000
0210
0000
0000
0000
0000
,
0000
0302
0000
0000
,
0000
0003
2001
0000
,
0000
0000
3002
0000
,
0000
0103
0000
0010
0000
0100
0000
0000
,
0000
1001
1001
1000
,
0001
1000
0010
0100
,
0010
0100
0001
0100
,
0001
0100
0010
1000
,
0010
1000
0100
0010
,
0001
1000
0100
0010
,
0001
1000
0010
0100
,
0010
0100
0001
0001
,
0001
0001
1001
0001
,
0100
0001
0100
0010
,
1000
0010
1000
0100
,
0010
0001
1000
0010
,
0100
0001
1000
0010
,
0100
0010
0100
0010
,
1000
0010
1000
0001
,
0010
0100
1000
0001
,
0100
0010
1000
0001
,
0100
0001
0100
0010
,
0100
0010
0100
0010
,
1000
0100
0010
0001
,
1000
0000
0000
1001
,
0010
0100
1000
0001
,
0010
0100
1000
0010
,
0100
0010
1000
0200
,
0000
0000
0300
1001
;

//---------------dance-single - ----------------
#NOTES:
     dance-single:
     :
     Hard:
     8:
     0.530,0.569,0.284,0.172,0.093: // measure 1
0001
0100
0001
0000
0001
0100
0001
0000
,  // measure 2
1000
0100
0010
0000
0100
0010
0001
0000
,  // measure 3
1001
0000
1001
0000
1000
0100
1000
0000
,  // measure 4
0000
0000
0001
0100
0001
0100
0001
0100
,  // measure 5
0001
0100
0001
0100
0001
0100
0002
0000
,  // measure 6
0000
0000
1003
0100
1000
0100
1000
0100
,  // measure 7
1000
0100
1000
0100
1000
0100
2000
0000
,  // measure 8
0000
0000
3001
0100
0001
1000
0100
0010
,  // measure 9
0000
0001
0000
1000
0000
0010
0100
0001
,  // measure 10
0001
0000
1000
0010
1000
0001
0010
0100
,  // measure 11
0000
1000
0000
0001
0000
0100
0010
1000
,  // measure 12
1000
0000
0001
0010
0100
1000
0001
0100
,  // measure 13
0000
0001
0000
0101
0000
0100
1000
0001
,  // measure 14
0001
0000
1000
0100
0010
0001
1000
0010
,  // measure 15
0000
1000
0000
1010
0000
0010
0001
1000
,  // measure 16
0100
1000
0001
0100
0010
1000
0100
0010
,  // measure 17
0100
1000
0000
1001
0000
1000
0010
0100
,  // measure 18
0010
0000
1000
0010
0100
0001
0010
0100
,  // measure 19
0010
0001
2000
0000
0001
0000
0001
0000
,  // measure 20
3000
1001
0000
0100
,  // measure 21
0000
1100
0000
0020
,  // measure 22
0000
0030
1001
0000
0001
0000
0011
0000
,  // measure 23
1000
1100
0001
1001
,  // measure 24
0100
0110
1010
1000
,  // measure 25
1010
1000
0101
0001
,  // measure 26
0101
0000
0001
0100
0010
0100
0001
1000
,  // measure 27
0010
0100
0010
1000
0001
0010
0100
1000
,  // measure 28
0001
0100
0220
0000
0000
0000
0000
0000
,  // measure 29
0330
0000
0002
0000
1003
0200
0000
0000
,  // measure 30
0000
0000
0000
0000
0000
0000
1300
0001
,  // measure 31
0010
0200
0000
0000
0000
0000
0000
0000
,  // measure 32
1300
0002
0000
0023
0000
0000
0000
0000
,  // measure 33
0000
0000
0000
0000
0032
0000
0103
0020
,  // measure 34
0000
2030
0000
0000
0000
0000
0000
3001
,  // measure 35
0000
0000
0100
0000
0020
0000
0000
2030
0000
0000
0000
0000
0000
0000
0000
0000
,  // measure 36
0000
3002
0000
0203
0000
0302
0000
2003
,  // measure 37
0000
3001
0101
0000
0100
0000
0101
0000
,  // measure 38
0100
0000
0100
0001
1000
0000
0100
0010
,  // measure 39
0001
1010
0010
1010
,  // measure 40
0010
0000
0000
0000
0010
0000
0000
1000
0000
0000
0001
0000
0010
0000
0000
0000
,  // measure 41
0011
0000
0100
1000
0100
0000
0100
1000
,  // measure 42
0100
0000
1000
0001
0100
0000
0001
0010
,  // measure 43
0100
0000
0010
0001
0010
0000
0010
0001
,  // measure 44
0010
0000
1002
0000
0000
0000
0000
1000
,  // measure 45
1000
1003
0100
0010
0001
1000
0000
0100
,  // measure 46
0000
1000
0000
0001
0000
0100
0000
0001
,  // measure 47
0000
0101
0000
0110
0000
1000
0000
0010
,  // measure 48
0000
0100
0001
0010
0000
0100
1000
0010
,  // measure 49
0100
0001
1000
0000
1001
0100
0010
0001
,  // measure 50
0000
0100
0000
0001
0000
1000
0000
0100
,  // measure 51
0000
1100
0000
0101
0000
0100
0001
1000
,  // measure 52
0000
0001
1001
0000
1000
0100
0010
0001
,  // measure 53
0100
0000
1000
0100
0000
0001
0100
0000
0001
0000
0010
0000
0100
0000
1000
0000
,  // measure 54
0100
0000
0001
0100
0000
1000
0100
0000
1000
0000
0010
0000
0100
0000
0001
0000
,  // measure 55
0010
0000
1000
0010
0000
0001
0010
0000
0001
0000
0100
0000
0010
0000
1000
0000
,  // measure 56
0010
0000
0001
0010
0000
1000
0010
0000
0100
0000
0001
0000
0100
0000
1000
0000
,  // measure 57
1001
0010
0100
1000
0100
0001
0100
1000
,  // measure 58
1001
0000
0010
0000
0100
0000
1000
0000
0001
0100
0001
0000
1000
0000
0100
0000
,  // measure 59
1000
0001
1000
0000
0001
0000
0010
0000
0100
0000
0000
0000
0110
0000
0000
0000
,  // measure 60
0010
0000
0110
0000
1001
0000
1000
0100
,  // measure 61
1000
0001
0100
0001
1000
0100
1000
0001
,  // measure 62
0100
0001
1000
0100
0001
0100
1000
0010
,  // measure 63
0100
0000
0000
0001
0000
0000
0100
0000
0000
0010
0000
0000
1000
0000
0010
0000
,  // measure 64
0100
0000
0000
0001
0000
0000
1000
0000
0000
0000
0000
0000
0001
0000
0010
0000
,  // measure 65
0001
1000
0010
1000
0001
0010
0001
1000
,  // measure 66
0100
0010
0001
1000
0010
0100
0010
1000
,  // measure 67
0100
0000
0000
0001
0000
0000
0100
0000
0000
1000
0000
0000
0100
0000
0010
0000
,  // measure 68
0100
0000
0000
1000
0000
0000
0100
0000
0000
0001
0000
0000
0100
0000
1000
0000
,  // measure 69
0010
0100
0001
0100
1000
0100
0001
1000
,  // measure 70
0010
0100
0001
0100
1000
0100
0001
0100
,  // measure 71
0010
0000
0000
1000
0000
0000
0010
0000
0000
0001
0000
0000
0010
0000
1000
0000
,  // measure 72
0001
0000
0000
1000
0000
0000
0110
0000
0000
0110
0000
0000
1001
0000
0010
0000
,  // measure 73
0100
1000
0010
0100
0001
0100
1000
0100
,  // measure 74
0010
0000
1000
0000
0100
0000
0001
0000
0100
0000
0010
0000
0001
0100
0001
0000
,  // measure 75
0010
0000
0100
0000
1000
0010
1000
0000
0010
0000
0100
0000
0001
0000
1000
0000
,  // measure 76
0000
1000
0000
1000
0000
1000
0220
0000
,  // measure 77
0000
0330
0000
0000
;

//---------------dance-single - ----------------
#NOTES:
     dance-single:
     :
     Challenge:
     9:
     0.630,0.683,0.343,0.194,0.314: // measure 1
1000
0010
0100
0000
0010
0100
0001
0000
,  // measure 2
0010
0100
1000
0001
0010
0100
0010
0001
,  // measure 3
1001
0000
0101
0000
0010
1000
0100
0000
,  // measure 4
0000
1001
1100
1001
,  // measure 5
1100
0000
0110
0000
0101
0000
0010
1000
,  // measure 6
0100
1001
0101
1001
,  // measure 7
0101
0000
0110
0000
1100
0000
0010
0001
,  // measure 8
0100
0000
0001
0100
0010
1000
0100
0010
,  // measure 9
0100
1000
0001
0010
0100
1000
0010
0000
,  // measure 10
0110
0000
1000
0010
0100
0001
0010
0100
,  // measure 11
0010
0001
1000
0010
0100
0000
0100
0000
,  // measure 12
0110
0000
0000
0000
1000
0000
0010
1000
0010
0000
0100
0000
0001
0000
0010
0000
,  // measure 13
0100
1000
0010
0100
0001
0010
1000
0010
,  // measure 14
0001
0000
1000
0000
0001
0000
0100
0001
0100
0000
0010
0000
1000
0000
0100
0000
,  // measure 15
0010
0001
0100
0010
1000
0100
0001
0100
,  // measure 16
1000
0000
0100
1000
0100
0010
0100
1000
,  // measure 17
0001
0100
1000
0100
0010
1000
0100
0001
,  // measure 18
0100
0010
0001
0001
1000
1000
0001
0010
,  // measure 19
0100
1000
0020
0000
0100
0000
0200
0000
,  // measure 20
0330
2020
3030
0020
,  // measure 21
0030
0220
0330
0200
,  // measure 22
0300
0101
0100
0110
,  // measure 23
0010
1010
1000
1001
,  // measure 24
0010
0110
0101
0110
,  // measure 25
0101
0110
1010
0110
,  // measure 26
1010
0000
0000
0000
0100
0000
0001
0000
1000
0100
1000
0000
0001
0000
0010
0000
,  // measure 27
0100
0000
1000
0000
0001
0100
0001
0100
0001
0100
0001
1000
0100
1000
0100
1000
,  // measure 28
0010
0100
0010
0100
0020
0000
0000
0000
0000
0000
0000
0000
0000
0000
0000
0000
,  // measure 29
0030
0000
2001
0000
3001
0200
0000
0000
,  // measure 30
0000
0000
0000
0000
0000
0000
0301
0010
,  // measure 31
0100
2000
0000
0000
0000
0000
0000
0000
,  // measure 32
3010
0200
0000
0302
0000
0000
0000
0000
,  // measure 33
0000
0000
0000
0000
2003
0000
3001
0200
,  // measure 34
0000
0302
0000
0000
0000
0000
0000
1003
,  // measure 35
0000
0000
0010
0000
0200
0000
0000
0302
0000
0000
0000
0000
0000
0000
0000
0000
,  // measure 36
0000
2003
0000
3020
0000
0230
0000
0302
,  // measure 37
0000
1003
0010
1000
0100
0000
0010
0001
,  // measure 38
0100
0000
0010
1000
0001
0010
0100
1000
,  // measure 39
0001
0000
0100
0001
0010
0000
0100
1000
,  // measure 40
0010
0000
0000
0000
0100
0000
0000
0100
0000
0000
0100
0000
0001
1000
0001
0000
,  // measure 41
1000
0000
0100
1000
0010
0000
0100
0001
,  // measure 42
0010
0000
0100
1000
0010
0100
0001
0010
,  // measure 43
0100
0000
1000
0001
0100
0000
0001
1000
,  // measure 44
0010
1000
2001
0000
0000
0000
0000
0001
,  // measure 45
0001
3001
0100
0010
0000
1000
0000
0100
,  // measure 46
0000
0001
0000
0100
0000
1000
0001
0100
,  // measure 47
0000
0101
0000
1001
0000
0010
0000
0100
,  // measure 48
1000
0010
0000
0100
0001
0010
0100
1000
,  // measure 49
0001
0100
0001
0000
1001
0000
0001
0100
,  // measure 50
0010
1000
0100
0010
0000
0001
1000
0010
,  // measure 51
0000
0101
0000
1100
0000
0010
0001
1000
,  // measure 52
0010
1000
1001
0000
1000
0100
0010
0001
,  // measure 53
1000
0000
0010
0100
0000
0001
0100
0000
0001
0000
0010
0000
0100
0000
1000
0000
,  // measure 54
0001
0000
0100
0010
0000
1000
0100
1000
0100
0000
0010
0000
0100
0000
1000
0000
,  // measure 55
0001
0000
0100
0010
0000
0100
0001
0000
0010
0000
0100
0000
0010
0000
0001
0000
,  // measure 56
1000
0000
0010
0100
0000
0001
0100
0000
0010
1000
0010
1000
0010
1000
0010
1000
,  // measure 57
0010
0000
0100
0000
0001
0000
1000
0000
0001
0100
0001
0100
0001
0100
0001
0100
,  // measure 58
0001
0000
0010
0000
0100
0000
1000
0000
0010
0100
0010
0100
0010
0100
0010
0000
,  // measure 59
1000
0001
1000
0001
1000
0001
1000
0000
0010
0000
0000
0000
0110
0000
0000
0000
,  // measure 60
1001
0000
1001
0000
0110
0000
0010
0100
,  // measure 61
0001
0100
0000
0001
1000
0000
0100
0000
0010
0000
0100
0000
1000
0000
0001
0000
,  // measure 62
0100
0001
0000
1000
0001
0000
0010
0000
0100
0000
0010
0000
0001
0000
0100
0000
,  // measure 63
0010
1000
0000
1000
0010
0000
0100
0010
0000
0100
0010
0000
1000
0000
0010
0000
,  // measure 64
0100
0001
0000
0001
0100
0000
0010
0100
0000
0010
0100
0000
0010
0000
0100
0000
,  // measure 65
0001
0100
0000
0001
1000
0000
0100
0000
0010
0000
0100
0000
1000
0000
0001
0000
,  // measure 66
0100
0001
0000
1000
0001
0000
0010
0000
0100
0000
0010
0000
0001
0000
1000
0000
,  // measure 67
0001
0100
0000
0100
0001
0000
0100
0010
0000
0100
0010
0000
1000
0000
0001
0000
,  // measure 68
1000
0010
0000
0010
1000
0000
0010
0100
0000
0010
0100
0000
0001
0000
1000
0000
,  // measure 69
0001
0100
0000
0001
1000
0000
0100
0000
0001
0000
0100
0000
1000
0000
0010
0000
,  // measure 70
0100
0001
0000
1000
0100
0000
0010
0000
0001
0000
1000
0000
0001
0000
1000
0000
,  // measure 71
0001
0100
0000
0100
0010
0000
0100
0010
0000
1000
0010
0000
1000
0000
0001
0000
,  // measure 72
1000
0010
0000
0010
0100
0000
0101
0000
0000
0101
0000
0000
1001
0000
0100
0000
,  // measure 73
0010
0001
0000
0100
0010
0000
1000
0000
0001
1000
0001
0000
0010
0000
0100
0000
,  // measure 74
1000
0010
0000
0100
0010
0000
0100
0000
0001
1000
0001
0000
1000
0010
1000
0010
,  // measure 75
0100
0010
0100
0000
0001
0100
0001
0100
0010
0100
0010
0000
1000
0000
0100
0000
,  // measure 76
0010
0001
0010
0100
1000
0010
0220
0000
,  // measure 77
0000
0330
0000
0000
;

//---------------dance-single - ----------------
#NOTES:
     dance-single:
     :
     Medium:
     6:
     0.465,0.484,0.448,0.216,0.004:
1000
1100
1000
1100
,
0002
1003
0002
1003
,
1001
0011
0001
1001
,
0000
1001
0001
0011
,
0001
0000
1001
0000
1000
0000
1000
0001
,
1000
1001
1000
1100
,
1000
0000
1001
0000
0001
0000
0001
1000
,
0001
0000
1000
0100
1000
0000
0100
1000
,
0100
1000
1001
0010
,
0110
0000
0001
0010
0001
0000
0010
0001
,
0010
0001
1001
0100
,
0110
0000
1000
0010
0100
0000
0001
0100
,
0000
0010
0000
0100
0000
0010
1000
0000
,
1000
0000
0001
0100
0010
0000
1000
0010
,
0000
0100
0000
0010
0000
0100
0000
0001
,
0000
1000
0001
0100
0010
0000
1000
0010
,
0000
0100
0000
0010
0000
0100
0001
0000
,
0001
0000
1000
0100
1000
0100
1000
0001
,
0010
0001
0020
0000
0000
0000
0000
0000
,
0030
1001
0000
0001
,
0000
1001
0000
1000
,
0000
1001
0100
0110
,
0100
0110
0010
0110
,
0010
0110
1001
0001
,
0101
1000
1001
1000
,
1010
0000
0010
0100
0010
0000
0010
1000
,
0010
0000
0100
0010
0100
0000
0100
0001
,
0100
0220
0000
0000
,
0330
0000
2000
0000
0000
0200
0000
0000
,
0000
0000
0000
0000
3300
0000
0010
0001
,
2000
0002
0000
0000
0000
0000
3003
0000
,
0001
0020
0000
0002
0000
0000
0000
0000
,
0000
0000
0033
0000
1000
0000
0010
0200
,
0000
0002
0000
0000
0000
0300
0000
1003
,
0000
0020
0000
0000
,
0000
1030
0000
0100
0000
0010
0000
0001
,
0000
1000
0020
0000
0130
0000
0020
0000
,
0130
1000
1001
0001
,
1001
0200
0310
0200
,
0310
1000
1001
0001
,
1001
0020
0130
0020
,
0130
0001
1001
1000
,
1001
0200
0310
0200
,
0310
2002
0000
0000
,
3003
0000
0001
1000
0000
0100
0000
1000
,
0000
0010
0000
0100
0000
0001
0000
0010
,
0000
1001
0000
1001
0000
0001
0000
0100
,
0000
0010
0000
0100
0000
0001
0000
1000
,
0000
0010
0000
0000
1001
0000
0000
1000
,
0000
0010
0000
0100
0000
0010
0000
1000
,
0000
1001
0000
1001
0000
0001
0000
1000
,
0000
0002
1003
0000
0001
0100
0001
0100
,
0001
0010
0100
1000
0010
1000
0010
1000
,
0010
1000
0100
0010
0001
1000
0001
1000
,
0001
1000
0100
0010
0001
0100
0010
1000
,
0100
0001
0100
1000
0001
0010
0001
0010
,
0001
0100
0010
1000
0100
1000
0100
1000
,
0100
1000
0010
0100
0001
1000
0001
0010
,
0100
1000
0001
0100
0020
0000
0100
0000
,
0100
0130
1001
0001
,
0101
0001
0101
0001
,
1001
0000
1000
0010
1000
0001
0010
0000
,
0011
1001
1100
0100
,
1100
1001
0011
1000
,
1010
1000
1010
1000
,
1001
0000
0001
0100
0001
1000
0100
0000
,
1100
0000
1001
0000
0011
0000
0100
1000
,
0010
0000
0100
0001
0010
0000
0001
1000
,
0001
1000
0001
0010
0100
0000
1000
0001
,
1000
0001
1000
0100
0010
0000
0001
0100
,
0010
0000
1000
0100
1000
0000
0001
0100
,
0010
0000
1000
0000
0000
0000
0001
0000
0000
0001
0000
0000
1001
0000
0000
0000
,
1100
0000
1001
0000
0011
0000
0100
1000
,
0100
1000
0001
0100
0001
1000
0100
0010
,
0001
1000
0100
0001
0100
1000
0002
0000
,
0000
0000
0003
0220
,
0000
0330
0000
0000
;

//---------------dance-single - ----------------
#NOTES:
     dance-single:
     :
     Beginner:
     2:
     0.099,0.170,0.075,0.000,0.000:
1000
0000
0000
0000
,
0000
0000
0000
0000
,
0001
0000
0000
0000
,
0000
1001
0000
0000
,
0000
0000
0000
0000
,
0000
1000
0000
0000
,
0000
0000
0000
0000
,
0000
0001
0000
0100
,
0000
0001
0000
0000
,
0000
1000
0000
0100
,
0000
1000
0000
0000
,
0000
0001
0000
1000
,
0000
0001
0000
0000
,
0000
0100
0000
0010
,
0000
0100
0000
0000
,
0000
0010
0000
0100
,
0000
0010
0000
0000
,
0000
1000
0000
0001
,
0000
1001
0000
0000
,
0000
1000
0000
0000
,
0000
1000
0000
0000
,
0000
1000
0000
0000
,
0000
0001
0000
0000
,
0000
0001
0000
0000
,
0000
0100
0000
0000
,
0000
0010
0000
0000
,
0000
1000
0000
0000
,
0000
1000
0000
0000
,
0000
1001
0000
0000
,
0000
0000
0000
0000
,
0000
0000
0000
0000
,
0000
0000
0000
0000
,
0000
0000
0000
0000
,
0000
0000
0000
0000
,
0000
0000
0000
0000
,
0000
0000
0000
0000
,
0000
0001
0000
0000
,
0000
1000
0000
0000
,
0000
0001
0000
0000
,
0000
0001
0000
0000
,
0000
1000
0000
0000
,
0000
1000
0000
0000
,
0000
0010
0000
0000
,
0000
0100
0000
0000
,
0000
0010
0000
0000
,
0000
0000
0000
0000
,
0000
0000
0000
0000
,
0000
0000
0000
0000
,
0000
0000
1001
0000
,
0000
0000
0000
0000
,
0000
0000
0000
0000
,
0000
0000
1000
0000
,
0000
0000
0001
0000
,
0000
0000
1000
0000
,
0000
0000
0100
0000
,
0000
0000
0010
0000
,
0001
0000
0010
0000
,
0001
0000
1000
0000
,
0001
0000
1000
0000
,
0000
0000
0000
0001
,
0000
1000
0000
0001
,
0000
1000
0000
0001
,
0000
0010
0000
0100
,
0000
1000
0000
0010
,
0000
0100
0000
0010
,
0000
0100
0000
0010
,
0000
1000
0000
0001
,
0000
0100
0000
0001
,
0000
1000
0000
0001
,
0000
1000
0000
0001
,
0000
0010
0000
0100
,
0000
1000
0000
0110
,
0000
0000
0000
0110
,
0000
0000
0000
1001
,
0000
1001
0000
1001
,
0000
0000
0000
1001
;
