#TITLE:SLEIGH RIDE;
#SUBTITLE:;
#ARTIST:MC F 40;
#TITLETRANSLIT:;
#SUBTITLETRANSLIT:;
#ARTISTTRANSLIT:;
#CREDIT:DMAxel;
#BANNER:SLEIGH RIDE.png;
#BACKGROUND:SLEIGH RIDE-bg.png;
#LYRICSPATH:SLEIGH RIDE.lrc;
#CDTITLE:Dancemania Christmas SPEED.png;
#MUSIC:SLEIGH RIDE.mp3;
#OFFSET:-0.040;
#SAMPLESTART:9.583;
#SAMPLELENGTH:12.000;
#SELECTABLE:YES;
#BPMS:0.000=181.800;
#STOPS:;
#BGCHANGES:;

//---------------dance-single - ----------------
#NOTES:
     dance-single:
     :
     Easy:
     3:
     0.221,0.289,0.227,0.021,0.000:
0000
0000
0000
0000
,
0000
0000
0000
0000
,
0000
0000
0000
0000
,
0000
0000
0000
0000
,
0000
0000
0000
0000
,
0000
0000
0000
0000
,
0000
0000
0000
0000
,
0000
0000
0000
0000
,
0001
0000
1000
0000
,
0001
0000
1000
0000
,
0001
0000
0000
0000
,
1000
0000
0000
0000
,
1000
0000
0001
0000
,
1000
0000
0001
0000
,
1000
0000
0000
0000
,
0001
0000
0001
0000
,
1001
0000
1000
0000
,
0001
0000
1000
0000
,
0010
0000
0100
0000
,
0010
0000
1000
0000
,
1001
0000
0001
0000
,
1000
0000
0001
0000
,
0100
0000
0010
0000
,
0100
0000
0000
0000
,
1001
0000
0010
0000
,
1001
0000
0000
0000
,
0100
0000
1000
0000
,
0001
0000
0000
0000
,
1001
0000
0100
0000
,
1001
0000
0100
0000
,
0001
0000
1000
0000
,
0001
0000
1000
0000
,
1001
0000
0010
0000
,
1001
0000
0010
0000
,
1001
0000
0010
0000
,
1000
0000
0100
0000
,
2001
0000
0000
0000
,
3000
0000
0000
0000
,
0002
0000
0000
0000
,
0003
1000
1000
1000
,
1001
0000
0001
0000
,
0001
0010
0001
0000
,
1000
0000
0001
0000
,
1000
0000
1000
0100
,
1000
0000
0001
0000
,
1000
0000
0010
0000
,
0100
0000
0010
0000
,
1000
1000
1000
1000
,
1001
0000
0001
0000
,
1000
0000
0100
0000
,
1000
0000
0001
0000
,
0010
0000
0001
0000
,
0001
0000
1001
0000
,
1001
0000
0000
0000
,
1001
0000
0001
0000
,
0001
0100
0001
0000
,
1001
0000
1000
0000
,
1000
0010
1000
0000
,
1001
0000
0001
0000
,
0001
0010
0001
0000
,
1001
0000
1000
0000
,
1100
0000
0000
0000
,
1001
0000
1000
0000
,
1000
0010
1000
0001
,
1000
0000
0001
0000
,
0001
0100
0001
1000
,
0001
0000
0001
0000
,
1000
0010
1000
0001
,
1000
0000
0001
0000
,
0011
0000
0000
0000
,
1001
0000
0000
0000
;

//---------------dance-single - ----------------
#NOTES:
     dance-single:
     :
     Hard:
     7:
     0.593,0.651,0.713,0.052,0.000:
0000
0000
0000
0000
,
0000
0000
0000
0000
,
0000
0000
0000
0000
,
0000
0000
0000
0000
,
0000
0000
0000
0000
,
0000
0000
0000
0000
,
0000
0000
0000
0000
,
0000
0000
0000
0000
,
1000
0010
0100
0000
0001
0100
0010
0000
,
1000
0010
0100
0000
0001
0100
0010
0000
,
2002
0000
0000
3003
,
0000
0010
0000
0100
0000
0010
1000
0000
,
0001
0100
0010
0000
1000
0010
0100
0000
,
0001
0100
0010
1000
0001
1000
0100
0000
,
2002
0000
0000
3003
,
0100
0010
0100
0001
,
1000
0010
0100
0000
0001
0100
0010
0000
,
1000
0010
0100
0001
1000
0001
0010
0000
,
0001
0010
1000
0000
0001
0000
1000
0000
,
0001
0010
0100
1000
,
0001
0100
0010
0000
1000
0010
0100
0000
,
0001
0100
0010
1000
0001
1000
0100
0000
,
1010
0011
1010
0011
,
1001
0000
1001
0000
1001
0000
0010
1000
,
0001
0000
0010
1000
0001
0000
0010
1000
,
0001
0010
0100
0000
1000
0001
0010
0000
,
1001
0000
1000
0000
1000
0100
0010
0001
,
0200
0000
0001
0001
0000
0000
0301
0000
,
1001
0000
0001
0100
0001
0100
0001
0000
,
0010
0000
0100
0000
1000
0010
0100
0000
,
1010
0001
1010
0001
,
0101
0000
1000
0000
0101
0000
1000
0001
,
0010
0000
1000
0001
0010
0000
1000
0001
,
0010
0100
1000
0000
0010
1000
0001
0000
,
1001
0000
1000
0010
1000
0010
1000
0000
,
0100
0010
0001
1000
,
1000
0001
1000
0001
1000
0100
0010
0001
,
0100
0010
0100
0001
,
0100
1000
0010
0001
,
1000
1100
1100
1100
,
1001
0000
0101
0000
0100
0001
1000
0000
,
1001
0000
1010
0000
0010
1000
0001
0000
,
0001
0100
0001
0000
0001
0100
0001
0000
,
1001
0010
0100
1000
,
1001
0000
1010
0000
0010
1000
0001
0000
,
1001
0000
0101
0000
0100
0001
1000
0000
,
1000
0010
1000
0000
1000
0010
1000
0000
,
1001
0000
1010
0000
0000
0011
0000
0000
,
1001
0000
0101
0000
0100
0010
1000
0000
,
1001
0000
1010
0000
0010
0100
0001
0000
,
0001
0010
0001
0000
0001
1000
0001
0010
,
0100
1100
0101
1001
,
0001
1000
0001
1000
0001
1000
0100
1000
,
0100
0101
0101
1100
,
1010
1010
0011
0101
,
1001
0000
1000
0001
0000
0001
0100
0010
,
1000
0101
0101
1100
,
1001
0000
0001
1000
0000
1000
0010
0100
,
0001
0011
1010
0011
,
1001
0000
1000
0001
0000
0001
0100
0010
,
1000
1100
0101
1100
,
1001
1001
1001
1001
,
0001
0100
0001
0010
0001
0100
0001
0010
,
0001
1000
0100
0010
0000
0011
0000
0001
,
1000
0100
1000
0010
1000
0100
1000
0010
,
1000
0001
0010
0100
0000
1100
0000
1000
,
0001
0010
0001
0100
0001
0010
0001
0100
,
0001
1000
0010
0100
0000
0101
0000
0001
,
1000
0100
1000
0010
1000
0100
1000
0001
,
0101
1100
0011
1010
,
1001
0000
0000
0000
;

//---------------dance-single - ----------------
#NOTES:
     dance-single:
     :
     Challenge:
     8:
     0.670,0.687,0.816,0.010,0.026: // measure 1
0000
0000
0000
0000
,  // measure 2
0000
0000
0000
0000
,  // measure 3
0000
0000
0000
0000
,  // measure 4
0000
0000
0000
0000
,  // measure 5
0000
0000
0000
0000
,  // measure 6
0000
0000
0000
0000
,  // measure 7
0000
0000
0000
0000
,  // measure 8
0000
1000
0100
0010
,  // measure 9
0101
1001
0101
1001
,  // measure 10
1010
1001
1010
1001
,  // measure 11
0001
0100
0001
0000
1000
0100
1000
0000
,  // measure 12
0001
1000
0000
1000
0000
0010
1000
0010
,  // measure 13
0001
0000
0101
0000
0100
0001
1000
0001
,  // measure 14
0010
0100
1000
0000
1010
0000
1001
0000
,  // measure 15
1000
0010
1000
0000
0001
0010
0001
0000
,  // measure 16
1000
0010
1000
0001
0010
0001
0010
0000
,  // measure 17
1001
1100
1001
1100
,  // measure 18
1001
0011
1001
0011
,  // measure 19
0001
1000
0100
1000
0000
1000
0001
0010
,  // measure 20
0000
0010
0001
0100
0001
0010
0001
0000
,  // measure 21
1001
0000
0101
0000
1001
0000
1000
0010
,  // measure 22
1000
0001
0100
0001
1000
0000
1100
0000
,  // measure 23
1001
0000
0000
0000
1001
0000
0000
0000
0100
0001
0100
0000
0001
0000
0001
0000
,  // measure 24
1000
0100
1000
0001
1000
0100
1000
0001
,  // measure 25
0010
0000
1000
0001
0010
0000
1000
0001
,  // measure 26
0010
1000
0100
0010
0001
1000
0001
0000
,  // measure 27
1001
0000
0101
0000
1001
1000
0010
0100
,  // measure 28
0001
0000
0001
2000
0000
0000
3010
0010
,  // measure 29
1010
0000
1001
0000
1010
0000
1001
0001
,  // measure 30
0100
0000
0010
0000
1000
0000
0010
0000
0100
0000
0001
0000
0100
0000
0000
0001
,  // measure 31
0100
0000
0000
0000
0010
0000
0000
1000
0010
0000
0000
0000
0100
0000
0000
0001
,  // measure 32
0100
0000
0000
0000
0010
0000
0000
1000
0010
0000
1000
0000
1000
0000
0001
0000
,  // measure 33
0010
0000
1000
0001
0010
0000
1000
0001
,  // measure 34
0010
1000
0100
0010
0001
1000
0001
0000
,  // measure 35
1001
0000
1001
0000
0011
0000
1001
0001
,  // measure 36
0100
0010
1000
0000
0001
1000
0001
0000
,  // measure 37
1000
0010
1000
0010
1000
0001
0010
0000
,  // measure 38
1000
0000
0010
0000
0100
0010
0100
0001
,  // measure 39
0100
0001
1000
0001
,  // measure 40
0001
0011
0011
0011
,  // measure 41
1001
1000
0010
0000
0001
1000
0010
0000
,  // measure 42
0001
1000
0010
0001
0010
0100
1000
0010
,  // measure 43
0100
0010
1000
0000
1000
0010
1000
0000
,  // measure 44
1000
0001
1000
0001
0010
0100
1000
0000
,  // measure 45
1001
0000
1100
0000
1001
1000
0010
0100
,  // measure 46
0001
0000
0001
0100
0010
0100
0001
0000
,  // measure 47
0001
0100
0001
0000
0001
1000
0001
0000
,  // measure 48
1001
0000
0101
0000
0000
0100
1000
0000
,  // measure 49
1001
0001
0100
0000
1000
0001
0100
0000
,  // measure 50
1000
0001
0100
1000
0100
0010
0001
1000
,  // measure 51
0010
0100
0010
0000
0010
1000
0010
0000
,  // measure 52
1010
1010
0011
1001
,  // measure 53
1001
0001
0100
0010
1000
0001
0100
0010
,  // measure 54
1000
0100
1000
0100
1100
0000
0101
0000
,  // measure 55
1001
1001
0011
1010
,  // measure 56
0110
0000
0001
1001
0000
0110
0000
1000
,  // measure 57
1001
1001
1100
0101
,  // measure 58
0110
0000
1000
1001
0000
0110
0000
0001
,  // measure 59
1001
1001
0011
1010
,  // measure 60
0110
0000
0001
1001
0000
0110
0000
1000
,  // measure 61
1001
0000
1001
0000
1100
0000
1001
1000
,  // measure 62
0010
0100
0001
1000
0010
0100
0001
0000
,  // measure 63
0001
0100
0001
0000
0001
0010
0001
0000
,  // measure 64
0001
1000
0001
0100
1000
0001
0010
0100
,  // measure 65
1000
0010
1000
0000
1000
0100
1000
0000
,  // measure 66
1000
0001
1000
0100
0001
1000
0100
0010
,  // measure 67
0001
0100
0001
0000
0001
0010
0001
0000
,  // measure 68
0001
1000
0001
0010
1000
0001
0010
0100
,  // measure 69
1000
0010
1000
0100
1000
0001
1000
0001
,  // measure 70
0010
1000
0100
0010
0001
1000
0100
0010
,  // measure 71
1001
0000
0000
0000
;

//---------------dance-single - ----------------
#NOTES:
     dance-single:
     :
     Medium:
     6:
     0.368,0.434,0.289,0.062,0.000:
0000
0000
0000
0000
,
0000
0000
0000
0000
,
0000
0000
0000
0000
,
0000
0000
0000
0000
,
0000
0000
0000
0000
,
0000
0000
0000
0000
,
0000
0000
0000
0000
,
0000
0000
0000
0000
,
1000
0100
1000
1000
,
0001
0010
0001
0001
,
0010
0100
1000
0000
,
0001
0000
0000
0000
,
1000
0100
1000
1000
,
0001
0010
0001
0001
,
1000
0010
1000
0000
,
0001
0000
0001
0000
,
1001
0010
0001
0010
,
0001
1000
0001
1000
,
0100
1000
0100
1000
,
0100
0010
0001
0100
,
0010
0100
0010
1000
,
0001
1000
0001
1000
,
1001
0000
0011
0000
,
1001
1001
1001
0000
,
1100
1000
0100
1000
,
0100
0010
0001
1000
,
0001
0000
0001
0000
,
1000
0000
0001
0000
,
0011
0010
0001
0010
,
0001
0010
0100
1000
,
0002
0000
2003
0000
,
3020
0000
0130
0000
,
1001
0010
0001
0010
,
0001
0010
0100
1000
,
1001
0100
1000
0100
,
1000
0100
0010
0001
,
1002
0000
0000
0000
,
2003
0000
0000
0000
,
3002
0000
0000
0000
,
0003
1000
1000
1000
,
1001
0100
0010
0001
,
0100
0001
0100
0001
,
1000
0010
1000
0010
,
1000
0100
0010
0001
,
1000
0001
1000
0001
,
0010
0100
1000
0010
,
0100
0010
0100
0010
,
1000
1000
1000
0000
,
1001
0010
0001
0010
,
0001
1000
0001
1000
,
0100
1000
0100
1000
,
0100
0010
0001
1000
,
1001
0010
1000
0010
,
1001
0000
0000
0000
,
0101
0010
0101
0001
,
0010
0100
1000
0001
,
1100
0010
1100
0010
,
1000
0100
0010
0001
,
0011
0100
0011
0100
,
0001
0010
0100
1000
,
1010
0100
1010
0100
,
0100
0000
0000
0000
,
1001
0010
0100
1000
,
0010
0000
0100
0001
0000
0001
0000
0000
,
1001
0100
0010
0001
,
0100
0000
0010
1000
0000
1000
0000
0000
,
1001
0010
0100
0001
,
0010
0000
0100
1000
0000
1000
0000
0000
,
1001
0010
0100
0001
,
1000
0000
0100
0010
0000
0001
0000
0001
,
1001
0000
0000
0000
;

//---------------dance-single - ----------------
#NOTES:
     dance-single:
     :
     Beginner:
     1:
     0.066,0.145,0.031,0.000,0.000:
0000
0000
0000
0000
,
0000
0000
0000
0000
,
0000
0000
0000
0000
,
0000
0000
0000
0000
,
0000
0000
0000
0000
,
0000
0000
0000
0000
,
0000
0000
0000
0000
,
0000
0000
0000
0000
,
1000
0000
0000
0000
,
0000
0000
0000
0000
,
0001
0000
0000
0000
,
0000
0000
0000
0000
,
0001
0000
0000
0000
,
0000
0000
0000
0000
,
1000
0000
0000
0000
,
0000
0000
0000
0000
,
1000
0000
0000
0000
,
1000
0000
0000
0000
,
1000
0000
0000
0000
,
0000
0000
0000
0000
,
0001
0000
0000
0000
,
0001
0000
0000
0000
,
0001
0000
0000
0000
,
0000
0000
0000
0000
,
0001
0000
0000
0000
,
0000
0000
0000
0000
,
1000
0000
0000
0000
,
0000
0000
0000
0000
,
0001
0000
0000
0000
,
0000
0000
0000
0000
,
1000
0000
0000
0000
,
0000
0000
0000
0000
,
0001
0000
0000
0000
,
0000
0000
0000
0000
,
1000
0000
0000
0000
,
0000
0000
0000
0000
,
0001
0000
0000
0000
,
0000
0000
0000
0000
,
0000
0000
0000
0000
,
0000
0000
0000
0000
,
0001
0000
0000
0000
,
0001
0000
0000
0000
,
0001
0000
0000
0000
,
0000
0000
0000
0000
,
1000
0000
0000
0000
,
1000
0000
0000
0000
,
1000
0000
0000
0000
,
0000
0000
0000
0000
,
1000
0000
0000
0000
,
0010
0000
0000
0000
,
1000
0000
0000
0000
,
0000
0000
0000
0000
,
0001
0000
0000
0000
,
0100
0000
0000
0000
,
0001
0000
0000
0000
,
0001
0000
0000
0000
,
1000
0000
0000
0000
,
1000
0000
0000
0000
,
0001
0000
0000
0000
,
0001
0000
0000
0000
,
1000
0000
0000
0000
,
1000
0000
0000
0000
,
1001
0000
0000
0000
,
0000
0000
0000
0000
,
1000
0000
0000
0000
,
0000
0000
0000
0000
,
1001
0000
0000
0000
,
0000
0000
0000
0000
,
0001
0000
0000
0000
,
0001
0000
0000
0000
,
1001
0000
0000
0000
;

//---------------dance-double - ----------------
#NOTES:
     dance-double:
     :
     Easy:
     4:
     0.313,0.398,0.196,0.021,0.000:
00000000
00000000
00000000
00000000
,
00000000
00000000
00000000
00000000
,
00000000
00000000
00000000
00000000
,
00000000
00000000
00000000
00000000
,
00000000
00000000
00000000
00000000
,
00000000
00000000
00000000
00000000
,
00000000
00000000
00000000
00000000
,
00000000
00000000
00000000
00000000
,
00000001
00000100
00000001
00000000
,
00000001
00000100
00000001
00000000
,
00001000
00000000
00000001
00000000
,
00000010
00000000
00000100
00000000
,
00001000
00010000
00001000
00000000
,
00001000
00010000
00100000
01000000
,
10000000
00000000
00000000
00000000
,
10000000
00010000
10000000
00000000
,
10010000
00000000
10000000
01000000
,
00010000
00000000
00001000
00000100
,
00000001
00000000
00000100
00000000
,
00000010
00000000
00000100
00000000
,
00001001
00000000
00000001
00000010
,
00001000
00000000
00010000
00100000
,
10000000
00000000
10100000
00000000
,
01100000
00000000
01100000
00000000
,
00100000
10000000
00100000
10000000
,
00100000
00010000
00001000
00000000
,
00001001
00000000
00001000
00000000
,
00000001
00000000
00001000
00000000
,
00000001
00000010
00000001
00000010
,
00000100
00001000
00010000
00000000
,
10010000
00000000
01010000
00000000
,
01100000
00000000
01100000
00000000
,
00100000
10000000
00100000
10000000
,
00100000
00010000
00001000
00000000
,
00001001
00000000
00000010
00000000
,
00000100
00000000
00000010
00000000
,
00001001
00000000
00000010
00000000
,
00000100
00000000
00001000
00000000
,
00010000
00000000
00100000
00000000
,
01000000
10000000
10000000
10000000
,
10000000
00100000
10000000
00000000
,
10000000
00100000
10000000
00000000
,
01000000
00000000
00100000
00000000
,
00010000
00001000
00010000
00001000
,
00000100
00001000
00000100
00000000
,
00000100
00001000
00000100
00000010
,
00000001
00000100
00000001
00000100
,
00000001
00000001
00000001
00000001
,
00001001
00000000
00001000
00000000
,
00001000
00000100
00001000
00010000
,
00100000
00010000
00100000
00000000
,
00100000
00010000
00100000
01000000
,
10000000
10000000
10000000
10000000
,
02200000
00000000
00000000
03300000
,
10000000
01000000
10000000
01000000
,
00010000
00001000
00000100
00000010
,
00000001
00000010
00000001
00000010
,
00001000
00010000
00100000
01000000
,
10000000
00100000
10000000
00100000
,
00010000
00001000
00000100
00000010
,
00000001
00000100
00000001
00000100
,
00001000
00010000
00100000
01000000
,
10010000
10000000
01000000
10000000
,
00100000
10000000
00010000
00000000
,
00001001
00000001
00000010
00000001
,
00000100
00000001
00001000
00000000
,
10010000
10000000
00100000
10000000
,
01000000
10000000
00010000
00000000
,
00001001
00000001
00000100
00000001
,
00000010
00000100
00001000
00010000
,
01010000
00000000
00000000
00000000
;
