#TITLE:SKA!;
#SUBTITLE:(The Good Mix);
#ARTIST:Remixed by socer;
#TITLETRANSLIT:;
#SUBTITLETRANSLIT:;
#ARTISTTRANSLIT:;
#CREDIT:DMAxel;
#BANNER:SKA! (The Good Mix).png;
#BACKGROUND:SKA! (The Good Mix)-bg.png;
#LYRICSPATH:;
#CDTITLE:BEMANI game remix.png;
#MUSIC:SKA! (The Good Mix).mp3;
#OFFSET:-0.200;
#SAMPLESTART:25.442;
#SAMPLELENGTH:12.000;
#SELECTABLE:YES;
#BPMS:0.000=190.100,224.000=180.000,226.000=165.004,227.000=152.797,228.000=141.055,229.000=133.249,230.000=120.350,231.000=107.710,232.000=95.002,233.000=86.599,234.000=73.116,235.000=65.003,235.500=60.000,236.000=55.000,236.500=42.500,237.000=30.000;
#STOPS:;
#BGCHANGES:;

//---------------dance-single - ----------------
#NOTES:
     dance-single:
     :
     Easy:
     3:
     0.239,0.292,0.033,0.066,0.000: // measure 1
0000
0000
0000
0000
,  // measure 2
0000
0000
0000
0000
,  // measure 3
0000
0000
0000
0000
,  // measure 4
0000
0000
0000
0000
,  // measure 5
1000
0000
0000
0000
,  // measure 6
1000
0000
0000
0000
,  // measure 7
0001
0000
0000
0000
,  // measure 8
0001
0000
0000
0000
,  // measure 9
1000
0000
0000
0000
,  // measure 10
1000
0000
0000
0000
,  // measure 11
0001
0000
0000
0000
,  // measure 12
0001
0000
0000
0000
,  // measure 13
1000
0100
1000
0000
,  // measure 14
0001
0010
0001
0000
,  // measure 15
1000
0100
1000
0000
,  // measure 16
0001
0010
0001
0000
,  // measure 17
1000
0001
1000
0000
,  // measure 18
0010
0100
0010
0000
,  // measure 19
2000
0000
0000
0000
0000
3001
0000
0000
,  // measure 20
0002
0000
0000
0000
0000
1003
0000
0000
,  // measure 21
0020
0000
0000
0000
,  // measure 22
0230
0000
0000
0310
,  // measure 23
0010
0100
0010
0100
,  // measure 24
0010
1000
0001
0000
,  // measure 25
0100
0010
0100
0010
,  // measure 26
0100
0001
1000
0000
,  // measure 27
0010
0100
0010
0100
,  // measure 28
0010
1000
0001
0000
,  // measure 29
0100
0010
1000
0010
,  // measure 30
1000
0001
1000
0000
,  // measure 31
0010
0100
0001
0100
,  // measure 32
0001
1000
0001
0000
,  // measure 33
0010
0100
1000
0100
,  // measure 34
1000
0001
1000
0000
,  // measure 35
0100
0010
0001
0010
,  // measure 36
0001
1000
0001
0000
,  // measure 37
1001
0000
1000
0000
,  // measure 38
0010
0100
0010
1000
,  // measure 39
0001
0000
0001
0000
,  // measure 40
0100
0010
1000
0001
,  // measure 41
1000
0000
1000
0000
,  // measure 42
0010
0100
0010
1000
,  // measure 43
0001
0000
0001
0000
,  // measure 44
0001
1000
0001
0000
,  // measure 45
1001
0000
1000
0000
,  // measure 46
1000
0001
1000
0000
,  // measure 47
0010
0000
0010
0000
,  // measure 48
0010
0100
0010
0000
,  // measure 49
1000
0001
1000
0000
,  // measure 50
0010
0100
0010
1000
,  // measure 51
0100
0000
0100
0000
,  // measure 52
0100
1000
0010
0100
,  // measure 53
0001
0000
0001
0000
,  // measure 54
0001
0000
1000
0000
,  // measure 55
0001
0000
1000
0000
,  // measure 56
0001
0000
1000
0000
,  // measure 57
0010
0000
0100
0000
,  // measure 58
0010
0000
1000
0000
,  // measure 59
0001
0000
1000
0010
,  // measure 60
0220
0330
0000
0000
;

//---------------dance-single - ----------------
#NOTES:
     dance-single:
     :
     Medium:
     6:
     0.423,0.422,0.252,0.099,0.000: // measure 1
0000
0000
0000
0000
,  // measure 2
0000
0000
0000
0000
,  // measure 3
0000
0000
0000
0000
,  // measure 4
0000
0000
0000
0000
,  // measure 5
1000
0010
0000
0010
,  // measure 6
0100
0010
0000
0010
,  // measure 7
1000
0001
0000
0001
,  // measure 8
0100
0010
0000
0010
,  // measure 9
0100
0001
0000
0001
,  // measure 10
1000
0100
0000
0100
,  // measure 11
1000
0010
0000
0010
,  // measure 12
0100
0001
0000
0001
,  // measure 13
1000
0200
0000
1300
,  // measure 14
0001
0020
0000
0031
,  // measure 15
1000
0020
0000
1030
,  // measure 16
0001
0200
0000
0301
,  // measure 17
2000
0020
3000
0130
,  // measure 18
0001
0200
0000
0301
,  // measure 19
1000
0000
0100
1000
0000
1001
0000
0000
,  // measure 20
0001
0000
0010
0001
0000
1001
0000
0000
,  // measure 21
0010
0000
0010
0100
0000
0100
0000
0100
,  // measure 22
0010
0010
0010
0110
,  // measure 23
1001
0000
1000
0010
0000
0010
0000
1000
,  // measure 24
0010
1000
0001
1000
,  // measure 25
1001
0000
0001
0100
0000
0100
0000
0001
,  // measure 26
0100
0001
1000
0001
,  // measure 27
1001
0000
1000
0010
0000
0010
0000
1000
,  // measure 28
0100
1000
0001
1000
,  // measure 29
1001
0000
0001
0100
0000
0100
0000
0001
,  // measure 30
0010
0001
1000
0001
,  // measure 31
1001
0000
0100
1000
0000
1000
0000
0001
,  // measure 32
0010
0100
1000
0001
,  // measure 33
1001
0000
0010
0001
0000
0001
0000
1000
,  // measure 34
0100
0010
0001
1000
,  // measure 35
1001
0000
0100
1000
0000
1000
0000
0001
,  // measure 36
0010
0100
1000
0001
,  // measure 37
1001
0000
0010
1000
0000
1000
0000
0100
,  // measure 38
0010
0001
0010
0000
0001
0000
0010
0000
,  // measure 39
1001
0000
0100
0001
0000
0001
0000
0010
,  // measure 40
0100
1000
0100
0000
1000
0000
0100
0000
,  // measure 41
1001
0000
0010
1000
0000
1000
0000
0010
,  // measure 42
0100
0001
0100
0000
0001
0000
0100
0000
,  // measure 43
1001
0000
0100
0001
0000
0001
0000
0100
,  // measure 44
0010
1000
0010
0000
1000
0000
0010
0000
,  // measure 45
1001
0000
0100
1000
0000
1000
0000
0010
,  // measure 46
0100
0001
0100
0000
0001
0000
0100
0000
,  // measure 47
1001
0000
0010
0001
0000
0001
0000
0100
,  // measure 48
0010
1000
0010
0000
1000
0000
0010
0000
,  // measure 49
1001
0000
0100
1000
0000
1000
0000
0010
,  // measure 50
0100
0001
0100
0000
0001
0000
0100
0000
,  // measure 51
1001
0000
0001
0100
0000
0100
0000
0010
,  // measure 52
1000
0010
0100
0010
,  // measure 53
1001
0000
0001
0000
0001
0100
0001
0000
,  // measure 54
1000
0000
1000
0000
1000
0010
1000
0000
,  // measure 55
0001
0000
0001
0000
0001
0010
0001
0000
,  // measure 56
1000
0000
1000
0000
1000
0100
1000
0000
,  // measure 57
0010
0100
0010
0000
0100
0001
0100
0000
,  // measure 58
0010
0100
0010
0000
1000
0010
1000
0000
,  // measure 59
0001
0011
0110
1100
,  // measure 60
2002
3003
0000
0000
;

//---------------dance-single - ----------------
#NOTES:
     dance-single:
     :
     Hard:
     7:
     0.592,0.584,0.077,0.789,0.011: // measure 1
0000
0000
0000
0000
,  // measure 2
0000
0000
0000
0000
,  // measure 3
0000
0000
0000
0000
,  // measure 4
0000
0000
0000
0000
,  // measure 5
0001
0100
0001
0000
0000
1000
0100
0000
,  // measure 6
1000
0010
1000
0000
0000
0001
0010
0000
,  // measure 7
0001
0100
0001
0000
0000
1000
0100
0000
,  // measure 8
1000
0010
1000
0000
0000
0001
0010
0000
,  // measure 9
0001
0010
0001
0000
0000
1000
0010
0000
,  // measure 10
1000
0100
1000
0000
0000
0001
0100
0000
,  // measure 11
0001
1000
0001
0000
0000
1000
0100
0000
,  // measure 12
1000
0001
1000
0000
0000
0001
0010
0000
,  // measure 13
0001
0100
0020
0000
0000
1030
1000
0000
,  // measure 14
1000
0010
0200
0000
0000
0001
0301
0000
,  // measure 15
0001
0100
0020
0000
0000
1000
1030
0000
,  // measure 16
1000
0010
0200
0000
0000
0001
0301
0000
,  // measure 17
0001
0010
0200
0000
0000
1000
1300
0000
,  // measure 18
1000
0100
0020
0000
0000
0001
0031
0000
,  // measure 19
0100
0010
0100
0010
0000
1010
0000
0000
,  // measure 20
0010
0100
0010
0100
0000
0101
0000
0000
,  // measure 21
1000
0000
1000
0010
0000
0010
0000
0100
,  // measure 22
0002
0203
0320
2030
,  // measure 23
3001
0000
0001
0200
0000
0010
0000
0310
,  // measure 24
1000
0200
2300
3002
,  // measure 25
1003
0000
1000
0020
0000
0100
0000
0130
,  // measure 26
0002
0203
0320
2030
,  // measure 27
3001
0000
0001
0200
0000
0010
0000
0310
,  // measure 28
2000
3020
0230
0302
,  // measure 29
1003
0100
1000
0002
0000
0010
0000
0013
,  // measure 30
0200
2300
3002
2003
,  // measure 31
3001
0010
0001
2000
0000
0100
0000
3100
,  // measure 32
0020
0032
2003
3002
,  // measure 33
1003
0010
1000
0002
0000
1000
0000
1003
,  // measure 34
0020
0230
0320
2030
,  // measure 35
3001
0100
0001
2000
0000
0001
0000
3001
,  // measure 36
0200
0320
0230
0320
,  // measure 37
1030
0100
1000
0001
1000
0001
0000
0001
,  // measure 38
0010
0100
2000
0000
3002
0000
0203
0000
,  // measure 39
0301
0010
0001
1000
0001
1000
0000
1000
,  // measure 40
0100
0010
0002
0000
2003
0000
3200
0000
,  // measure 41
1300
0010
1000
0001
1000
0001
0000
0001
,  // measure 42
0100
0010
2000
0000
3002
0000
0023
0000
,  // measure 43
0031
0100
0001
1000
0001
1000
0000
1000
,  // measure 44
0010
0100
0002
0000
2003
0000
3200
0000
,  // measure 45
1300
0010
0100
0001
0000
0001
1000
0100
,  // measure 46
0002
0203
0320
2030
,  // measure 47
3001
0100
0010
1000
0000
1000
0001
0010
,  // measure 48
2000
3020
0230
0302
,  // measure 49
1003
0100
0010
0001
0000
0001
1000
0010
,  // measure 50
0002
0023
0230
2300
,  // measure 51
3001
0010
0100
1000
0000
1000
0001
0100
,  // measure 52
2000
3200
0320
0032
,  // measure 53
1003
0010
0100
0000
0001
0100
1000
0000
,  // measure 54
0001
0100
0010
0000
1000
0010
0001
0000
,  // measure 55
1000
0010
0100
0000
0001
0100
1000
0000
,  // measure 56
0001
0100
0010
0000
1000
0010
0001
0000
,  // measure 57
0100
0010
0100
0001
0010
1000
0001
0000
,  // measure 58
0100
0010
0100
0001
0010
1000
0001
0000
,  // measure 59
0100
0000
0010
0000
0100
0000
0001
0010
0100
1000
0010
0000
0110
0000
0011
0000
,  // measure 60
1001
1001
1100
0000
0000
0000
0000
0000
;

//---------------dance-single - ----------------
#NOTES:
     dance-single:
     :
     Challenge:
     8:
     0.631,0.719,0.712,0.142,0.011: // measure 1
0000
0000
0000
0000
,  // measure 2
0000
0000
0000
0000
,  // measure 3
0000
0000
0000
0000
,  // measure 4
0000
0000
0000
0000
,  // measure 5
1000
0010
0100
0000
0100
0010
0100
0000
,  // measure 6
0001
0100
0010
0000
0010
0100
0010
0000
,  // measure 7
1000
0100
0010
0000
0010
0100
0010
0000
,  // measure 8
0001
0010
0100
0000
0100
0010
0100
0000
,  // measure 9
1000
0010
0200
0000
0000
0001
0301
0000
,  // measure 10
0001
0100
0020
0000
0000
1000
1030
0000
,  // measure 11
1000
0100
0020
0000
0000
0001
0031
0000
,  // measure 12
0001
0010
0200
0000
0000
1000
1300
0000
,  // measure 13
1000
0010
0100
0001
0010
0100
0100
0000
,  // measure 14
1000
0010
0100
0001
0010
0100
0010
0000
,  // measure 15
0001
0100
0010
1000
0100
0010
0010
0000
,  // measure 16
0001
0100
0010
1000
0100
0010
0100
0000
,  // measure 17
1000
0100
0010
0001
0100
0010
0010
0000
,  // measure 18
1000
0100
0010
0001
0100
0010
0010
0000
,  // measure 19
1000
0100
1000
0001
0000
0101
0000
0000
,  // measure 20
0001
0010
0001
1000
0000
1010
0000
0000
,  // measure 21
2000
0000
0010
3020
0000
0230
0000
0001
,  // measure 22
0301
0011
1010
0011
,  // measure 23
0001
1000
0200
0010
0000
0310
0000
0100
,  // measure 24
0001
0011
0110
1100
,  // measure 25
1000
0001
0200
0010
0000
0310
0000
0010
,  // measure 26
1000
1100
0110
0011
,  // measure 27
0001
1000
0020
0100
0000
0130
0000
0100
,  // measure 28
0001
0101
0110
1010
,  // measure 29
1000
0001
0200
0010
0000
0310
0000
0010
,  // measure 30
1000
1010
0110
0101
,  // measure 31
0001
1000
0010
0011
0000
0011
0000
0001
,  // measure 32
1000
1001
0011
1001
,  // measure 33
1000
0001
0010
0011
0000
1001
0000
0001
,  // measure 34
1000
1100
1001
1100
,  // measure 35
0001
1000
0100
1100
0000
1001
0000
1000
,  // measure 36
0001
0101
1001
0101
,  // measure 37
1000
0001
0100
0010
0100
0001
0000
0001
,  // measure 38
1000
1100
0101
1100
,  // measure 39
0001
1000
0010
0100
0010
1000
0000
1000
,  // measure 40
0001
0011
1010
0011
,  // measure 41
0001
0100
0010
1000
0100
0010
0000
0010
,  // measure 42
0001
0100
0101
0000
1100
0000
0101
0000
,  // measure 43
1000
0010
0100
0001
0010
0100
0000
0100
,  // measure 44
1000
0010
1010
0000
0011
0000
1010
0000
,  // measure 45
0001
0100
0010
1000
0000
1000
0001
0010
,  // measure 46
1000
0010
0110
0000
1001
0000
0110
0000
,  // measure 47
1000
0010
0100
0001
0000
0001
1000
0100
,  // measure 48
0001
0100
0110
0000
1001
0000
0110
0000
,  // measure 49
0001
1000
0100
0010
0000
0001
1000
0100
,  // measure 50
0110
0101
0110
1001
,  // measure 51
1000
0001
0010
0100
0000
1000
0010
0100
,  // measure 52
0110
1010
0110
1001
,  // measure 53
1001
0010
0100
0010
0001
1000
0010
0000
,  // measure 54
1000
0100
0010
0100
1000
0001
0100
0000
,  // measure 55
0001
0100
0010
0100
0001
1000
0100
0000
,  // measure 56
1000
0010
0100
0010
1000
0001
0010
0000
,  // measure 57
0001
0100
0010
1000
0100
0001
1000
0001
,  // measure 58
0010
0100
0010
0001
0100
1000
0001
1000
,  // measure 59
0100
0000
0001
0000
0010
0000
0100
1000
0010
0100
0010
0000
1010
0000
1100
0000
,  // measure 60
1001
0011
0101
0220
0000
0330
0000
0000
;

//---------------dance-single - ----------------
#NOTES:
     dance-single:
     :
     Beginner:
     1:
     0.066,0.097,0.000,0.000,0.000: // measure 1
0000
0000
0000
0000
,  // measure 2
0000
0000
0000
0000
,  // measure 3
0000
0000
0000
0000
,  // measure 4
0000
0000
0000
0000
,  // measure 5
0000
0000
0000
0000
,  // measure 6
0000
0000
0000
0000
,  // measure 7
0000
0000
0000
0000
,  // measure 8
0000
0000
0000
0000
,  // measure 9
0001
0000
0000
0000
,  // measure 10
0001
0000
0000
0000
,  // measure 11
0001
0000
0000
0000
,  // measure 12
0001
0000
0000
0000
,  // measure 13
1000
0000
0000
0000
,  // measure 14
1000
0000
0000
0000
,  // measure 15
1000
0000
0000
0000
,  // measure 16
1000
0000
0000
0000
,  // measure 17
0010
0000
0000
0000
,  // measure 18
0100
0000
0000
0000
,  // measure 19
0010
0000
0000
0000
,  // measure 20
0000
0000
0000
0000
,  // measure 21
1000
0000
0000
0000
,  // measure 22
0000
0000
0000
0000
,  // measure 23
1000
0000
0000
0000
,  // measure 24
0001
0000
0000
0000
,  // measure 25
1000
0000
0000
0000
,  // measure 26
0001
0000
0000
0000
,  // measure 27
0100
0000
0000
0000
,  // measure 28
0010
0000
0000
0000
,  // measure 29
0100
0000
0000
0000
,  // measure 30
0001
0000
0000
0000
,  // measure 31
1000
0000
0000
0000
,  // measure 32
0001
0000
0000
0000
,  // measure 33
1000
0000
0000
0000
,  // measure 34
0001
0000
0000
0000
,  // measure 35
0100
0000
0000
0000
,  // measure 36
0010
0000
0000
0000
,  // measure 37
0100
0000
0000
0000
,  // measure 38
0000
0000
0000
0000
,  // measure 39
0100
0000
0000
0000
,  // measure 40
0000
0000
0000
0000
,  // measure 41
0010
0000
0000
0000
,  // measure 42
0000
0000
0000
0000
,  // measure 43
0010
0000
0000
0000
,  // measure 44
0000
0000
0000
0000
,  // measure 45
0100
0000
0000
0000
,  // measure 46
0000
0000
0000
0000
,  // measure 47
0100
0000
0000
0000
,  // measure 48
0000
0000
0000
0000
,  // measure 49
0010
0000
0000
0000
,  // measure 50
0000
0000
0000
0000
,  // measure 51
0010
0000
0000
0000
,  // measure 52
0000
0000
0000
0000
,  // measure 53
1000
0000
0000
0000
,  // measure 54
1000
0000
0000
0000
,  // measure 55
0001
0000
0000
0000
,  // measure 56
0001
0000
0000
0000
,  // measure 57
0001
0000
0000
0000
,  // measure 58
1000
0000
0000
0000
,  // measure 59
0001
0000
0000
0000
,  // measure 60
0000
0001
0000
0000
;
