#TITLE:SKA a go go;
#SUBTITLE:(SKACORE MIX);
#ARTIST:remixed by KEN MATSUMOTO;
#TITLETRANSLIT:;
#SUBTITLETRANSLIT:;
#ARTISTTRANSLIT:;
#CREDIT:Kyon;
#BANNER:SKA a go go (SKACORE MIX).png;
#BACKGROUND:SKA a go go (SKACORE MIX)-bg.png;
#LYRICSPATH:;
#CDTITLE:Beatmania.png;
#MUSIC:SKA a go go (SKACORE MIX).mp3;
#OFFSET:-3.440;
#SAMPLESTART:51.431;
#SAMPLELENGTH:12.000;
#SELECTABLE:YES;
#BPMS:0.000=170.000,72.000=85.000,103.000=170.000;
#STOPS:;
#BGCHANGES:;

//---------------dance-single - ----------------
#NOTES:
     dance-single:
     :
     Easy:
     3:
     0.195,0.277,0.061,0.134,0.000: // measure 1
0000
0000
0000
0000
,  // measure 2
0000
0000
0000
0000
,  // measure 3
0000
0000
0000
0000
,  // measure 4
0000
0000
0000
0000
,  // measure 5
1000
1000
1000
1000
,  // measure 6
0001
0001
0001
0001
,  // measure 7
0100
0100
0100
0100
,  // measure 8
0010
0010
0010
0010
,  // measure 9
1000
1000
1000
1000
,  // measure 10
0100
0100
0100
0100
,  // measure 11
0010
0010
0010
0010
,  // measure 12
0001
0001
0002
0000
,  // measure 13
2003
0000
0000
0000
,  // measure 14
3002
0000
0000
0000
,  // measure 15
0203
0000
0000
0300
,  // measure 16
1001
0000
0000
0000
,  // measure 17
0100
0000
0010
0000
,  // measure 18
1001
0000
0000
0000
,  // measure 19
0010
0010
0100
0100
,  // measure 20
0001
0001
1000
1000
,  // measure 21
0100
0100
0010
0010
,  // measure 22
0001
0001
1000
1000
,  // measure 23
0000
0000
0000
0000
,  // measure 24
0001
0000
0000
0000
,  // measure 25
1000
0000
0000
0000
,  // measure 26
0001
0000
0000
0000
,  // measure 27
1001
2000
0000
0000
,  // measure 28
0000
0000
0000
0000
,  // measure 29
0000
3002
0000
0000
,  // measure 30
0000
0000
0000
0000
,  // measure 31
0000
0203
0000
0000
,  // measure 32
0000
0000
0000
0000
,  // measure 33
0320
0000
0000
0000
,  // measure 34
0000
0000
0000
1030
,  // measure 35
1000
1001
0010
0100
,  // measure 36
1000
0100
0010
0001
,  // measure 37
0010
0001
0010
0001
,  // measure 38
1000
0100
0000
0000
,  // measure 39
0000
1000
0100
0010
,  // measure 40
0001
0100
0010
1000
,  // measure 41
0001
0100
0010
1000
,  // measure 42
0100
1000
0000
0000
,  // measure 43
0000
0002
0000
0000
,  // measure 44
0000
2003
0000
0000
,  // measure 45
0000
3020
0000
0000
,  // measure 46
0130
0100
1001
0000
;

//---------------dance-single - ----------------
#NOTES:
     dance-single:
     :
     Hard:
     7:
     0.444,0.554,0.171,0.037,0.037: // measure 1
0000
0000
0000
0000
,  // measure 2
0000
0000
0000
0000
,  // measure 3
1000
0010
1000
0001
,  // measure 4
0100
0001
1001
1001
,  // measure 5
1000
0010
1000
0001
0100
0001
1000
0000
,  // measure 6
0001
1000
0010
1000
0001
0100
0001
0000
,  // measure 7
1000
0100
1000
0001
0010
0001
0010
0000
,  // measure 8
0001
0010
0001
1000
0100
1000
0100
0000
,  // measure 9
1000
0100
0010
0001
0010
0100
1000
0000
,  // measure 10
0001
0010
0100
1000
0100
0010
0001
0000
,  // measure 11
1000
0010
0100
0001
0100
0010
1000
0000
,  // measure 12
0001
0100
0010
1000
0010
0000
1001
0000
,  // measure 13
0002
1000
1000
1000
,  // measure 14
2003
0010
3010
0100
,  // measure 15
0001
0010
0000
0100
1000
0000
1000
0001
,  // measure 16
0000
0000
0000
0000
0000
0000
1000
0001
1000
0000
0000
0000
0000
0000
0000
0000
,  // measure 17
0001
0100
0000
0010
1000
0000
1000
0001
,  // measure 18
0000
0002
0000
0000
0000
0000
0000
0000
,  // measure 19
1003
0000
0100
0000
1000
0000
0010
0100
,  // measure 20
0001
0000
0010
0001
0100
0000
0010
0000
,  // measure 21
1000
0100
1000
0010
0100
0000
0001
0000
,  // measure 22
0010
0001
0100
0010
1000
0100
1000
1000
,  // measure 23
1000
0001
0010
0000
0000
0000
0000
0000
,  // measure 24
0000
0010
0001
0000
0000
0000
0000
0000
,  // measure 25
0000
0100
0010
0000
0000
0000
0000
1000
,  // measure 26
0100
1000
0010
0100
0100
0000
0000
0000
,  // measure 27
1001
0001
0010
0100
,  // measure 28
1000
0100
0100
1000
,  // measure 29
1000
1000
0100
0010
,  // measure 30
0001
0010
0010
0001
,  // measure 31
0001
0001
0010
0100
,  // measure 32
1000
1000
1000
0100
,  // measure 33
0100
0000
1000
0000
0010
0000
0100
0010
,  // measure 34
1000
0100
1010
0000
0101
0000
1001
0000
,  // measure 35
1001
0000
0001
0010
0001
0100
0010
0000
,  // measure 36
1000
0000
0010
0100
0010
0100
0010
0000
,  // measure 37
1000
0000
0100
1000
0100
1000
0010
0000
,  // measure 38
0100
0010
1000
1000
1001
0000
0001
0001
,  // measure 39
1001
0000
0100
0010
1000
0100
1000
0000
,  // measure 40
0010
0100
0001
0010
,  // measure 41
0100
1000
0100
1000
0010
0000
0100
0010
,  // measure 42
1000
0001
1000
1000
1001
0000
0001
0001
,  // measure 43
1001
0000
0000
0000
1000
0000
0100
0000
1000
0010
1000
0010
1000
0000
0010
0000
,  // measure 44
0100
0001
0100
0000
0001
0000
0010
0000
0001
0000
0100
0000
0010
0000
1000
0000
,  // measure 45
0001
1000
0001
1000
0001
0000
0010
0000
0001
0000
0100
0000
0010
0000
0100
0000
,  // measure 46
0010
1001
1001
0000
;

//---------------dance-single - ----------------
#NOTES:
     dance-single:
     :
     Challenge:
     9:
     0.646,0.859,0.499,0.024,0.341: // measure 1
0000
0000
0000
0000
,  // measure 2
0000
0000
0000
0000
,  // measure 3
1100
0101
1010
0011
,  // measure 4
1001
0000
0000
0000
1001
0000
0000
0000
1000
0001
1000
0001
1000
0001
1000
0000
,  // measure 5
0001
0010
0100
1000
0100
1000
0001
0000
,  // measure 6
1000
0100
0010
0001
0010
0001
1000
0000
,  // measure 7
0001
0100
0010
1000
0010
1000
0001
0000
,  // measure 8
1000
0010
0100
0001
0100
0001
1000
0000
,  // measure 9
1001
0010
0100
0001
1000
0001
1000
0000
,  // measure 10
0010
0100
0010
1000
0001
1000
0001
0000
,  // measure 11
0100
0010
0100
0001
1000
0001
1000
0000
,  // measure 12
0001
0000
0100
0000
0010
0000
1000
0000
0001
0010
0000
0001
0010
0000
0000
0000
,  // measure 13
2000
0010
0010
3010
,  // measure 14
0100
0010
1100
0011
,  // measure 15
0001
0101
0000
1000
1010
0000
0001
1001
,  // measure 16
0000
0000
0000
0000
0000
0000
1000
0001
1000
0000
0000
0000
0000
0000
0000
0000
,  // measure 17
1000
1100
0000
0001
0011
0000
1000
1001
,  // measure 18
0000
0010
0200
0000
0000
0000
0000
0000
,  // measure 19
0301
0010
0100
1000
0000
0100
1000
0000
0010
0000
0000
0000
1000
0010
0001
0010
,  // measure 20
1000
0100
1000
0000
0001
0010
0001
0100
0010
0000
0100
0000
1001
0100
1000
0100
,  // measure 21
0001
0000
0010
0001
0010
0001
1000
0100
1000
0000
0010
1000
0000
0000
0001
0100
,  // measure 22
0001
0100
0010
1000
0010
0000
0100
0000
0010
0000
0100
0000
0011
0000
1010
0000
,  // measure 23
1001
0000
0010
0000
0010
0000
0000
1000
0100
0000
1000
0100
0000
0000
1000
0001
,  // measure 24
1000
0000
0100
0000
0100
0000
0000
0010
0001
0000
0010
0001
0000
0100
0000
0010
,  // measure 25
1000
0000
0100
0000
0100
0000
0000
1000
0001
0000
1000
0001
0000
0000
1000
0000
,  // measure 26
0010
0000
0100
0001
0100
0000
0010
0000
1000
0000
0000
0000
0000
0000
0000
0000
,  // measure 27
1001
0011
1010
1001
,  // measure 28
1001
0000
1000
0010
0100
0001
0100
0001
,  // measure 29
1000
0011
1010
1001
,  // measure 30
1001
0000
0001
0100
0010
1000
0010
0100
,  // measure 31
0001
1100
0101
1001
,  // measure 32
1001
0000
1000
0100
0010
0001
0010
0100
,  // measure 33
1000
0011
1010
1001
,  // measure 34
1001
0000
0000
0000
0010
0000
0100
0000
0001
0000
1000
0000
0001
1000
0001
1000
,  // measure 35
0001
0010
0001
0100
0010
1000
0100
1000
,  // measure 36
0001
0100
1000
0100
0010
0001
1000
0100
,  // measure 37
1000
0100
0001
0100
0010
1000
0010
0100
,  // measure 38
0010
1000
0001
0001
1001
0000
1000
1000
,  // measure 39
1001
0000
1000
0100
1000
0010
0100
0001
,  // measure 40
1000
0100
0001
0100
0001
0100
0010
1000
,  // measure 41
0001
0100
1000
0001
0100
0010
1000
0100
,  // measure 42
1000
0010
1000
1000
1001
0000
0001
0001
,  // measure 43
1001
0000
0000
0000
1000
0001
1000
0001
1000
0001
1000
0001
1000
0001
1000
0001
,  // measure 44
1000
0001
1000
0001
1000
0001
1000
0001
1000
0001
1000
0001
1000
0001
1000
0010
,  // measure 45
0100
0010
0100
0010
0100
0010
0100
0010
0100
0010
0100
0010
0100
0010
0100
0000
,  // measure 46
0010
1000
0001
0000
1001
0000
0000
0000
;

//---------------dance-single - ----------------
#NOTES:
     dance-single:
     :
     Medium:
     5:
     0.327,0.360,0.097,0.085,0.000: // measure 1
0000
0000
0000
0000
,  // measure 2
0000
0000
0000
0000
,  // measure 3
0010
0100
0010
0100
,  // measure 4
0001
1000
0002
0000
,  // measure 5
1003
0100
1000
0010
,  // measure 6
0100
0001
0010
0001
,  // measure 7
1000
0100
1000
0010
,  // measure 8
1000
0001
0100
0001
,  // measure 9
0100
0010
0100
0010
,  // measure 10
1000
0001
1000
0001
,  // measure 11
0100
0010
1000
0100
,  // measure 12
1000
0010
0200
0000
,  // measure 13
0302
0000
0000
0000
,  // measure 14
2003
0000
3001
0100
,  // measure 15
0010
1000
0000
0001
0100
0000
0001
1000
,  // measure 16
0000
0000
0000
1001
0000
0000
0000
0000
,  // measure 17
1000
0010
0000
1000
0001
0000
0100
0001
,  // measure 18
0000
2000
0000
0000
0000
0000
0000
0000
,  // measure 19
3010
0010
0100
0100
,  // measure 20
1001
0010
1001
0100
,  // measure 21
1001
0010
0001
0100
,  // measure 22
0010
0000
1000
0000
0100
0000
1000
1000
,  // measure 23
1000
0000
0001
0000
,  // measure 24
0000
0010
0000
0000
,  // measure 25
0001
0000
0000
0000
,  // measure 26
1000
0100
0100
0000
,  // measure 27
1001
0001
0010
0100
,  // measure 28
1000
0100
0100
1000
,  // measure 29
1000
0010
0100
0001
,  // measure 30
0010
0001
0001
0100
,  // measure 31
0100
0010
1000
0100
,  // measure 32
1000
0001
0001
1000
,  // measure 33
1000
0010
0100
0001
,  // measure 34
0010
0002
0000
2003
,  // measure 35
0000
3010
0100
0001
,  // measure 36
0010
0001
0010
0000
0100
0000
1000
0000
,  // measure 37
0010
1000
0010
0000
0100
0000
0010
0000
,  // measure 38
1000
0001
1000
1000
1000
0000
0001
0001
,  // measure 39
0001
0010
0001
0000
0010
0000
0100
0000
,  // measure 40
1000
0010
1000
0000
0010
0000
0100
0000
,  // measure 41
0001
0010
0001
0000
0100
0000
0010
0000
,  // measure 42
1000
0100
1000
1000
1000
0000
0001
0001
,  // measure 43
0001
0010
0001
0000
1000
0100
1000
0000
,  // measure 44
0001
0100
0001
0000
0100
0000
1001
0000
,  // measure 45
1000
0010
1000
0000
0010
0000
1001
0000
,  // measure 46
0100
0010
0100
0000
1001
0000
0000
0000
;

//---------------dance-single - ----------------
#NOTES:
     dance-single:
     :
     Beginner:
     2:
     0.092,0.139,0.012,0.000,0.000: // measure 1
0000
0000
0000
0000
,  // measure 2
0000
0000
0000
0000
,  // measure 3
0000
0000
0000
0000
,  // measure 4
0000
0000
0000
0000
,  // measure 5
0000
0000
0000
0000
,  // measure 6
1000
0000
0000
0000
,  // measure 7
0001
0000
0000
0000
,  // measure 8
0001
0000
0000
0000
,  // measure 9
1000
0000
0000
0000
,  // measure 10
1000
0000
0000
0000
,  // measure 11
0001
0000
0000
0000
,  // measure 12
0001
0000
0000
0000
,  // measure 13
1000
0000
0000
0000
,  // measure 14
0100
0000
0000
0000
,  // measure 15
1000
0000
0000
0000
,  // measure 16
0000
0000
0000
0000
,  // measure 17
0001
0000
0000
0000
,  // measure 18
0000
0000
0000
0000
,  // measure 19
1000
0000
0000
1000
,  // measure 20
0000
0000
0000
0000
,  // measure 21
0001
0000
0000
0000
,  // measure 22
0001
0000
0000
1000
,  // measure 23
1000
0000
0000
0000
,  // measure 24
0010
0000
0000
0000
,  // measure 25
0100
0000
0000
0000
,  // measure 26
0001
0000
0000
0000
,  // measure 27
0000
1000
0000
1000
,  // measure 28
0000
0001
0000
0001
,  // measure 29
0000
1000
0000
1000
,  // measure 30
0000
0001
0000
0001
,  // measure 31
0000
0100
0000
0100
,  // measure 32
0000
0001
0000
0001
,  // measure 33
0000
1000
0000
1000
,  // measure 34
0000
0010
0000
0010
,  // measure 35
0000
1000
0000
0000
,  // measure 36
0000
0100
0000
0000
,  // measure 37
0000
1000
0000
0000
,  // measure 38
0000
0001
0000
0000
,  // measure 39
0000
0010
0000
0000
,  // measure 40
0000
0001
0000
0000
,  // measure 41
1000
0000
0000
0000
,  // measure 42
0001
0000
0000
0000
,  // measure 43
1000
0000
1000
0000
,  // measure 44
1000
0000
0001
0000
,  // measure 45
0001
0000
0001
0000
,  // measure 46
1000
0000
1001
0000
;
