#TITLE:しぐ☆しぐ;
#SUBTITLE:(動画版ShortMix);
#ARTIST:KM-LEAK;
#TITLETRANSLIT:SIG*SIG;
#SUBTITLETRANSLIT:(DOUGABAN ShortMix);
#ARTISTTRANSLIT:;
#CREDIT:DMAxel;
#BANNER:SIGSIG (DOUGABAN ShortMix).png;
#BACKGROUND:SIGSIG (DOUGABAN ShortMix)-bg.png;
#LYRICSPATH:;
#CDTITLE:BEMANI game remix.png;
#MUSIC:SIGSIG (DOUGABAN ShortMix).mp3;
#OFFSET:-12.160;
#SAMPLESTART:182.415;
#SAMPLELENGTH:12.000;
#SELECTABLE:YES;
#DISPLAYBPM:179.000;
#BPMS:0.000=179.000,328.000=44.750,330.000=89.500,334.000=179.000;
#STOPS:;
#BGCHANGES:-36.000=SIGSIG (DOUGABAN ShortMix).avi=1.000=1=1=0,
99999=-nosongbg-=1.000=0=0=0 // don't automatically add -songbackground-
;

//---------------dance-single - ----------------
#NOTES:
     dance-single:
     :
     Easy:
     4:
     0.307,0.412,0.243,0.088,0.000: // measure 1
0002
1000
0000
1003
,  // measure 2
0000
0001
0000
0100
,  // measure 3
0000
0010
0000
0100
,  // measure 4
0001
0001
1000
0010
,  // measure 5
0200
0010
0000
0310
,  // measure 6
0000
0100
0000
0001
,  // measure 7
1000
0001
1000
0000
,  // measure 8
0001
0000
1000
0000
,  // measure 9
0010
0100
0010
0000
,  // measure 10
1000
0001
1000
0000
,  // measure 11
0001
0010
0011
0000
,  // measure 12
1000
0100
1100
0000
,  // measure 13
1001
0000
0100
0000
,  // measure 14
1001
0000
0100
0000
,  // measure 15
1001
0000
1001
0000
,  // measure 16
0001
1000
0010
0100
,  // measure 17
0002
0000
0000
0000
,  // measure 18
1003
0000
0000
0000
,  // measure 19
0010
0100
0001
0010
,  // measure 20
0001
1000
0100
1000
,  // measure 21
0010
0100
0010
1000
,  // measure 22
0001
0010
0001
1000
,  // measure 23
1001
0000
1000
0001
,  // measure 24
0010
0001
1000
0001
,  // measure 25
1001
0000
0010
0100
,  // measure 26
0001
0100
0010
1000
,  // measure 27
0001
1000
0001
0100
,  // measure 28
0010
0100
0010
0100
,  // measure 29
0001
0010
0001
0010
,  // measure 30
0001
1000
0100
1000
,  // measure 31
0010
0100
0010
0100
,  // measure 32
0010
1000
0010
1000
,  // measure 33
0001
0100
0001
1000
,  // measure 34
0220
0000
0000
0330
,  // measure 35
1001
0000
0000
0010
,  // measure 36
0100
0001
1001
0001
,  // measure 37
1001
0100
0010
0001
,  // measure 38
0100
0010
0100
0010
,  // measure 39
1000
0100
0010
0001
,  // measure 40
1000
1000
0001
0001
,  // measure 41
1001
0010
0100
1000
,  // measure 42
0020
0100
0100
0130
,  // measure 43
1001
1001
0010
0100
,  // measure 44
1000
0001
0010
0100
,  // measure 45
1000
0010
0100
0010
,  // measure 46
0001
0001
1000
1000
,  // measure 47
1001
0010
0100
1000
,  // measure 48
0001
0001
0001
0001
,  // measure 49
1001
0000
1000
0000
,  // measure 50
0010
0010
0010
0110
,  // measure 51
0001
0010
0100
1000
,  // measure 52
0010
0010
0100
0010
,  // measure 53
1000
0100
0010
0001
,  // measure 54
0100
0100
0010
0000
,  // measure 55
1000
0100
0010
0001
,  // measure 56
0100
0100
0110
0000
,  // measure 57
0001
0010
0100
1000
,  // measure 58
0010
0010
0110
0000
,  // measure 59
0001
1000
0001
1000
,  // measure 60
0010
0100
0010
0100
,  // measure 61
0001
0010
0001
1000
,  // measure 62
0100
1000
0010
0000
,  // measure 63
0100
0010
0100
0001
,  // measure 64
1000
0010
0100
0001
,  // measure 65
0010
0001
1000
0100
,  // measure 66
2000
0000
3001
0000
,  // measure 67
1002
0000
0000
0000
,  // measure 68
1003
0001
1000
1001
,  // measure 69
0000
0120
0000
0000
,  // measure 70
0130
0010
0100
0110
,  // measure 71
1002
0000
0000
0000
,  // measure 72
1003
0001
1000
1001
,  // measure 73
0210
0000
0000
0300
,  // measure 74
0110
0000
1001
0000
,  // measure 75
1001
0000
0100
0010
,  // measure 76
0100
0010
1000
0001
,  // measure 77
0000
0100
0010
0100
,  // measure 78
0010
1000
0001
1000
,  // measure 79
0000
1001
0000
0000
2000
0000
0000
0000
,  // measure 80
3002
0000
2003
0000
,  // measure 81
3001
0000
1001
0000
,  // measure 82
0001
0010
0100
1000
,  // measure 83
1001
0000
0000
0000
,  // measure 84
0000
0000
0100
0000
,  // measure 85
0000
0000
0000
0000
,  // measure 86
0000
0000
0010
0000
,  // measure 87
0000
0000
0000
0000
,  // measure 88
0000
0000
1000
0000
,  // measure 89
0000
0000
0000
0000
,  // measure 90
0000
0000
0001
0000
,  // measure 91
0000
0000
0000
0000
,  // measure 92
0000
0000
0010
0000
,  // measure 93
0000
0000
0000
0000
,  // measure 94
0000
0000
0001
0000
,  // measure 95
0000
0000
0000
0000
,  // measure 96
0000
0000
1000
0000
,  // measure 97
0000
0000
0000
0000
,  // measure 98
0000
0000
0001
0000
,  // measure 99
0000
0000
1000
0000
,  // measure 100
0000
0000
1001
0000
,  // measure 101
0000
0000
0010
0000
,  // measure 102
0000
0000
0100
0000
,  // measure 103
0000
0000
1000
0000
,  // measure 104
0000
0000
0010
0000
,  // measure 105
0000
0000
0100
0000
,  // measure 106
0000
0000
0001
0000
,  // measure 107
1000
0000
0001
0000
,  // measure 108
1000
0000
0010
0100
,  // measure 109
0010
0000
1000
0001
,  // measure 110
1000
0000
0010
0100
,  // measure 111
0010
0000
1000
0001
,  // measure 112
1000
0000
0001
1000
,  // measure 113
0001
0000
0100
0010
,  // measure 114
0100
0000
0001
1000
,  // measure 115
0001
0000
0100
0010
,  // measure 116
1000
0000
1001
0000
,  // measure 117
0000
0000
1001
0000
,  // measure 118
0000
0000
1001
0000
,  // measure 119
0000
0000
0100
0100
,  // measure 120
1001
0000
0100
0010
,  // measure 121
0100
0000
0001
1000
,  // measure 122
0001
0000
1001
0000
,  // measure 123
0110
0000
0100
0100
,  // measure 124
0100
0100
1001
0000
,  // measure 125
0000
0000
0100
0010
,  // measure 126
0100
0010
1000
0001
,  // measure 127
1000
0000
0010
0100
,  // measure 128
0010
0100
0001
1000
,  // measure 129
0001
0000
0100
0010
,  // measure 130
0100
0001
0010
0100
,  // measure 131
1000
0010
0100
0010
,  // measure 132
1000
0100
0010
0001
,  // measure 133
1000
0000
1001
0010
,  // measure 134
0100
1000
0010
0010
,  // measure 135
0110
0000
1001
0100
,  // measure 136
0010
0001
0100
0100
,  // measure 137
0110
0000
0001
0010
,  // measure 138
0100
1000
0100
0001
,  // measure 139
0100
0000
1000
0001
,  // measure 140
1000
0100
0010
0001
,  // measure 141
0000
0000
1000
0100
,  // measure 142
0010
0001
0100
1000
,  // measure 143
0100
0000
0001
0010
,  // measure 144
0100
1000
0100
0001
,  // measure 145
0100
0000
1000
0100
,  // measure 146
0010
0001
0100
1000
,  // measure 147
0100
0000
0001
0010
,  // measure 148
0100
1000
0100
0001
,  // measure 149
0100
1000
1001
0000
,  // measure 150
1001
0000
0010
0100
,  // measure 151
1001
0000
1001
0000
,  // measure 152
1001
0000
0100
0010
,  // measure 153
1001
0000
1001
0000
,  // measure 154
0000
1000
0000
0000
1001
0000
0000
0000
,  // measure 155
0000
0001
1000
0000
,  // measure 156
0001
0000
1000
0001
,  // measure 157
1000
0000
0002
0000
,  // measure 158
0000
0000
2003
0000
,  // measure 159
0000
0000
3020
0000
,  // measure 160
0000
0000
0230
0000
,  // measure 161
0000
0000
0310
0000
,  // measure 162
0010
0000
0110
0000
,  // measure 163
0100
0000
1001
0000
,  // measure 164
1001
0000
1001
0000
,  // measure 165
0000
0000
2001
0000
,  // measure 166
0000
0000
3002
0000
,  // measure 167
0000
0000
0023
0000
,  // measure 168
0000
0000
0230
0000
,  // measure 169
0000
0000
1300
0000
,  // measure 170
0001
0000
0100
0000
,  // measure 171
0010
0000
0110
0000
,  // measure 172
1001
0000
1000
0100
,  // measure 173
0010
0001
1001
0000
;

//---------------dance-single - ----------------
#NOTES:
     dance-single:
     :
     Hard:
     9:
     0.639,0.587,0.453,0.056,0.042: // measure 1
1000
0000
1000
0000
1001
0000
0001
1000
,  // measure 2
0100
0000
0001
1000
0100
0000
0001
1000
,  // measure 3
0100
0000
1000
0000
1001
0000
1000
0001
,  // measure 4
0100
0000
1000
0001
0100
0010
1000
0100
,  // measure 5
0010
0000
0110
0000
0010
1000
0100
0000
,  // measure 6
1000
0100
0010
0001
1000
0000
0001
1000
,  // measure 7
0100
0000
0001
1000
0100
0000
1001
0000
,  // measure 8
1000
0001
1000
0001
1000
0100
0010
0001
,  // measure 9
0100
0110
1001
0001
,  // measure 10
0001
0010
0100
1000
0010
0100
0010
0000
,  // measure 11
0110
0110
1001
1000
,  // measure 12
1000
0100
0010
0001
0100
0010
0100
0001
,  // measure 13
0100
1000
0000
0100
0001
1000
0000
0100
,  // measure 14
0010
0001
1000
0010
0100
0000
0110
0000
,  // measure 15
0011
1001
0011
1001
,  // measure 16
0100
0001
0100
0001
0100
1000
0100
1000
,  // measure 17
0100
0001
1000
0010
,  // measure 18
0000
0100
0010
0100
0010
0100
0010
0100
,  // measure 19
0002
0000
0000
1000
0000
0000
1003
0000
0010
0000
0100
0000
0010
0000
0000
0000
,  // measure 20
0100
0001
1000
0000
1001
0000
0010
0100
,  // measure 21
0010
0000
0100
0010
1000
0000
1001
0000
,  // measure 22
1001
0000
0101
0000
1000
0100
0010
0000
,  // measure 23
1001
0000
0001
0100
0001
0100
0001
0100
,  // measure 24
0010
0000
1010
0000
1001
0000
0001
0010
,  // measure 25
0100
0000
1000
0010
1000
0010
1000
0010
,  // measure 26
0100
0101
1001
1001
,  // measure 27
1000
0100
1000
0001
0100
0001
0100
0000
,  // measure 28
1100
0000
1001
0000
1001
0000
1000
0100
,  // measure 29
0010
0000
0001
0010
0001
1000
0010
1000
,  // measure 30
0010
0011
1100
1001
,  // measure 31
1001
0000
1000
0010
1000
0001
0010
0001
,  // measure 32
0010
1010
1001
1001
,  // measure 33
1000
0100
0010
0000
0001
0100
0001
1000
,  // measure 34
0020
0100
1000
0130
,  // measure 35
1000
0100
0010
0001
0100
1000
0100
0001
,  // measure 36
0100
0000
0100
0001
0100
0000
0100
0001
,  // measure 37
0100
0000
1000
0100
0010
0001
0100
1000
,  // measure 38
0100
0000
0100
1000
0100
0000
0100
1000
,  // measure 39
0100
0001
1000
0010
0010
0100
0100
0001
,  // measure 40
1000
0100
1000
0100
0010
0001
0010
0001
,  // measure 41
1000
0100
0010
0001
1000
0010
0100
0000
,  // measure 42
0001
0010
0100
0010
0001
1000
0001
1000
,  // measure 43
0001
0010
0100
1000
0100
0001
0100
0000
,  // measure 44
0100
0001
0100
0000
0100
0001
0100
0000
,  // measure 45
1000
0100
0010
0001
0100
1000
0100
0000
,  // measure 46
0001
0100
0001
0100
0010
1000
0010
0010
,  // measure 47
1000
0000
0100
0000
0010
0000
0001
0000
0100
0000
1000
0000
0100
0000
0000
0001
,  // measure 48
1000
0000
0000
0001
1000
0000
0000
0001
1000
0000
0000
0001
1000
0000
0000
0001
,  // measure 49
1000
0000
0100
0000
0010
0000
0001
0000
1000
0001
1000
0001
1000
0000
0000
0000
,  // measure 50
1001
0000
1100
0000
0010
0001
1000
0000
,  // measure 51
0001
0010
0001
0010
0100
1000
0010
0000
,  // measure 52
1010
0000
0100
0001
0010
0100
0010
0001
,  // measure 53
1000
0100
1000
0100
0010
0001
0100
1000
,  // measure 54
0100
0001
1000
0000
1100
0000
1001
0000
,  // measure 55
0001
0100
0001
0100
0010
1000
0100
0000
,  // measure 56
0010
0001
0100
0000
0010
1000
0100
0010
,  // measure 57
0001
0100
1000
0000
0100
0001
1000
0000
,  // measure 58
0100
0000
1000
0000
0010
0000
0100
0000
0001
1000
0001
1000
0001
0000
0000
0000
,  // measure 59
1000
0100
0010
0001
0100
1000
0100
0001
,  // measure 60
1000
0100
1000
0100
0010
0001
1000
1000
,  // measure 61
0001
0010
0100
1000
0100
0001
0100
1000
,  // measure 62
0001
1001
0110
1001
,  // measure 63
1000
0100
0010
0001
0100
1000
0100
0001
,  // measure 64
1000
0100
1000
0100
0010
0001
1000
1000
,  // measure 65
0001
0010
0100
0000
1000
0010
1000
0010
,  // measure 66
1000
0000
0100
0000
0010
0000
0001
0000
0100
0010
0100
0010
0100
0000
0000
0000
,  // measure 67
0001
0000
1000
0000
0100
0000
0000
0000
0001
0000
0000
0100
0000
0000
1000
0000
,  // measure 68
0001
0000
0010
0100
1000
0001
0100
0000
,  // measure 69
0001
0000
1000
0000
0100
0000
0000
0000
0001
0000
0000
0100
0000
0000
1000
0000
,  // measure 70
0001
0000
0010
0100
1000
0001
0100
0000
,  // measure 71
0010
0000
1000
0000
0100
0000
0000
0000
0001
0000
0000
0100
0000
0000
1000
0000
,  // measure 72
0001
0000
0010
0100
1000
0001
0010
0000
,  // measure 73
0100
0000
0010
0000
0001
0000
0000
0000
0100
0000
0000
0010
0000
0000
1000
0000
,  // measure 74
0001
1000
0100
0000
0001
1000
0100
0000
,  // measure 75
0001
0000
1000
0000
0100
0000
0000
0000
1100
0000
0000
1000
0000
0000
1001
0000
,  // measure 76
0000
0000
0100
0000
0001
0000
0000
0000
0101
0000
0000
0100
0000
0000
1001
0000
,  // measure 77
0000
0000
0100
0000
1000
0000
0000
0000
1100
0000
0000
0100
0000
0000
1001
0000
,  // measure 78
0000
0000
0100
0000
0001
0000
0000
0000
0101
0000
0000
0100
0000
0000
1001
0000
,  // measure 79
0000
1001
0000
0000
1000
0100
0010
0000
,  // measure 80
0001
1000
1000
0000
0100
0010
0001
1000
,  // measure 81
0100
0001
0100
0000
1000
0001
0100
0000
,  // measure 82
1000
0100
0001
0100
0010
1000
0100
0010
,  // measure 83
0002
0000
0003
0000
,  // measure 84
2000
0000
3001
0100
,  // measure 85
1000
0000
0100
0000
0001
0010
0100
0000
,  // measure 86
1000
0001
1000
0100
,  // measure 87
0001
0100
1000
0001
,  // measure 88
1000
0100
0010
0000
0001
0000
0010
0000
,  // measure 89
1000
0000
0010
0000
0001
0010
0100
0000
,  // measure 90
1000
0010
0001
0010
,  // measure 91
1000
0001
0100
0010
,  // measure 92
1000
0100
0010
0000
0002
0000
0100
0000
,  // measure 93
0103
0010
1000
0100
,  // measure 94
0010
0001
2000
0010
,  // measure 95
3010
0100
0001
0010
,  // measure 96
0100
0000
1000
0000
0001
1000
0001
0000
,  // measure 97
1000
0001
1000
0000
0001
0010
0100
0000
,  // measure 98
1000
0000
0001
0000
0100
0010
0100
0000
,  // measure 99
0010
0100
0010
0000
1000
0100
0010
0001
,  // measure 100
1000
1000
1001
0010
,  // measure 101
0100
1000
0010
0001
,  // measure 102
0010
1000
0010
0100
,  // measure 103
0001
0010
0100
1000
,  // measure 104
0010
0100
0010
0000
1000
0000
0001
1000
,  // measure 105
0001
0000
0100
0000
0010
0100
0010
0000
,  // measure 106
1000
0000
0001
1000
0001
0000
1000
0100
,  // measure 107
0010
0001
1000
0000
1000
0000
1000
0100
,  // measure 108
0010
0001
1000
0000
1001
0000
0010
0100
,  // measure 109
0010
0000
1000
0000
0100
0000
0001
0100
,  // measure 110
1000
0000
0001
0000
1000
0000
0010
0100
,  // measure 111
0010
1000
0100
0001
,  // measure 112
0100
0000
1000
0000
0001
0000
0010
0001
,  // measure 113
0010
0000
0001
0000
1000
0000
0100
1000
,  // measure 114
0100
0000
1000
0000
0001
0000
0100
0010
,  // measure 115
0100
0100
0100
0110
,  // measure 116
1001
0000
0000
0000
1100
0000
0100
1000
,  // measure 117
0001
0000
1000
0000
0100
1000
0001
0000
,  // measure 118
1000
0000
0100
0000
1001
0000
0010
0001
,  // measure 119
1000
0010
0110
0010
,  // measure 120
0010
0000
0010
0000
1001
0000
0100
0001
,  // measure 121
1000
0001
1001
0100
,  // measure 122
1100
0000
0100
0000
1001
0000
0100
0001
,  // measure 123
1000
0000
0100
1000
0001
0010
0100
1000
,  // measure 124
0001
0100
0010
0100
0002
0000
1000
0000
,  // measure 125
2000
0000
0003
0000
3001
0000
0001
0010
,  // measure 126
0100
1100
1001
0101
,  // measure 127
1002
0000
1000
0000
1003
0000
1000
0100
,  // measure 128
0010
0011
1001
1010
,  // measure 129
1001
0000
0001
0000
0001
0010
0100
0000
,  // measure 130
1100
1001
0101
2001
,  // measure 131
0001
0000
3001
0000
1000
0000
1000
0100
,  // measure 132
0010
0001
1000
0100
0001
0100
1000
0001
,  // measure 133
0010
1000
0010
0001
1001
0000
1100
0000
,  // measure 134
1001
0000
0100
0010
0001
1000
0010
0100
,  // measure 135
0001
0010
0100
0000
1001
0000
0011
0000
,  // measure 136
1001
0000
0010
0100
1000
0001
0100
0010
,  // measure 137
1000
0100
0010
0000
1001
0000
1000
0100
,  // measure 138
0001
0000
0100
1000
0001
0000
0101
0000
,  // measure 139
1100
0000
1001
0000
0001
0000
0001
0010
,  // measure 140
0100
1000
0001
0100
1000
0100
0001
1000
,  // measure 141
0010
0001
0010
0000
1001
0000
1100
0000
,  // measure 142
0101
0000
1000
0100
1000
0001
0010
0100
,  // measure 143
0010
0001
1000
0000
1001
0000
0011
0000
,  // measure 144
1010
0000
0001
0010
0001
1000
0100
0010
,  // measure 145
0100
1000
0001
0000
1001
0000
0001
0100
,  // measure 146
1000
0000
0100
0001
1000
0100
0010
0100
,  // measure 147
1000
0001
0100
0000
1001
0000
1000
0000
,  // measure 148
1000
0100
0010
0001
1000
0000
1000
0010
,  // measure 149
0100
0001
0010
0100
1000
0010
0100
0010
,  // measure 150
1000
0010
0100
0010
1000
0001
0010
0100
,  // measure 151
0010
0001
0010
0100
0010
0001
1000
0010
,  // measure 152
1000
0001
0010
0001
1000
0010
1000
0001
,  // measure 153
0010
0100
1000
0001
0101
0000
0000
0000
,  // measure 154
0000
0100
0000
0100
1001
0000
0000
0000
,  // measure 155
0000
0101
1100
0000
,  // measure 156
0011
0000
0110
1001
,  // measure 157
0220
0300
1030
1010
,  // measure 158
1001
0000
0000
0001
1000
0100
0001
0100
,  // measure 159
0000
1000
0000
0000
0001
0000
0101
0000
,  // measure 160
1001
0000
0000
1000
0001
0100
1000
0100
,  // measure 161
0001
0100
0010
1000
0100
0010
0000
0100
,  // measure 162
0010
0001
0000
0010
0100
1000
0001
0100
,  // measure 163
0010
0100
0001
0000
1001
0000
0100
0000
,  // measure 164
0110
0000
0100
0000
0001
0010
0100
1000
,  // measure 165
0100
0010
0001
0000
1001
0000
1010
0000
,  // measure 166
0110
0000
0000
0001
1000
0100
0001
0100
,  // measure 167
0000
1001
0000
0000
0000
0000
1001
0000
,  // measure 168
0101
0000
0110
0000
0000
1000
0001
0100
,  // measure 169
1000
0100
0001
0100
0010
1000
0010
0100
,  // measure 170
0010
1000
0000
0100
0010
0001
1000
0010
,  // measure 171
0100
0000
0000
0010
0100
0000
0001
0000
0100
0000
0000
0000
1000
0000
0100
0000
,  // measure 172
0001
0000
0100
0010
1000
0100
0001
0100
,  // measure 173
1000
0001
0010
1000
0220
0000
0000
0000
,  // measure 174
0000
0000
0330
0000
;

//---------------dance-single - ----------------
#NOTES:
     dance-single:
     :
     Medium:
     6:
     0.455,0.618,0.350,0.215,0.000: // measure 1
1000
1000
1001
0000
,  // measure 2
0010
0000
0100
0000
,  // measure 3
1000
1000
1001
0000
,  // measure 4
0010
0000
0100
1000
,  // measure 5
0001
0001
1001
0000
,  // measure 6
0100
0000
0010
0000
,  // measure 7
0001
0001
1001
0000
,  // measure 8
1000
0000
0001
0000
,  // measure 9
0100
0010
0100
0000
,  // measure 10
0001
0100
0010
1000
,  // measure 11
1001
0001
0001
0000
,  // measure 12
0100
0010
0100
0000
,  // measure 13
1001
0000
1001
0000
,  // measure 14
0001
0000
1000
0000
,  // measure 15
1001
0000
1001
0000
,  // measure 16
0001
0100
0010
1000
,  // measure 17
2002
0000
0000
3000
,  // measure 18
0000
2000
0000
0000
0000
0000
3003
0000
,  // measure 19
0010
0100
0001
0010
,  // measure 20
0001
1000
0100
1000
,  // measure 21
0010
0100
0010
1000
,  // measure 22
0001
0010
0001
1000
,  // measure 23
1001
0010
0100
0001
,  // measure 24
0010
0001
0100
0010
,  // measure 25
1001
0100
0010
1000
,  // measure 26
0100
0000
1000
0000
0001
0000
1000
0001
,  // measure 27
1000
0001
0100
0010
,  // measure 28
0100
0010
0100
0001
,  // measure 29
0010
0001
0010
0001
,  // measure 30
1000
0000
0100
0000
1000
0000
0010
0100
,  // measure 31
0010
0100
0010
0100
,  // measure 32
0010
1000
0010
1000
,  // measure 33
0001
0100
0001
1000
,  // measure 34
0020
0100
0100
0130
,  // measure 35
1001
0000
0100
0010
0100
0000
0002
0000
,  // measure 36
2003
0000
3010
0100
0010
0000
2000
0000
,  // measure 37
3020
0000
0130
0010
0100
0000
0002
0000
,  // measure 38
2003
0000
3010
0100
0010
0000
2000
0000
,  // measure 39
3002
0000
0103
0010
0100
0000
0020
0000
,  // measure 40
0230
0000
0301
1000
0001
1000
0001
1000
,  // measure 41
0002
0103
0010
0100
,  // measure 42
0001
0000
1000
0000
0001
1000
0001
1000
,  // measure 43
0001
0000
1001
0000
0010
0100
0010
0000
,  // measure 44
0100
0100
0001
0000
1000
1000
0010
0000
,  // measure 45
1000
0000
0001
0000
0100
0010
0100
0000
,  // measure 46
1001
0000
1001
0000
1001
0000
0001
0001
,  // measure 47
0001
1000
0100
0001
0100
0000
1001
0000
,  // measure 48
1000
1001
0001
1001
,  // measure 49
0100
0000
0100
0000
0001
1000
0001
0000
,  // measure 50
0220
0000
0000
0330
,  // measure 51
0001
0010
0100
1000
0010
0100
0001
0000
,  // measure 52
0001
0000
1000
0100
0010
0001
0100
0010
,  // measure 53
1000
0000
0010
0000
1000
0000
0001
0010
,  // measure 54
0100
1000
0010
0100
0001
0000
0001
0000
,  // measure 55
1001
0000
0001
0010
0100
1000
0010
0000
,  // measure 56
0010
0000
1000
0100
0010
0001
0100
0010
,  // measure 57
1000
0000
1001
0000
1000
0100
0010
0000
,  // measure 58
1001
0000
1001
0000
1000
0010
0100
0000
,  // measure 59
0001
0010
1000
0010
,  // measure 60
0001
0100
0010
0100
,  // measure 61
0001
0100
1000
0100
,  // measure 62
0001
1000
0001
1001
,  // measure 63
0010
1000
0010
0001
,  // measure 64
0010
0000
1000
0000
0001
1000
0001
1000
,  // measure 65
0010
0100
0001
0000
0100
0010
0100
0000
,  // measure 66
0002
0000
0203
0000
,  // measure 67
0302
0000
0100
0103
,  // measure 68
0010
1000
0001
1001
,  // measure 69
2000
0000
0010
3010
,  // measure 70
0100
0001
1000
1001
,  // measure 71
0002
0000
0100
0103
,  // measure 72
0010
1000
0001
1001
,  // measure 73
2000
0000
0010
3010
,  // measure 74
0100
0001
1000
0000
0100
1000
0001
0000
,  // measure 75
1000
0001
0000
0000
0011
0000
1000
0000
,  // measure 76
0010
0100
0010
0000
1100
0000
0001
0000
,  // measure 77
0100
0010
0100
0000
0101
0000
1000
0000
,  // measure 78
0010
0100
0010
0000
0100
0001
1000
0100
,  // measure 79
0000
1001
0000
0000
2000
0000
0010
0000
,  // measure 80
3010
0200
0001
0301
,  // measure 81
1001
0000
1001
0000
,  // measure 82
1001
0010
0100
1000
,  // measure 83
1001
0000
0000
0000
,  // measure 84
0020
0000
0230
0000
,  // measure 85
0000
0000
0320
0000
,  // measure 86
0000
0000
2030
0000
,  // measure 87
0000
0000
3002
0000
,  // measure 88
0000
0000
0023
0000
,  // measure 89
0000
0000
0032
0000
,  // measure 90
0000
0000
2003
0000
,  // measure 91
0000
0000
3200
0000
,  // measure 92
0000
0000
1300
0100
,  // measure 93
0010
0000
0001
0010
,  // measure 94
0100
0000
1000
0100
,  // measure 95
0010
0000
0001
0010
,  // measure 96
0100
0000
1001
0000
,  // measure 97
0001
0000
1001
0000
,  // measure 98
0010
0000
0110
0000
,  // measure 99
0010
0000
0110
0001
,  // measure 100
1000
0010
0200
0010
,  // measure 101
0010
0010
0310
1000
,  // measure 102
0001
0000
0020
1000
,  // measure 103
1000
1030
0001
0100
,  // measure 104
1001
0000
0200
0001
,  // measure 105
0001
0301
1000
0010
,  // measure 106
1001
0000
0010
0000
,  // measure 107
0100
0000
1000
0001
,  // measure 108
1000
0001
1001
0010
,  // measure 109
0100
1000
0010
0010
,  // measure 110
0110
0001
0010
0100
,  // measure 111
1000
0001
0100
0100
,  // measure 112
0110
0000
0000
0000
1000
0001
1000
0000
,  // measure 113
0010
0000
0100
0000
0001
1000
0001
0000
,  // measure 114
1000
0000
0010
0000
0100
0010
0100
0000
,  // measure 115
0010
0100
0010
0000
1000
0000
0001
0000
,  // measure 116
1000
0010
0102
0000
,  // measure 117
1000
0000
2003
0000
,  // measure 118
0100
0000
3002
0000
,  // measure 119
0100
0000
1003
1100
,  // measure 120
1001
0000
0022
0033
,  // measure 121
2200
3300
0202
0303
,  // measure 122
2020
3030
0022
0033
,  // measure 123
2200
3300
1000
0100
,  // measure 124
0010
0001
2002
0000
,  // measure 125
0000
0000
3003
0000
0010
0000
0010
0100
,  // measure 126
0001
0000
1000
0000
1000
0001
0100
0000
,  // measure 127
1001
0000
0000
0000
0100
0000
0100
0010
,  // measure 128
1000
0000
0001
0000
0001
1000
0010
0000
,  // measure 129
1001
0000
0000
0000
1000
0001
1000
0000
,  // measure 130
0010
0100
0001
0000
0100
0010
0100
0001
,  // measure 131
1000
0000
1000
0000
0001
1000
0001
0000
,  // measure 132
0100
0010
1000
0000
0010
0100
0001
1000
,  // measure 133
0001
1000
0001
0000
0100
0000
0100
0001
,  // measure 134
1000
0000
1000
0000
0001
0010
0100
0000
,  // measure 135
1001
0000
1000
0000
0010
0000
0010
1000
,  // measure 136
0001
0000
0001
0000
1000
0100
0010
0000
,  // measure 137
1001
0000
0001
0000
0100
0001
0100
0000
,  // measure 138
0010
1000
0100
0000
1000
0100
0001
0100
,  // measure 139
1000
0000
0001
0000
1001
0000
1000
0100
,  // measure 140
0001
0100
1000
0000
0010
0000
0010
0000
,  // measure 141
0110
0000
0101
0100
,  // measure 142
0110
0000
1000
0010
1000
0000
0001
0000
,  // measure 143
1001
0000
1010
0010
,  // measure 144
0110
0000
0001
0100
0001
0000
1000
0000
,  // measure 145
1001
0000
0000
0000
0010
0001
0010
0000
,  // measure 146
0100
1000
0100
0000
1000
0100
0010
0001
,  // measure 147
1000
0000
1000
0000
1001
0000
0001
0100
,  // measure 148
0001
0100
0010
0000
1000
0000
0100
0000
,  // measure 149
0010
0001
1100
1000
,  // measure 150
0101
0000
0001
0000
1000
0100
0010
0001
,  // measure 151
1000
1000
0101
0001
,  // measure 152
1100
0000
1000
0000
0001
0010
0100
1000
,  // measure 153
0001
0010
0100
0000
,  // measure 154
0100
0000
0100
0010
,  // measure 155
1001
0000
1100
0000
,  // measure 156
0011
0000
1000
0100
,  // measure 157
0010
0001
1000
1000
,  // measure 158
1000
0000
0001
1000
,  // measure 159
0001
0000
0110
0100
,  // measure 160
0100
0000
0010
0100
,  // measure 161
0010
1000
1001
0000
,  // measure 162
0001
0000
0110
0000
,  // measure 163
0100
0000
1001
0000
,  // measure 164
1001
0000
0000
0000
0001
0010
0100
1000
,  // measure 165
0100
0010
0001
0000
1001
0000
1000
0000
,  // measure 166
0001
0000
0100
0001
,  // measure 167
0010
0100
1001
0001
,  // measure 168
1000
0000
0010
1000
,  // measure 169
0100
0010
1001
0000
,  // measure 170
0001
0000
0110
0000
,  // measure 171
1000
0000
1001
0000
,  // measure 172
0110
0000
0000
0000
1000
0100
0010
0001
,  // measure 173
0010
0100
1000
0000
1001
0000
0000
0000
;
