#TITLE:SHOX;
#SUBTITLE:;
#ARTIST:RAM;
#TITLETRANSLIT:;
#SUBTITLETRANSLIT:;
#ARTISTTRANSLIT:;
#CREDIT:DMAxel;
#BANNER:SHOX.png;
#BACKGROUND:SHOX-bg.png;
#LYRICSPATH:;
#CDTITLE:beatmania.png;
#MUSIC:SHOX.mp3;
#OFFSET:0.885;
#SAMPLESTART:55.282;
#SAMPLELENGTH:12.000;
#SELECTABLE:YES;
#BPMS:0.000=175.320;
#STOPS:;
#BGCHANGES:;

//---------------dance-single - ----------------
#NOTES:
     dance-single:
     :
     Hard:
     8:
     0.505,0.507,0.229,0.051,0.318: // measure 1
0000
0000
0000
0000
,  // measure 2
0000
0000
0000
0000
,  // measure 3
0000
0000
0000
0000
,  // measure 4
0000
0000
0000
0000
,  // measure 5
0000
0000
0000
0000
,  // measure 6
0000
0000
0000
0000
,  // measure 7
0000
0000
0000
0000
,  // measure 8
0000
0000
0000
0000
,  // measure 9
0011
0000
0000
1010
0000
0000
1001
0000
,  // measure 10
0100
0000
1000
0000
0010
1000
0010
0000
,  // measure 11
0100
0000
0001
0000
0010
0001
0010
0000
,  // measure 12
0001
0000
1000
0000
0010
0100
0010
0000
,  // measure 13
1000
0000
0001
0000
0100
0010
0100
0000
,  // measure 14
1001
0000
0100
1000
0010
0000
1000
0001
,  // measure 15
0100
0000
0110
0000
1000
0000
0001
0100
,  // measure 16
0010
0000
0110
0000
0001
0000
1000
0010
,  // measure 17
0100
0000
0000
0100
0000
0000
0010
0000
0000
0010
0000
0000
1000
0000
0001
0000
,  // measure 18
1000
0000
0001
0000
0010
0200
0000
0000
,  // measure 19
1300
0000
1000
0000
0100
0020
0000
0000
,  // measure 20
0031
0000
0001
0000
0100
0020
0000
0000
,  // measure 21
1030
0000
1000
0000
0010
0200
0000
0000
,  // measure 22
0301
0000
0000
0000
0010
0000
0000
0010
0000
0000
0001
0000
1000
0000
0000
0000
,  // measure 23
1000
0000
0000
0000
0100
0000
0000
0100
0000
0000
1000
0000
0001
0000
0000
0000
,  // measure 24
0001
0000
0000
0000
0100
0000
0000
0100
0000
0000
0001
0000
1000
0000
0000
0000
,  // measure 25
1000
0000
0000
0000
0010
0000
0000
0010
0000
0000
1000
0000
0001
0000
0000
0000
,  // measure 26
1001
0000
0000
0000
0100
0000
0000
1000
0000
0000
0100
0000
0010
0000
0000
0000
,  // measure 27
1001
0000
0000
0000
0100
0000
0000
0001
0000
0000
0010
0000
0100
0000
0000
0000
,  // measure 28
1001
0000
0000
0000
0010
0000
0000
1000
0000
0000
0100
0000
0010
0000
0000
0000
,  // measure 29
1001
0000
0000
0000
0100
0000
0000
0001
0000
0000
0010
0000
0100
0000
0000
0000
,  // measure 30
1001
0000
0000
0000
0100
0000
0000
0100
0000
0000
1000
0000
0010
0000
0000
0000
,  // measure 31
0110
0000
0000
0000
0010
0000
0000
0010
0000
0000
0001
0000
0100
0000
0000
0000
,  // measure 32
0110
0000
0000
0000
0010
0000
0000
0010
0000
0000
1000
0000
0001
0000
0000
0000
,  // measure 33
0100
0000
0000
0100
0000
0000
0010
0000
0000
0010
0000
0000
1000
0000
0001
0000
,  // measure 34
1000
0000
0000
0000
,  // measure 35
1001
0000
0000
0001
0000
0000
0010
0000
0000
0100
0000
0000
1000
0000
0000
0000
,  // measure 36
0001
0000
0000
0000
1001
0000
0000
1000
0000
0000
0010
0000
0100
0000
0010
0000
,  // measure 37
1000
0000
0000
1000
0000
0000
0100
0000
0000
0010
0000
0000
0001
0000
0000
0000
,  // measure 38
1000
0000
0000
0000
1001
0000
0000
0001
0000
0000
0100
0000
0010
0000
0100
0000
,  // measure 39
0001
0000
0000
0001
0000
0000
0010
0000
0000
0100
0000
0000
1000
0000
0000
0000
,  // measure 40
0001
0000
0000
0000
1001
0000
0000
1000
0000
0000
0100
0000
0010
0000
0100
0000
,  // measure 41
1000
0000
0000
1000
0000
0000
0010
0000
0000
0100
0000
0000
0001
0000
1000
0000
,  // measure 42
0001
0000
0000
0000
0100
0000
0000
0100
0000
0000
0100
0000
0001
0000
0010
0000
,  // measure 43
0100
0000
0000
1000
0000
0000
0010
0000
0000
1000
0000
0000
0100
0000
0000
0000
,  // measure 44
1000
0000
0000
0000
0010
0000
0000
0010
0000
0000
0010
0000
1000
0000
0100
0000
,  // measure 45
0010
0000
0000
0001
0000
0000
0100
0000
0000
0001
0000
0000
0010
0000
0000
0000
,  // measure 46
0001
0000
0000
0000
0100
0000
0000
0100
0000
0000
0100
0000
0001
0000
0010
0000
,  // measure 47
0100
0000
0000
1000
0000
0000
0010
0000
0000
1000
0000
0000
0100
0000
0000
0000
,  // measure 48
1000
0000
0000
0000
0010
0000
0000
0010
0000
0000
0010
0000
1000
0000
0100
0000
,  // measure 49
0010
0000
0000
0010
0000
0000
0001
0000
0000
0001
0000
0000
1000
0000
0001
0000
,  // measure 50
1000
0000
0000
0000
0010
0000
0000
0010
0000
0000
0010
0000
0100
0000
0001
0000
,  // measure 51
0100
0000
0000
0001
0000
0000
0010
0000
0000
0100
0000
0000
1000
0000
0000
0000
,  // measure 52
0010
0000
1000
0000
0100
0000
0000
0100
0000
0000
0100
0000
0010
0000
1000
0000
,  // measure 53
0010
0000
0000
1000
0000
0000
0100
0000
0000
0010
0000
0000
0001
0000
0000
0000
,  // measure 54
0010
0000
0001
0000
0100
0000
0000
0100
0000
0000
0100
0000
0010
0000
0100
0000
,  // measure 55
0001
0000
0000
1000
0000
0000
0010
0000
0000
0100
0000
0000
0001
0000
1000
0000
,  // measure 56
0001
0000
0000
0000
1000
0000
0000
0001
0000
0000
0100
0000
0010
0000
0100
0000
,  // measure 57
0001
0000
0000
1000
0000
0000
0010
0000
0000
0100
0000
0000
0001
0000
0010
0000
,  // measure 58
1001
0000
0000
0000
;

//---------------dance-single - ----------------
#NOTES:
     dance-single:
     :
     Easy:
     4:
     0.263,0.362,0.165,0.152,0.000:
0000
0000
0000
0000
,
0000
0000
0000
0000
,
0000
0000
0000
0000
,
0000
0000
0000
0000
,
0000
0000
0000
0000
,
0000
0000
0000
0000
,
0000
0000
0000
0000
,
0000
0000
0000
0000
,
0220
0000
0000
0330
,
1001
0000
0010
0000
,
0010
0000
0010
0000
,
0001
0000
0001
0000
,
0001
0000
0001
0000
,
1000
0000
1000
0000
,
1000
0000
1000
0000
,
0100
0000
0100
0000
,
0220
0000
0000
0330
,
1001
0000
0001
0000
,
0010
0000
0010
0000
,
0001
0000
0001
0000
,
1000
0000
0001
0000
,
1000
0000
0010
0000
,
1000
0000
0010
0000
,
0100
0000
0001
0000
,
0100
0000
0010
0000
,
1001
0000
0010
0000
,
1000
0000
0100
0000
,
0010
0000
0001
0000
,
1000
0000
0010
0000
,
0001
0000
0010
0000
,
0100
0000
1000
0000
,
0010
0000
1000
0000
,
0220
0000
0000
0000
,
0330
0000
0000
0000
,
1001
0010
1000
0010
,
0000
1000
0100
0010
,
0001
0100
0001
0100
,
0000
0001
0010
0100
,
1000
0100
1000
0100
,
0000
1000
0100
0010
,
2002
0000
0000
3003
,
0110
1000
1000
1000
,
0100
0010
0001
0100
,
0000
0001
0001
0001
,
0010
0100
1000
0010
,
0000
1000
1000
1000
,
0010
0100
0001
0010
,
0000
0001
0001
0001
,
0220
0000
0000
0330
,
1001
0100
0100
0000
,
1000
0010
0010
0000
,
0100
0001
0001
0000
,
0010
0100
0100
0000
,
1000
0100
0100
0000
,
0010
0001
0001
0010
,
0100
1000
1000
0010
,
0220
0000
0000
0330
,
1001
0000
0000
0000
;

//---------------dance-single - ----------------
#NOTES:
     dance-single:
     :
     Medium:
     6:
     0.457,0.579,0.457,0.013,0.000: // measure 1
0000
0000
0000
0000
,  // measure 2
0000
0000
0000
0000
,  // measure 3
0000
0000
0000
0000
,  // measure 4
0000
0000
0000
0000
,  // measure 5
0000
0000
0000
0000
,  // measure 6
0000
0000
0000
0000
,  // measure 7
0000
0000
0000
0000
,  // measure 8
0000
0000
0000
0000
,  // measure 9
0001
0000
0000
0101
0000
0000
1100
0000
,  // measure 10
1001
0010
0001
0010
,  // measure 11
0001
1000
0100
1000
,  // measure 12
0001
0100
0001
0100
,  // measure 13
0010
1000
0010
1000
,  // measure 14
0001
1000
0001
1000
,  // measure 15
0010
0100
0010
0100
,  // measure 16
0010
1000
0010
1000
,  // measure 17
0100
0000
0000
1100
0000
0000
0101
0000
,  // measure 18
1001
0010
0001
0100
,  // measure 19
0100
0010
1000
0100
,  // measure 20
0100
1000
0001
0010
,  // measure 21
0010
0001
1000
0110
,  // measure 22
0001
0000
0010
0001
0010
0000
0001
0000
,  // measure 23
1000
0000
0100
1000
0100
0000
1000
0000
,  // measure 24
0001
0000
0100
0001
0100
0000
0001
0000
,  // measure 25
1000
0000
0010
1000
0010
0000
1000
0000
,  // measure 26
1001
0000
0100
0001
0010
0001
0010
0000
,  // measure 27
1001
0000
0010
1000
0100
1000
0100
0000
,  // measure 28
1001
0000
0010
0001
0100
0001
0100
0000
,  // measure 29
1001
0000
0100
1000
0010
1000
0010
0000
,  // measure 30
1001
0000
0010
0001
1000
0100
1000
0000
,  // measure 31
1001
0000
0100
1000
0001
0100
0001
0000
,  // measure 32
1001
0000
0010
0001
1000
0001
1000
0000
,  // measure 33
1001
0000
0000
0110
0000
0000
1001
0000
,  // measure 34
0020
0000
0000
0030
,  // measure 35
1001
0000
0000
0010
0000
0000
1001
0000
,  // measure 36
0000
0100
0001
0100
,  // measure 37
1001
0000
0000
0100
0000
0000
1001
0000
,  // measure 38
0000
0010
1000
0010
,  // measure 39
1001
0000
0000
0110
0000
0000
1001
0000
,  // measure 40
0000
0001
0100
0010
,  // measure 41
1010
0000
0000
0011
0000
0000
1010
0000
,  // measure 42
1001
0000
0001
0100
0010
0000
1000
0000
,  // measure 43
0100
0000
0010
0000
0001
1000
0001
0000
,  // measure 44
1000
0000
1000
0010
0100
0000
0001
0000
,  // measure 45
0010
0000
0100
0000
1000
0001
1000
0000
,  // measure 46
0001
0000
0001
0100
0010
0000
1000
0000
,  // measure 47
0100
0000
0010
0000
0001
1000
0001
0000
,  // measure 48
1000
0000
1000
0010
0100
0000
0001
0000
,  // measure 49
0011
0000
0000
1010
0000
0000
1100
0000
,  // measure 50
1001
0000
1000
0010
0100
0010
0100
0000
,  // measure 51
0001
0010
0100
1000
,  // measure 52
0001
0000
0100
0001
0010
0001
0010
0000
,  // measure 53
0001
0010
0100
1000
,  // measure 54
0001
1000
0010
1000
0010
0000
1000
0000
,  // measure 55
0100
0000
0010
0000
0001
0000
1000
0010
,  // measure 56
0100
0010
0100
0000
0001
0000
0010
0000
,  // measure 57
1100
0000
0000
1010
0000
0000
0101
0000
,  // measure 58
1001
0000
0000
0000
;

//---------------dance-single - ----------------
#NOTES:
     dance-single:
     :
     Challenge:
     9:
     0.601,0.579,0.445,0.114,0.330: // measure 1
0000
0000
0000
0000
,  // measure 2
0000
0000
0000
0000
,  // measure 3
0000
0000
0000
0000
,  // measure 4
0000
0000
0000
0000
,  // measure 5
0000
0000
0000
0000
,  // measure 6
0000
0000
0000
0000
,  // measure 7
0000
0000
0000
0000
,  // measure 8
0000
0000
0000
0000
,  // measure 9
0100
0000
0000
1001
0000
0000
0010
0000
0000
1001
0000
0000
0100
0000
0001
0000
,  // measure 10
0010
0000
0001
0010
0100
0010
0001
0000
,  // measure 11
0010
0100
1000
0100
0010
0100
1000
0000
,  // measure 12
0010
0100
0001
0100
0010
0100
0001
0000
,  // measure 13
0100
0010
1000
0100
1000
0010
1000
0000
,  // measure 14
0010
1000
0100
0010
0001
0100
0001
0000
,  // measure 15
0010
0100
1000
0010
1000
0100
0010
0000
,  // measure 16
0001
1000
0001
0010
0100
1000
0001
0000
,  // measure 17
0100
0000
0000
1001
0000
0000
0010
0000
0000
1001
0000
0000
0100
0000
0001
0000
,  // measure 18
0020
0000
1000
0000
1030
0100
0010
0000
,  // measure 19
0002
0000
0100
0000
0103
0010
1000
0000
,  // measure 20
0200
0000
1000
0000
1300
0100
0010
0000
,  // measure 21
0002
0000
0010
0000
0013
0100
1000
0010
,  // measure 22
2000
0000
0000
0000
0001
0000
0000
3001
0000
0000
0001
0000
0100
0000
0000
0000
,  // measure 23
0002
0000
0000
0000
1000
0000
0000
1003
0000
0000
1000
0000
0010
0000
0000
0000
,  // measure 24
0200
0000
0000
0000
0001
0000
0000
0301
0000
0000
0001
0000
0010
0000
0100
0000
,  // measure 25
2000
0000
0000
0000
0001
0000
0000
3001
0000
0000
0100
0000
0010
0000
0000
0000
,  // measure 26
1001
0000
0000
0000
0001
0000
0000
0100
0000
0000
0010
0000
0100
0000
0001
0000
,  // measure 27
0001
0000
0000
0000
1000
0000
0000
0010
0000
0000
0100
0000
0010
0000
1000
0000
,  // measure 28
1000
0000
0000
0000
0100
0000
0000
0010
0000
0000
0001
0000
0100
0000
0010
0000
,  // measure 29
0010
0000
0000
0000
1000
0000
0000
0010
0000
0000
1000
0000
0010
0000
0100
0000
,  // measure 30
0100
0000
0000
0000
0001
0000
0000
0100
0000
0000
0010
0000
0100
0000
0010
0000
,  // measure 31
1000
0000
0000
0000
0001
0000
0000
1000
0000
0000
0100
0000
1000
0000
0100
0000
,  // measure 32
0001
0000
0000
0000
1000
0000
0000
0001
0000
0000
0010
0000
0001
0000
0010
0000
,  // measure 33
1000
0000
0000
1001
0000
0000
0001
0000
0000
1001
0000
0000
0010
0000
0100
0000
,  // measure 34
0020
0000
0000
0030
,  // measure 35
1001
0000
0000
1010
0000
0000
0100
0000
0000
0001
0000
0000
0100
0000
0000
0000
,  // measure 36
0001
0000
0000
0000
0110
0000
0000
1000
0000
0000
0100
0000
0010
0000
0100
0000
,  // measure 37
0010
0000
0000
0101
0000
0000
0010
0000
0000
1000
0000
0000
0010
0000
0000
0000
,  // measure 38
1000
0000
0000
0000
0110
0000
0000
0001
0000
0000
0010
0000
0100
0000
0010
0000
,  // measure 39
0100
0000
0000
1010
0000
0000
0100
0000
0000
0001
0000
0000
0100
0000
0000
0000
,  // measure 40
0001
0000
0000
0000
0110
0000
0000
1000
0000
0000
0010
0000
0100
0000
0010
0000
,  // measure 41
0100
0000
0000
1001
0000
0000
0010
0000
0000
1001
0000
0000
0010
0000
1000
0000
,  // measure 42
0100
0000
1000
0000
0010
0000
0000
0100
0000
0000
0001
0000
0010
0000
0100
0000
,  // measure 43
1000
0000
0000
1001
0000
0000
0100
0000
0000
0010
0000
0000
1000
0000
0000
0000
,  // measure 44
0010
0000
0100
0000
0001
0000
0000
0010
0000
0000
1000
0000
0100
0000
0010
0000
,  // measure 45
0001
0000
0000
1001
0000
0000
0010
0000
0000
1000
0000
0000
0001
0000
0000
0000
,  // measure 46
1000
0000
0010
0000
0100
0000
0000
1001
0000
0000
0001
0000
0010
0000
0100
0000
,  // measure 47
1000
0000
0000
0110
0000
0000
1000
0000
0000
0001
0000
0000
0010
0000
0000
0000
,  // measure 48
0001
0000
0010
0000
0100
0000
0000
1001
0000
0000
0010
0000
1000
0000
0100
0000
,  // measure 49
0010
0000
0000
1001
0000
0000
0100
0000
0000
1001
0000
0000
0010
0000
0000
0000
,  // measure 50
1001
0000
0000
0000
0100
0000
0000
0100
0000
0000
0001
0000
0010
0000
0100
0000
,  // measure 51
0010
0000
0000
1001
0000
0000
0100
0000
0000
1001
0000
0000
0010
0000
1000
0000
,  // measure 52
0100
0000
0000
0000
0010
0000
0000
0010
0000
0000
1000
0000
0100
0000
0010
0000
,  // measure 53
0100
0000
0000
1001
0000
0000
0010
0000
0000
1001
0000
0000
0100
0000
0001
0000
,  // measure 54
0010
0000
0000
0000
0001
0000
0000
1001
0000
0000
0010
0000
0100
0000
0010
0000
,  // measure 55
1000
0000
0000
0110
0000
0000
0001
0000
0000
0110
0000
0000
1000
0000
0100
0000
,  // measure 56
0001
0000
0000
0000
1000
0000
0000
1001
0000
0000
0100
0000
0010
0000
0100
0000
,  // measure 57
0001
0000
0000
0110
0000
0000
1000
0000
0000
0110
0000
0000
0001
0000
0100
0000
,  // measure 58
1001
0000
0000
0000
;

//---------------dance-single - ----------------
#NOTES:
     dance-single:
     :
     Beginner:
     2:
     0.093,0.145,0.076,0.000,0.000:
0000
0000
0000
0000
,
0000
0000
0000
0000
,
0000
0000
0000
0000
,
0000
0000
0000
0000
,
0000
0000
0000
0000
,
0000
0000
0000
0000
,
0000
0000
0000
0000
,
0000
0000
0000
0000
,
0000
0000
0000
0000
,
1000
0000
0000
0000
,
0000
0000
0000
0000
,
1000
0000
0000
0000
,
0000
0000
0000
0000
,
0001
0000
0000
0000
,
0000
0000
0000
0000
,
0001
0000
0000
0000
,
0000
0000
0000
0000
,
1001
0000
0000
0000
,
0010
0000
0000
0000
,
0010
0000
0000
0000
,
0010
0000
0000
0000
,
0100
0000
0000
0000
,
0100
0000
0000
0000
,
0100
0000
0000
0000
,
0100
0000
0000
0000
,
1001
0000
0000
0000
,
1000
0000
0000
0000
,
1000
0000
0000
0000
,
0001
0000
0000
0000
,
0001
0000
0000
0000
,
0001
0000
0000
0000
,
0100
0000
0000
0000
,
0010
0000
0000
0000
,
0010
0000
0000
0000
,
1001
0000
0000
0000
,
1000
0000
0000
0000
,
0001
0000
0000
0000
,
1000
0000
0000
0000
,
0010
0000
0000
0000
,
0100
0000
0000
0000
,
0010
0000
0000
0000
,
1001
0000
0000
0000
,
0001
0000
0000
0000
,
1000
0000
0000
0000
,
0010
0000
0000
0000
,
0100
0000
0000
0000
,
0010
0000
0000
0000
,
0100
0000
0000
0000
,
0001
0000
0000
0000
,
1001
0000
0000
0000
,
1000
0000
0000
0000
,
0010
0000
0000
0000
,
1000
0000
0000
0000
,
0001
0000
0000
0000
,
0100
0000
0000
0000
,
0001
0000
0000
0000
,
1001
0000
0000
0000
,
1000
0000
0000
0000
;
