#TITLE:雫;
#SUBTITLE:;
#ARTIST:あさき;
#TITLETRANSLIT:SHIZUKU;
#SUBTITLETRANSLIT:;
#ARTISTTRANSLIT:Asaki;
#CREDIT:DMAxel;
#BANNER:SHIZUKU.png;
#BACKGROUND:SHIZUKU-bg.png;
#LYRICSPATH:;
#CDTITLE:pop'n music.png;
#MUSIC:SHIZUKU.mp3;
#OFFSET:-7.960;
#SAMPLESTART:71.960;
#SAMPLELENGTH:12.000;
#SELECTABLE:YES;
#BPMS:0.000=69.500,2.000=67.000,3.000=65.000,5.000=62.500,5.500=55.000,6.000=52.500,6.500=47.500,8.000=210.001,360.000=52.500;
#STOPS:7.500=0.600
,166.000=0.580
;
#BGCHANGES:;

//---------------dance-single - ----------------
#NOTES:
     dance-single:
     :
     Beginner:
     2:
     0.137,0.212,0.118,0.000,0.000: // measure 1
0001
0000
0000
0000
,  // measure 2
1000
0000
0000
0000
,  // measure 3
0000
0000
0001
0000
,  // measure 4
1000
0000
0001
0000
,  // measure 5
1000
0000
0001
0000
,  // measure 6
0000
0000
1000
0000
,  // measure 7
0000
0000
0010
0000
,  // measure 8
0000
0000
0100
0000
,  // measure 9
0000
0000
0010
0000
,  // measure 10
0100
0000
0010
0000
,  // measure 11
0100
0000
0110
0000
,  // measure 12
0000
0000
0001
0000
,  // measure 13
0000
0000
1000
0000
,  // measure 14
0001
0000
1000
0000
,  // measure 15
0001
0000
1000
0000
,  // measure 16
0000
0000
0100
0000
,  // measure 17
0000
0000
0010
0000
,  // measure 18
0000
0000
1001
0000
,  // measure 19
0000
0000
1001
0000
,  // measure 20
0000
0000
0000
0000
,  // measure 21
0000
0000
1000
0000
,  // measure 22
0000
0000
0000
0000
,  // measure 23
0000
0000
0001
0000
,  // measure 24
0000
0000
0000
0000
,  // measure 25
0000
0000
1000
0000
,  // measure 26
0000
0000
1000
0000
,  // measure 27
0000
0000
1000
0000
,  // measure 28
0000
0000
0000
0000
,  // measure 29
0000
0000
0001
0000
,  // measure 30
0000
0000
0000
0000
,  // measure 31
0000
0000
0001
0000
,  // measure 32
0000
0000
0000
0000
,  // measure 33
0000
0000
1000
0000
,  // measure 34
0000
0000
1000
0000
,  // measure 35
0000
0000
1001
0000
,  // measure 36
0000
0000
0001
0000
,  // measure 37
0000
0000
1000
0000
,  // measure 38
0000
0000
0001
0000
,  // measure 39
0000
0000
0100
0000
,  // measure 40
0000
0000
0010
0000
,  // measure 41
0000
0000
1000
0000
,  // measure 42
0000
0000
0001
0000
,  // measure 43
1001
0000
0000
0000
,  // measure 44
1000
0000
0000
0000
,  // measure 45
0001
0000
0000
0000
,  // measure 46
1000
0000
0000
0000
,  // measure 47
0100
0000
0000
0000
,  // measure 48
0010
0000
0000
0000
,  // measure 49
0001
0000
0000
0000
,  // measure 50
1000
0000
1000
0000
,  // measure 51
1001
0000
0000
0000
,  // measure 52
0001
0000
0000
0000
,  // measure 53
1000
0000
0001
0000
,  // measure 54
1000
0000
1000
0000
,  // measure 55
1001
0000
0000
0000
,  // measure 56
0010
0000
0000
0000
,  // measure 57
0010
0000
0100
0000
,  // measure 58
0010
0000
0010
0000
,  // measure 59
0110
0000
0000
0000
,  // measure 60
0001
0000
0000
0000
,  // measure 61
0001
0000
1000
0000
,  // measure 62
0001
0000
0001
0000
,  // measure 63
1001
0000
0000
0000
,  // measure 64
0100
0000
0000
0000
,  // measure 65
0100
0000
0010
0000
,  // measure 66
0100
0000
0100
0000
,  // measure 67
0110
0000
0000
0000
,  // measure 68
0001
0000
0000
0000
,  // measure 69
1000
0000
0000
0000
,  // measure 70
0001
0000
0000
0000
,  // measure 71
0100
0000
0000
0000
,  // measure 72
0010
0000
0000
0000
,  // measure 73
1000
0000
0010
0000
,  // measure 74
0100
0000
0001
0000
,  // measure 75
1001
0000
0000
0000
,  // measure 76
1000
0000
0000
0000
,  // measure 77
1001
0000
0000
0000
,  // measure 78
0001
0000
0000
0000
,  // measure 79
0100
0000
0010
0000
,  // measure 80
0100
0000
0001
0000
,  // measure 81
1000
0000
0100
0000
,  // measure 82
0010
0000
0001
0000
,  // measure 83
1000
0000
0000
0000
,  // measure 84
1001
0000
0000
0000
,  // measure 85
1001
0000
0000
0000
,  // measure 86
1001
0000
0000
0000
,  // measure 87
0001
0000
0000
0000
,  // measure 88
1000
0000
0000
0000
,  // measure 89
0001
0000
0000
0000
,  // measure 90
0100
0000
0010
0000
,  // measure 91
0100
0000
0000
0000
;

//---------------dance-single - ----------------
#NOTES:
     dance-single:
     :
     Easy:
     4:
     0.319,0.392,0.173,0.079,0.000: // measure 1
2000
0000
0000
3001
,  // measure 2
0200
0000
0000
0000
,  // measure 3
0300
0000
1001
0000
,  // measure 4
1000
0001
1000
0000
,  // measure 5
0001
1000
0001
0100
,  // measure 6
0010
1000
0100
1000
,  // measure 7
0010
1000
1001
0000
,  // measure 8
0001
0100
0001
0000
,  // measure 9
1000
0001
1000
0000
,  // measure 10
0010
0100
0001
0010
,  // measure 11
0001
1000
1001
0000
,  // measure 12
0100
0000
0010
0000
,  // measure 13
0100
0010
1000
0000
,  // measure 14
0010
0000
0100
0001
,  // measure 15
1000
0001
1001
0000
,  // measure 16
0100
0000
0010
0000
,  // measure 17
0100
0000
0001
0000
,  // measure 18
1000
0000
1001
0000
,  // measure 19
0100
0010
0100
0000
,  // measure 20
0001
0000
0100
0000
,  // measure 21
0010
0000
1000
0000
,  // measure 22
0010
0000
1000
0000
,  // measure 23
0001
0000
0100
0000
,  // measure 24
0010
0000
1000
0000
,  // measure 25
0001
1000
0002
0000
,  // measure 26
1000
0000
1003
0000
,  // measure 27
0100
0000
1001
0000
,  // measure 28
0100
0000
0001
0000
,  // measure 29
1000
0000
0100
0000
,  // measure 30
1000
0000
0001
0000
,  // measure 31
0100
0000
0001
0000
,  // measure 32
1000
0000
0001
0000
,  // measure 33
1000
0000
0010
0000
,  // measure 34
0100
0000
0010
0100
,  // measure 35
0010
0000
0100
0000
0010
0000
0000
1000
,  // measure 36
0000
0000
0000
0000
0001
0000
0000
0100
,  // measure 37
0000
0000
0001
1000
,  // measure 38
0001
0000
1000
0001
,  // measure 39
1000
0000
0000
0000
0001
0000
0000
0010
,  // measure 40
0000
0000
0000
0000
0100
0000
0000
1000
,  // measure 41
0000
0000
0001
0001
,  // measure 42
1000
1000
1001
0000
,  // measure 43
0100
0000
0000
0001
0000
0000
0000
0000
,  // measure 44
1000
0000
0000
0010
0000
0000
0000
0000
,  // measure 45
1000
0001
1000
0001
,  // measure 46
0100
0000
0000
0010
0000
0000
0100
0000
,  // measure 47
0001
0010
0001
0000
,  // measure 48
1000
0100
1000
0000
,  // measure 49
0001
1000
0001
0100
,  // measure 50
0010
0100
0010
0000
,  // measure 51
1001
0100
0010
0000
,  // measure 52
0001
0100
0010
0000
,  // measure 53
1000
0010
0100
0001
,  // measure 54
0010
0100
1000
0001
,  // measure 55
1001
0000
1000
0000
,  // measure 56
0010
0100
0010
0000
,  // measure 57
1000
0010
0100
0001
,  // measure 58
0010
0100
1000
0001
,  // measure 59
1001
0000
0100
0010
,  // measure 60
0100
0000
0001
0100
,  // measure 61
0010
1000
0100
0010
,  // measure 62
0001
1000
0001
1000
,  // measure 63
1001
0000
0001
0000
,  // measure 64
0100
0010
0100
0000
,  // measure 65
0001
0100
0001
1000
,  // measure 66
0100
1000
0001
0010
,  // measure 67
0200
0000
0010
0000
,  // measure 68
0310
0001
1000
0100
,  // measure 69
0020
0000
0100
0000
,  // measure 70
0130
1000
0001
0010
,  // measure 71
0200
0000
0010
0000
,  // measure 72
0310
0001
1000
0100
,  // measure 73
0020
0000
0000
0100
,  // measure 74
0130
0000
0000
1001
0000
0000
0100
0000
,  // measure 75
1001
0000
0000
0110
0000
0110
0000
0110
,  // measure 76
0000
0000
0000
0000
0100
0000
0000
1001
,  // measure 77
0000
0000
0100
0010
,  // measure 78
0100
0000
0001
0010
,  // measure 79
0001
0000
1000
0100
,  // measure 80
1000
0000
0010
0100
,  // measure 81
0010
0000
0000
0000
0100
0000
0000
1001
,  // measure 82
0000
1000
0010
0100
,  // measure 83
0001
0000
0000
0110
0000
0110
0000
0110
,  // measure 84
0000
0000
0000
0000
1000
0000
0000
1001
,  // measure 85
0000
0000
0000
0000
0000
0001
0000
1000
,  // measure 86
0000
0000
0002
0000
,  // measure 87
1003
0010
1000
0010
,  // measure 88
1000
0000
0001
0100
,  // measure 89
0002
0000
1003
0010
,  // measure 90
0100
0001
0010
0100
,  // measure 91
2000
0000
0000
3000
;

//---------------dance-single - ----------------
#NOTES:
     dance-single:
     :
     Medium:
     6:
     0.461,0.463,0.181,0.188,0.000: // measure 1
1000
0100
0010
0010
0010
0000
0001
0000
,  // measure 2
0001
0010
0100
0000
0200
0000
0000
0300
,  // measure 3
1000
0000
0001
0000
1001
0000
0000
0001
,  // measure 4
0000
0100
0000
0002
0000
0000
1003
0000
,  // measure 5
0100
0010
0100
1000
,  // measure 6
0100
0001
0100
1000
,  // measure 7
0010
0000
0000
0110
0000
0000
0000
0000
,  // measure 8
0010
0100
0020
0000
,  // measure 9
1030
0100
0010
0001
,  // measure 10
1000
0000
0010
2000
0000
0000
3001
0010
,  // measure 11
0001
0000
1000
0000
1001
0000
0000
1000
,  // measure 12
0000
0100
0000
1000
0000
0000
0001
0000
,  // measure 13
0010
0000
0100
0000
1000
0000
0001
0100
,  // measure 14
0000
0001
0000
0200
0000
0000
0301
0000
,  // measure 15
1000
0001
0000
1001
0000
0000
0001
0000
,  // measure 16
0100
0010
0000
2000
0000
0000
3001
0000
,  // measure 17
1000
0100
0010
0001
,  // measure 18
1000
0000
0010
0200
0000
0000
0000
0000
,  // measure 19
0310
1000
0001
0010
,  // measure 20
0100
0010
0001
0000
,  // measure 21
1000
0001
1000
0100
,  // measure 22
0010
0100
1000
0001
,  // measure 23
0100
1000
0100
0001
,  // measure 24
0100
0010
0100
0000
,  // measure 25
0010
1000
0200
0000
,  // measure 26
0010
0000
0310
0001
,  // measure 27
1000
0000
0000
0000
1001
0000
0000
0001
,  // measure 28
0000
1000
0020
0000
,  // measure 29
0130
0000
0001
0000
1000
0000
0000
1000
,  // measure 30
0000
0001
0200
0000
,  // measure 31
0310
1000
0002
0000
,  // measure 32
1000
0000
1003
0000
,  // measure 33
1000
0010
0200
0000
,  // measure 34
0000
0301
0010
0100
,  // measure 35
1000
0000
0100
0000
0010
0000
0001
1000
,  // measure 36
0001
0000
0100
0000
0100
0000
0001
1000
,  // measure 37
0001
0100
0010
1000
,  // measure 38
0100
0010
0100
1000
,  // measure 39
0001
0000
0000
0000
1000
0001
1000
0000
,  // measure 40
0100
0000
0100
0000
1000
0001
1000
0000
,  // measure 41
0100
0100
1001
1000
,  // measure 42
0001
1000
1001
0000
,  // measure 43
1001
0000
0100
0001
0100
0000
0010
0000
,  // measure 44
1000
0001
0010
0100
,  // measure 45
1000
0000
0100
1000
0100
0000
0010
0000
,  // measure 46
0001
1000
0010
0100
,  // measure 47
0001
0000
0100
0010
0100
0000
0010
0000
,  // measure 48
1000
1000
0001
0001
,  // measure 49
0100
0010
0100
0000
0010
0100
0010
0000
,  // measure 50
1001
1001
1001
0000
,  // measure 51
0010
0000
1000
0001
0000
0010
0000
0200
,  // measure 52
0000
0310
0001
1000
,  // measure 53
0001
0000
0100
0001
0100
0000
0001
0000
,  // measure 54
1000
0000
0100
1000
0100
0000
1000
0001
,  // measure 55
0000
0100
0000
0001
0000
0000
0100
0000
,  // measure 56
0001
0000
0100
0000
0010
0000
1000
0002
,  // measure 57
0000
1003
0100
0010
,  // measure 58
0001
0100
1000
0100
,  // measure 59
1001
0000
0001
1000
0000
0010
0000
2000
,  // measure 60
0000
3001
1000
0100
,  // measure 61
0010
0000
0001
0100
0000
0010
0000
2000
,  // measure 62
0000
0000
3001
0000
0100
0000
0001
1000
,  // measure 63
0000
0010
0000
0100
0000
0000
0001
0000
,  // measure 64
0100
1000
0010
0100
,  // measure 65
0001
0000
1000
0000
0100
0000
0001
1000
,  // measure 66
0000
0000
0001
1000
0001
1000
0001
1000
,  // measure 67
0001
0000
0100
0000
0001
0000
1000
0200
,  // measure 68
0000
1300
0100
0001
,  // measure 69
0010
0000
0100
0010
0000
0001
0000
2000
,  // measure 70
0000
0000
3001
0000
0010
0000
0100
0020
,  // measure 71
0000
0000
0000
0000
0130
0000
1000
0002
,  // measure 72
0000
0000
1003
0000
0100
0000
0010
0200
,  // measure 73
0000
0000
0000
0000
0310
0000
0010
0100
,  // measure 74
0010
0000
0001
1000
0000
0000
0010
0000
,  // measure 75
0110
0000
0000
1001
0000
1001
0000
1001
,  // measure 76
0000
0000
0000
0000
0100
0000
0001
1000
,  // measure 77
0000
0000
0100
0000
0010
0000
0001
1000
,  // measure 78
0001
0000
0100
0000
0001
0100
0010
1000
,  // measure 79
0000
0000
0010
0000
1000
0000
0001
0010
,  // measure 80
0000
0000
0001
0000
1000
0010
0100
0001
,  // measure 81
0000
0000
0100
0000
0010
1000
0001
0020
,  // measure 82
0000
0000
0031
0000
1000
0100
0010
0001
,  // measure 83
1000
0000
0000
1001
0000
0110
0000
1001
,  // measure 84
0000
0000
0000
0000
0001
0010
0100
2000
,  // measure 85
0000
0000
3001
0100
0000
0110
0000
0110
,  // measure 86
0000
0000
0001
0000
1000
0010
1000
0000
,  // measure 87
1001
0000
0100
1000
0000
0100
0000
1001
,  // measure 88
0000
0000
0100
0000
0010
0100
0010
0100
,  // measure 89
0000
0001
1000
0000
0001
0100
0001
0100
,  // measure 90
0000
0010
1000
0000
0010
0100
0010
0100
,  // measure 91
0002
0000
0000
0003
;

//---------------dance-single - ----------------
#NOTES:
     dance-single:
     :
     Hard:
     8:
     0.607,0.535,0.322,0.173,0.020: // measure 1
0001
0000
0100
0001
0000
1000
0000
1000
0000
0000
0000
0000
0010
0000
0000
0000
,  // measure 2
0010
0000
1000
0001
0000
1000
0000
0000
0010
0000
0100
0000
0010
0000
0010
0000
,  // measure 3
1000
0100
0010
0001
1000
0000
0010
1000
,  // measure 4
0000
0001
0000
0020
0000
0000
0031
0000
,  // measure 5
0100
1000
0100
0000
1000
0000
0010
1000
,  // measure 6
0000
0001
0010
0002
0000
0000
1003
0000
,  // measure 7
0100
0000
0100
1001
0000
0000
0010
0000
,  // measure 8
1000
0000
0001
2000
0000
0000
3001
0000
,  // measure 9
0100
0001
1000
0100
0010
0000
0001
0000
,  // measure 10
0100
0000
0010
2000
0000
0000
3001
0000
,  // measure 11
0010
1000
0001
0000
1001
0000
0010
1000
,  // measure 12
0000
0010
1000
0010
0000
0100
0001
0100
,  // measure 13
0001
0010
0100
1000
0001
0000
0100
0010
,  // measure 14
0000
1000
0000
0002
0000
0000
1003
0000
,  // measure 15
0100
0001
1000
1001
0000
0000
0010
0000
,  // measure 16
0100
0001
0010
0100
0000
1000
0010
1000
,  // measure 17
0001
0010
0100
2000
0000
0000
3001
0000
,  // measure 18
0100
0001
1000
1001
0000
0000
0100
0000
,  // measure 19
0100
0010
0100
0010
1000
0000
0001
0100
,  // measure 20
0001
0000
1000
0100
1000
0000
0001
0000
,  // measure 21
0100
0001
0010
0100
1000
0000
0001
0100
,  // measure 22
0001
0000
1000
0100
1000
0000
0001
0000
,  // measure 23
0100
1000
0100
0001
,  // measure 24
0100
0010
0100
0000
0001
0000
1000
0000
,  // measure 25
0010
0100
0010
0000
0100
0001
0100
0000
,  // measure 26
0010
1000
0010
0000
1000
0010
0100
0000
,  // measure 27
0001
0010
0100
0000
1002
0000
0000
0100
,  // measure 28
0000
1003
0100
0001
,  // measure 29
0100
0000
1000
0000
0100
1000
0100
0000
,  // measure 30
0010
0001
0010
0000
0001
0010
0100
0000
,  // measure 31
1000
0010
0100
0000
0001
0000
0100
0000
,  // measure 32
1000
0100
0001
0010
,  // measure 33
0100
0010
0100
0000
1000
0000
0001
0000
,  // measure 34
0100
0001
1001
1000
,  // measure 35
1001
0000
1001
0000
0001
0100
0001
1000
,  // measure 36
0000
1000
0100
0000
1000
0010
1000
0001
,  // measure 37
0000
0001
0010
0000
0001
0010
0001
0000
,  // measure 38
1000
0100
1000
0000
0001
0010
0100
0000
,  // measure 39
1000
0010
0100
0000
0001
0010
0001
1000
,  // measure 40
0000
1000
0010
0000
1000
0100
1000
0001
,  // measure 41
0000
0001
0100
0000
1010
0000
1010
0000
,  // measure 42
0101
1100
1001
0100
,  // measure 43
0101
0000
0010
1000
0100
0000
0010
0000
,  // measure 44
1010
0000
0100
0001
0010
0000
0100
0000
,  // measure 45
1000
0010
1000
0000
0001
0010
0001
0000
,  // measure 46
0100
0010
1000
0000
0100
0010
0001
0000
,  // measure 47
0100
0001
1000
0200
0000
0000
1300
0000
,  // measure 48
0010
0001
1000
0020
0000
0000
1030
0000
,  // measure 49
0001
0010
0100
0000
1000
0010
0100
0000
,  // measure 50
0001
0010
0100
1000
0010
0000
0010
0000
,  // measure 51
1001
0000
0001
0100
0000
0010
0000
2000
,  // measure 52
0000
0000
3001
0010
0100
1000
0001
0000
,  // measure 53
0010
0001
0010
0000
0100
0010
0100
0000
,  // measure 54
1000
0100
1000
0001
0010
0100
1000
1001
,  // measure 55
0000
0001
0000
1000
0000
0000
0010
1000
,  // measure 56
0100
0000
0010
0001
0010
0100
1000
0002
,  // measure 57
0000
0000
1003
0000
0100
0010
0100
2000
,  // measure 58
0000
3001
1100
0101
,  // measure 59
1001
0000
1000
0010
0000
0100
0000
0002
,  // measure 60
0000
0000
1003
0100
0010
0001
1000
0000
,  // measure 61
0100
1000
0100
0000
0010
0100
0010
0000
,  // measure 62
0001
0010
0001
1000
0100
0010
0001
1001
,  // measure 63
0000
1000
0000
0001
0000
0000
0100
0001
,  // measure 64
0010
0000
0100
0000
1000
0010
0100
0002
,  // measure 65
0000
0000
1003
0000
0100
1000
0001
0101
,  // measure 66
0000
0000
0100
0000
0100
0001
0010
0100
,  // measure 67
1001
0000
0010
1000
0000
0001
0010
0002
,  // measure 68
0000
0000
1003
0000
0010
1000
0001
0000
,  // measure 69
0010
0001
1000
0010
0000
0100
0000
0001
,  // measure 70
0000
0100
0001
0100
0010
1000
0100
0020
,  // measure 71
0000
0000
0130
0000
1000
0010
0100
0002
,  // measure 72
0000
0000
1003
0000
0100
1000
0001
0101
,  // measure 73
0000
0000
0000
0000
1000
0000
1000
0001
,  // measure 74
0100
0000
0000
1001
0000
0000
0110
0000
,  // measure 75
1001
0000
0000
1100
0000
1001
0000
1010
,  // measure 76
0000
0000
0100
0001
1000
0100
1000
1001
,  // measure 77
0000
0000
0010
1000
0001
0010
0001
2000
,  // measure 78
0000
0000
3001
0000
0100
0001
1000
0200
,  // measure 79
0000
0000
1300
0000
0010
0001
1000
0020
,  // measure 80
0000
0000
0130
0000
0001
0010
0100
2000
,  // measure 81
0000
0000
3001
0000
0100
0001
1000
1100
,  // measure 82
0000
0000
0001
0100
0001
0100
0010
1000
,  // measure 83
1001
0000
0000
0101
0000
1001
0000
0011
,  // measure 84
0000
0000
0100
1000
0001
0100
0001
1001
,  // measure 85
0000
0100
0001
1000
0000
1001
0000
1001
,  // measure 86
0000
0000
0100
0000
0100
1000
0001
0000
,  // measure 87
1001
0000
0010
1000
0000
0001
0000
1001
,  // measure 88
0000
0000
0010
0000
0010
1000
0001
0010
,  // measure 89
0000
0100
0010
0001
1000
0010
0100
0001
,  // measure 90
0000
0010
0100
1000
0001
0100
1000
0100
,  // measure 91
0002
0000
0000
0003
;
