#TITLE:白いとび羽根;
#SUBTITLE:;
#ARTIST:ミシュカ;
#TITLETRANSLIT:SHIROI TOBI HANE;
#SUBTITLETRANSLIT:;
#ARTISTTRANSLIT:MISHUKA;
#CREDIT:DMAxel;
#BANNER:SHIROI TOBI HANE.png;
#BACKGROUND:SHIROI TOBI HANE-bg.png;
#LYRICSPATH:SHIROI TOBI HANE.lrc;
#CDTITLE:pop'n music.png;
#MUSIC:SHIROI TOBI HANE.mp3;
#OFFSET:-4.588;
#SAMPLESTART:55.886;
#SAMPLELENGTH:12.000;
#SELECTABLE:YES;
#BPMS:0.000=110.014,4.000=133.000,227.000=110.000,236.000=106.000,239.000=96.000;
#STOPS:;
#BGCHANGES:;

//---------------dance-single - ----------------
#NOTES:
     dance-single:
     :
     Easy:
     3:
     0.239,0.254,0.092,0.092,0.000: // measure 1
0000
0000
0000
0000
,  // measure 2
0100
0000
0100
0000
,  // measure 3
0100
0000
0010
0000
,  // measure 4
0010
0000
0010
0000
,  // measure 5
0110
0000
0000
2000
,  // measure 6
0000
0000
3002
0000
,  // measure 7
0000
1003
0000
0000
,  // measure 8
0110
0000
0000
0002
,  // measure 9
0000
0000
2003
0000
,  // measure 10
0000
3001
0000
1000
,  // measure 11
1000
0000
0000
0001
,  // measure 12
0000
0000
0001
0000
,  // measure 13
0000
1000
0000
0001
,  // measure 14
0001
0000
0000
0100
,  // measure 15
0000
0000
0010
0000
,  // measure 16
0000
1000
0000
0001
,  // measure 17
1000
0000
1000
0002
,  // measure 18
0000
0000
0203
0000
,  // measure 19
0000
0320
0000
0000
,  // measure 20
1030
0000
1000
0001
,  // measure 21
0000
0001
0100
0000
,  // measure 22
0100
0010
0000
0000
,  // measure 23
1001
0000
1000
0010
,  // measure 24
0100
0000
0001
0100
,  // measure 25
0000
0010
1000
0001
,  // measure 26
1001
0000
0001
0100
,  // measure 27
0010
0000
1000
0010
,  // measure 28
0000
0100
0001
1000
,  // measure 29
0000
1001
0001
0001
,  // measure 30
1000
1000
1000
0100
,  // measure 31
0010
0001
2000
0000
,  // measure 32
3000
1001
1000
1000
,  // measure 33
0001
0001
0001
0010
,  // measure 34
0100
1000
0002
1000
,  // measure 35
1003
1001
0001
0001
,  // measure 36
0010
0010
0010
0100
,  // measure 37
0100
0100
1000
1000
,  // measure 38
1000
0001
1000
0001
,  // measure 39
0100
0001
0100
0010
,  // measure 40
1000
0010
1000
0100
,  // measure 41
1000
0100
0010
0001
,  // measure 42
1000
0100
0010
0001
,  // measure 43
0100
0010
2000
0000
,  // measure 44
0000
3001
1000
0001
,  // measure 45
0010
0001
0100
0010
,  // measure 46
0010
0010
1000
1000
,  // measure 47
1000
0001
0010
0100
,  // measure 48
1000
1000
1000
1001
,  // measure 49
0001
0001
1000
1000
,  // measure 50
1000
0010
0010
1000
,  // measure 51
0100
0010
0001
1001
,  // measure 52
1000
1000
0010
0010
,  // measure 53
0010
0100
0001
0010
,  // measure 54
0100
1000
0001
1001
,  // measure 55
0001
0001
1000
1000
,  // measure 56
1000
0100
0010
0001
,  // measure 57
0100
0010
0100
0010
,  // measure 58
0100
0001
0010
0100
,  // measure 59
1000
1001
0000
0001
,  // measure 60
0001
1000
0100
0000
,  // measure 61
0000
2000
0000
3001
;

//---------------dance-single - ----------------
#NOTES:
     dance-single:
     :
     Hard:
     7:
     0.462,0.457,0.342,0.100,0.025:
0000
0000
0000
0000
,
0001
0000
0010
0000
1000
0010
0100
0000
,
0001
0000
0100
0001
1000
0000
0100
0000
,
0001
0100
0010
0000
1000
0000
0010
1000
,
0001
0001
0001
1000
,
1000
1000
0100
0100
,
0100
0001
0001
0101
,
1000
0100
0010
0001
,
0100
1000
0010
0001
,
1000
0010
0100
1010
,
1001
0000
0001
0000
1000
0000
0010
1000
,
0010
1000
0011
0100
,
1000
0000
0001
0100
0010
0000
1000
0100
,
0010
0000
0101
0000
1000
0010
0100
0000
,
0001
0010
0100
0000
1010
0000
1000
0000
,
0001
0000
0011
0000
1000
0000
0100
0010
,
0002
1000
0100
2003
,
0001
3001
2000
0001
,
0100
3002
1000
1003
,
0001
0100
1000
0000
0100
0010
0001
0100
,
1000
0000
0100
0010
0001
0100
1000
0000
,
0100
0010
0002
0000
1000
0000
1003
0000
,
1000
0000
0000
0010
0000
0000
1000
0000
0001
0000
0010
0000
0100
0000
0000
0010
,
0000
0000
0001
0000
1000
0000
0100
0000
0010
0000
0000
0100
0000
0000
1000
0000
,
0001
0010
1000
0100
0010
0001
1001
0000
,
0001
0000
0000
0100
0000
0000
0001
0000
1000
0000
0100
0000
0010
0000
0000
0100
,
0000
0000
1000
0000
0001
0000
0010
0000
0100
0000
0000
0010
0000
0000
0001
0000
,
1000
0100
0001
0010
0100
1000
1001
0000
,
0000
0000
0101
0000
0101
0000
0010
1000
,
0001
0000
1001
0000
1001
0000
1000
0001
,
1000
0001
1000
0100
0001
0010
0100
0000
,
1000
0100
0001
0000
1010
0000
0100
0001
,
1000
0000
1001
0000
1001
0000
0001
1000
,
0001
1000
0001
0010
1000
0100
0010
0001
,
1000
1001
1000
1100
,
0010
0001
1000
0000
1001
0000
0001
0001
,
1000
1000
0100
0010
0001
0001
1000
1000
,
0001
0010
0200
0000
0010
0000
0310
0000
,
2001
0100
3100
1002
,
0100
0103
0020
0100
,
0130
0000
0001
0010
0100
0000
1000
0100
,
0001
0010
0100
1000
0001
0000
1000
0100
,
0010
0000
0001
0010
1000
0100
0010
0001
,
1000
0001
1000
0100
0010
0000
0001
1000
,
0001
0010
0100
0000
1001
0000
1100
0000
,
1100
0000
0010
0001
1000
0000
1001
0000
,
1001
0000
1000
0010
1000
0010
0100
0001
,
0010
1000
0001
0000
1001
0000
0001
0100
,
0001
0100
0010
1000
0100
0001
1000
0000
,
1001
0000
1000
1000
0001
0001
0010
0100
,
1000
1000
0001
0001
1001
0000
0101
0000
,
0101
0000
1100
0000
0010
0001
0010
0100
,
1000
0010
1010
0000
1010
0000
0011
0000
,
0100
1000
0100
0010
0001
1000
1100
0000
,
1100
0000
0101
0000
0010
1000
0010
0100
,
0001
0010
0011
0000
0011
0000
1010
0000
,
0100
0001
1000
0010
1000
1000
0002
0100
,
0100
0000
1000
0000
2003
0100
0100
0000
,
0001
0000
3002
0100
0100
0000
1000
0000
,
1003
0100
0010
0001
0100
0100
0000
0000
,
0000
0000
0001
1000
0001
1000
0001
0000
;

//---------------dance-single - ----------------
#NOTES:
     dance-single:
     :
     Medium:
     5:
     0.384,0.380,0.476,0.167,0.000: // measure 1
0000
0000
0000
0000
,  // measure 2
0010
0100
0010
1000
,  // measure 3
0001
1000
0010
0100
,  // measure 4
0010
1000
0001
1000
,  // measure 5
2200
0000
3300
0202
,  // measure 6
0000
0303
2002
0000
,  // measure 7
3003
0022
0000
0033
,  // measure 8
2020
0000
3030
2002
,  // measure 9
0000
3003
0220
0000
,  // measure 10
0330
1001
0000
1000
,  // measure 11
1000
0001
1000
0100
,  // measure 12
0001
0100
1000
0001
,  // measure 13
0001
0110
1000
0001
,  // measure 14
0001
1000
0001
0100
,  // measure 15
1000
0100
0001
1000
,  // measure 16
1000
0110
0001
1000
,  // measure 17
1100
1100
0001
1002
,  // measure 18
1000
1003
0210
0010
,  // measure 19
0310
2001
0001
3001
,  // measure 20
0011
0011
1000
0010
,  // measure 21
0100
0001
0100
1000
,  // measure 22
0010
0100
0020
0000
0100
0000
0130
0000
,  // measure 23
1100
0010
0001
0110
,  // measure 24
1000
0001
0011
0100
,  // measure 25
1000
0110
0110
0110
,  // measure 26
1010
0100
0001
0110
,  // measure 27
1000
0001
0101
0010
,  // measure 28
1000
0110
0110
0110
,  // measure 29
0000
0000
1000
0001
1000
0000
0100
0000
,  // measure 30
0011
0000
0011
0000
0011
0000
0001
1000
,  // measure 31
0001
0000
0010
0000
0100
1000
0100
1000
,  // measure 32
0100
0000
1000
0001
1000
0000
0100
0000
,  // measure 33
0011
0011
0011
0100
,  // measure 34
1000
0000
0001
0000
0100
0001
0100
0001
,  // measure 35
0100
1001
1000
1000
,  // measure 36
0100
0100
0100
0001
,  // measure 37
0010
0100
1000
0100
,  // measure 38
0010
0000
1001
0000
0001
1000
0001
0000
,  // measure 39
1001
0000
1000
0001
1000
0000
0110
0000
,  // measure 40
0010
0100
0010
0000
0110
0000
0100
0010
,  // measure 41
0100
0001
0100
1000
,  // measure 42
0100
0010
0001
1000
,  // measure 43
0010
0100
0001
0010
,  // measure 44
0100
2000
0010
3010
,  // measure 45
0200
0001
0301
0101
,  // measure 46
0101
0000
1000
0000
0010
0000
1000
0010
,  // measure 47
1000
0000
0110
0000
0001
0000
0100
0001
,  // measure 48
0100
0000
0001
1000
0001
0000
1010
0000
,  // measure 49
1010
0000
0001
0000
0100
0000
0001
0100
,  // measure 50
0001
0000
0110
0000
1000
0000
0010
1000
,  // measure 51
0010
0000
1000
0001
1000
0000
0110
0000
,  // measure 52
0110
0110
0001
1000
,  // measure 53
0100
1000
0100
0000
1000
0000
0001
0100
,  // measure 54
0001
1001
0001
0110
,  // measure 55
0110
0110
1000
0001
,  // measure 56
0010
0001
0010
0000
0001
0000
1000
0010
,  // measure 57
1000
0000
0001
0000
0010
0100
0010
0000
,  // measure 58
0001
0010
1100
0010
,  // measure 59
1001
1001
1000
0100
,  // measure 60
0011
0100
1000
0000
,  // measure 61
0000
0001
0100
1000
;

//---------------dance-single - ----------------
#NOTES:
     dance-single:
     :
     Challenge:
     8:
     0.545,0.507,0.184,0.092,0.113:
0000
0000
0000
0000
,
0001
0000
0010
0000
0001
0000
0000
0000
1000
0000
0100
0000
0010
0000
0000
0001
,
1000
0000
0000
0000
0001
0000
0010
0000
0100
0000
0000
1000
0001
0000
0000
0000
,
1000
0000
0100
0000
0010
0000
0000
0001
1000
0000
0000
0000
0100
0000
0100
0000
,
1002
1000
1003
1020
,
1000
1030
0201
0001
,
0301
1200
1000
1300
,
1001
0000
0000
1000
0020
0000
0000
0000
1030
0000
0000
0000
1001
0000
0000
0001
,
0200
0000
0000
0000
0301
0000
0000
0000
1001
0000
0000
1000
0002
0000
0000
0000
,
1003
0000
0000
0000
1001
0000
0000
0001
1000
0000
0000
0000
1001
0000
0000
0000
,
1000
0010
0100
0000
0001
0010
0100
0000
,
0110
0000
1000
0100
0001
0010
0100
0000
,
1000
0000
0010
0000
0100
0000
0000
0001
1000
0000
0000
0000
0100
0000
0010
0000
,
0001
0000
0000
0100
0010
0000
0000
0000
0100
0000
0001
0000
1000
0000
0000
0010
,
0100
0000
0010
1000
0001
0100
0001
0000
,
1000
0000
0100
0000
0010
0000
0000
0001
1000
0000
0000
0000
0010
0000
1000
0000
,
0002
0000
0000
0000
1003
0000
0000
1000
0010
0000
0000
0010
0100
0000
0000
0100
,
0002
0000
1003
0000
2000
0000
3001
0010
,
0001
1000
0020
0000
1000
0000
1030
0000
,
0001
0100
0010
1000
0001
0010
1000
0010
,
0001
0100
0010
1000
0001
0010
1000
0010
,
0001
0000
0010
0000
0100
0000
0010
0000
0001
1000
0000
0010
0000
0100
0000
0000
,
0001
0100
0010
1000
0001
0010
0100
0010
,
0001
0001
1000
0100
0001
0100
0010
1000
,
0001
0010
0100
0010
0001
1000
1001
0000
,
1000
0010
0100
0001
1000
0100
0010
0100
,
1000
1000
0001
0010
1000
0010
0100
0001
,
1000
0100
0010
0100
1000
0001
1001
0000
,
0000
0000
0001
0100
0010
1000
0001
0100
,
0010
1000
0100
0001
0100
1000
0100
0010
,
0001
0000
1000
0000
0100
0000
0010
0000
0001
0000
0010
0000
1000
0001
0000
0010
,
0100
1000
0001
0100
0010
1000
0001
0100
,
0010
1000
0100
0001
0100
1000
0100
0010
,
0001
1000
0100
0010
0001
0010
1000
0010
,
0100
0001
0100
0000
1001
0000
0000
0000
1000
0000
0010
0000
1000
0000
0000
0000
,
0001
0100
1000
0000
0001
0100
0001
1000
,
0100
0010
0001
1000
1000
0001
0010
0100
,
1000
0001
1001
0000
0001
0100
1000
0000
,
1100
0000
0010
0100
0010
0000
1001
0000
,
1000
0100
0001
0000
0101
0000
1000
0000
,
1001
0000
1000
0100
0010
0001
0100
0000
,
0001
0010
0100
1000
0100
0001
1000
0100
,
1000
0010
0100
0001
0100
1000
0001
0010
,
1000
0000
0010
0100
0010
1000
0100
0001
,
0100
0000
0010
0000
0100
0000
0001
0000
1000
0010
1000
0000
0001
0000
0100
0000
,
0010
1000
0001
0100
0010
1000
0100
0001
,
0100
1000
0100
0010
0001
1000
0100
0010
,
0001
0000
0010
0000
1000
0001
0000
0010
0100
0000
1000
0000
0001
0000
0100
0000
,
0010
1000
0001
0100
0010
1000
0100
0001
,
0100
1000
0001
0010
0100
1000
0001
0001
,
1000
0000
0100
0000
0010
0000
0001
0000
1000
0001
1000
0000
0001
0000
0010
0000
,
0100
0010
0001
1000
0100
0001
0010
0100
,
1000
0001
1000
0100
0010
0100
1000
0001
,
0010
0000
1000
0000
0001
1000
0000
0100
0010
0000
0001
0000
1000
0000
0100
0000
,
0010
0100
1000
0001
0010
1000
0100
0010
,
0001
1000
0001
0010
0100
0010
0001
1000
,
0100
0000
0001
0000
0100
0000
0001
0000
1000
0100
1000
0000
0001
0000
0010
0000
,
0100
1000
0010
0010
1010
1000
0001
0010
,
0011
0010
1010
1000
0001
0010
0100
1000
,
0110
0100
0001
0100
1000
0001
0000
0000
,
0000
0000
0001
0001
0100
0100
1000
0000
;

//---------------dance-single - ----------------
#NOTES:
     dance-single:
     :
     Beginner:
     1:
     0.087,0.101,0.058,0.000,0.000: // measure 1
0000
0000
0000
0000
,  // measure 2
1000
0000
0000
0000
,  // measure 3
0000
0000
0001
0000
,  // measure 4
0000
0000
0000
0000
,  // measure 5
1001
0000
0000
0001
,  // measure 6
0000
0000
0001
0000
,  // measure 7
0000
1000
0000
0000
,  // measure 8
1000
0000
0000
1000
,  // measure 9
0000
0000
1000
0000
,  // measure 10
0000
1000
0000
0000
,  // measure 11
0001
0000
0000
0000
,  // measure 12
0000
0000
1000
0000
,  // measure 13
0000
0001
0000
0000
,  // measure 14
1000
0000
0000
0010
,  // measure 15
0000
0000
0100
0000
,  // measure 16
0000
0010
0000
0000
,  // measure 17
0010
0000
0000
0010
,  // measure 18
0000
0000
0010
0000
,  // measure 19
0000
0010
0000
0000
,  // measure 20
1000
0000
0000
0000
,  // measure 21
0000
0000
0001
0000
,  // measure 22
0000
0000
0000
0000
,  // measure 23
1001
0000
0000
0000
,  // measure 24
0000
0000
1000
0000
,  // measure 25
0000
0000
0000
0000
,  // measure 26
0001
0000
0000
0000
,  // measure 27
0000
0000
0001
0000
,  // measure 28
0000
0000
0000
0000
,  // measure 29
0000
1001
0000
0000
,  // measure 30
1000
0000
0000
1000
,  // measure 31
0000
0000
0000
0000
,  // measure 32
0000
1001
0000
0000
,  // measure 33
0001
0000
0000
0001
,  // measure 34
0000
0000
1000
0000
,  // measure 35
0000
1001
0000
0000
,  // measure 36
0010
0000
0000
0010
,  // measure 37
0000
0000
0000
0000
,  // measure 38
0000
0100
0000
0000
,  // measure 39
0100
0000
0000
0100
,  // measure 40
0000
0000
0100
0000
,  // measure 41
0000
0001
0000
0000
,  // measure 42
0000
0000
0000
1000
,  // measure 43
0000
0000
0000
0000
,  // measure 44
0000
0001
0000
0000
,  // measure 45
0001
0000
0000
1001
,  // measure 46
0000
0000
1000
0000
,  // measure 47
0000
1000
0000
0000
,  // measure 48
0010
0000
0000
1000
,  // measure 49
0000
0000
0010
0000
,  // measure 50
0000
0100
0000
0000
,  // measure 51
0001
0000
0000
0100
,  // measure 52
0000
0000
0100
0000
,  // measure 53
0000
0001
0000
0000
,  // measure 54
0001
0000
0000
1000
,  // measure 55
0000
0000
1000
0000
,  // measure 56
0000
0010
0000
0000
,  // measure 57
0010
0000
0000
1001
,  // measure 58
0000
0000
1000
0000
,  // measure 59
0000
0001
0000
0000
,  // measure 60
1000
0000
0000
0000
,  // measure 61
0000
0001
0000
0000
;
