#TITLE:灼熱Beach Side Bunny;
#SUBTITLE:;
#ARTIST:DJ Mass MAD Izm*;
#TITLETRANSLIT:SHAKUNETSU Beach Side Bunny;
#SUBTITLETRANSLIT:;
#ARTISTTRANSLIT:;
#CREDIT:DMAxel;
#BANNER:SHAKUNETSU Beach Side Bunny.png;
#BACKGROUND:SHAKUNETSU Beach Side Bunny-bg.png;
#LYRICSPATH:;
#CDTITLE:beatmaniaIIDX.png;
#MUSIC:SHAKUNETSU Beach Side Bunny.mp3;
#OFFSET:-6.700;
#SAMPLESTART:31.753;
#SAMPLELENGTH:12.000;
#SELECTABLE:YES;
#BPMS:0.000=153.000;
#STOPS:;
#BGCHANGES:-16.000=SHAKUNETSU Beach Side Bunny.avi=1.000=1=1=0,
99999=-nosongbg-=1.000=0=0=0 // don't automatically add -songbackground-
;

//---------------dance-single - ----------------
#NOTES:
     dance-single:
     :
     Easy:
     5:
     0.419,0.471,0.443,0.041,0.000:
0020
0000
0000
0000
,
0230
0000
0000
0000
,
0320
0000
0000
0000
,
0230
0000
0000
0000
,
0301
1000
0001
0000
,
1000
0001
1000
0000
,
0010
1000
0010
1000
,
0001
0001
0001
0001
,
1001
1000
1000
0000
,
1001
0001
0001
0000
,
1001
1000
1000
0000
,
0110
0010
0010
0000
,
0110
0100
0100
0000
,
1001
0001
0001
1000
,
0001
0001
0001
0001
,
1000
0100
0010
0001
,
1000
1000
1000
1000
,
0001
0010
0100
1000
,
0001
0001
0001
0001
,
1000
0100
0010
0001
,
0100
0010
0100
0001
,
0010
0100
1000
0001
,
0100
0010
0100
0001
,
0010
0100
1000
0010
,
0100
0010
0100
0000
0100
0010
0100
0000
,
0010
0100
0010
0000
0010
0100
0010
0000
,
1000
0001
1000
0000
0001
1000
0001
0000
,
1000
0001
1000
0000
0001
1000
0001
0000
,
0100
0010
0100
0000
0010
0100
0010
0000
,
0100
0010
0100
0000
0010
0100
0010
0000
,
1000
0100
1000
0000
0001
0100
0001
0000
,
2000
0001
0001
3001
,
1001
0001
0101
0000
,
1100
1000
1001
0000
,
0110
0100
0101
0000
,
0110
0010
1010
0000
,
1000
0001
1000
0001
1000
0000
1000
0000
,
1001
0001
1001
0000
,
1001
1000
1001
0000
,
0010
0100
0010
0100
,
0001
0100
0001
0000
1000
0100
1000
0000
,
0001
0100
0001
0000
1000
0100
1000
0000
,
0010
0100
0010
0000
0100
0010
0100
0000
,
0010
0100
0010
0000
0100
0010
0100
0000
,
0001
0010
0001
0000
1000
0010
1000
0000
,
0001
0010
0001
0000
1000
0010
1000
0000
,
0001
1000
0001
0000
1000
0001
1000
0000
,
0001
1000
0001
0000
1000
0001
1000
0000
,
1001
1000
1010
0001
,
1001
0001
0101
1000
,
1001
1000
1100
0001
,
1001
0001
0011
1000
,
1001
1000
1010
1010
,
1001
0001
0101
0101
,
1001
1000
1100
1100
,
1001
0001
0011
0000
,
0001
0100
0010
1000
,
0001
0001
1000
1000
,
1000
0010
0100
0001
,
1000
1000
0001
0001
,
0001
0100
0010
1000
,
0001
1000
0001
0000
1000
0001
1000
0000
,
1000
0010
0100
0001
,
1000
1001
0000
0000
,
0110
0110
0110
1001
,
0010
0000
0100
0000
1000
0001
1000
0000
,
0110
0110
0110
1001
,
0100
0000
0010
0000
0001
1000
0001
0000
,
0110
0110
0110
1001
,
0010
0000
0100
0000
1000
0001
1000
0000
,
0110
0110
0110
1001
,
0100
0000
0010
0000
0001
1000
0001
0000
;

//---------------dance-single - ----------------
#NOTES:
     dance-single:
     :
     Medium:
     7:
     0.537,0.501,0.657,0.082,0.090:
2000
3002
0000
0000
,
0203
0320
0000
0000
,
2030
3002
0000
0000
,
0023
0230
0000
0000
,
1300
1001
0002
0000
,
0103
1001
2000
0000
,
3100
1001
0100
1001
,
0110
0110
0110
0110
,
0101
0101
0101
0000
,
1010
1010
1010
0000
,
0011
0011
0011
0000
,
1100
1100
1100
0000
,
0110
0110
0110
0110
,
0100
0001
1000
0000
1001
0000
1001
0000
,
0110
0110
0110
0110
,
0010
1000
0001
0000
1001
0000
1001
0000
,
0001
0000
0100
0000
0001
0000
0000
0000
0100
0000
0000
0001
0000
0000
0000
0000
,
1000
0000
0100
0000
1000
0000
0000
0000
0100
0000
0000
1000
0000
0000
0000
0000
,
0001
0000
0010
0000
0001
0000
0000
0000
0010
0000
0000
0001
0000
0000
0000
0000
,
0100
0001
0100
0001
1000
0000
1000
0000
,
0110
0110
0110
0110
,
0010
0000
1000
0000
0001
0000
0000
0000
1000
0000
0000
0001
0000
0000
0000
0000
,
0110
0110
0110
0110
,
0100
0000
0001
0000
1000
0000
0000
0000
0001
0000
0000
1000
0000
0000
0000
0000
,
0010
1000
0010
1000
0010
1000
0010
0000
,
1000
0001
1000
0001
1000
0001
1000
0000
,
0001
0010
0001
0010
0001
0010
0001
0000
,
1000
0100
1000
0100
1000
0100
1000
0000
,
0010
0100
0010
0100
0010
0100
0010
0000
,
0100
0001
0100
0001
0100
0001
0100
0000
,
0001
1000
0001
1000
0001
1000
0001
0000
,
0100
0100
0100
0000
0110
0000
0110
0000
,
0001
1000
0100
0000
1100
0000
1001
0000
,
1000
0001
0010
0000
0011
0000
1001
0000
,
1000
0001
0100
0001
0100
0000
0100
0000
,
0001
1000
0100
1000
0100
0000
0100
0000
,
1000
0000
0001
0000
1000
0000
0001
0000
1000
0000
0000
0001
0000
0000
0000
0000
,
0011
0000
0000
0000
0011
0000
0000
0000
0001
0000
0000
1000
0000
0000
0000
0000
,
1100
0000
0000
0000
1100
0000
0000
0000
1000
0000
0000
0001
0000
0000
0000
0000
,
0100
0010
0100
0010
0100
0000
0110
0000
,
1000
0100
1000
0100
1000
0100
1000
0000
,
0001
1000
0001
1000
0001
1000
0001
0000
,
0010
0001
0010
0001
0010
0001
0010
0000
,
0001
1000
0001
1000
0001
1000
0001
0000
,
1000
0100
1000
0010
1000
0010
1000
0000
,
0001
0010
0001
0100
0001
0100
0001
0000
,
0100
0010
0100
0001
0100
0010
0100
0000
,
0010
0100
0010
1000
0010
0100
0010
0000
,
1001
0000
0000
0000
1001
0000
0000
0000
0001
0000
0000
1000
0000
0000
0000
0000
,
0110
0000
0000
0000
0110
0000
0000
0000
1000
0000
0000
0001
0000
0000
0000
0000
,
0011
0000
0000
0000
0011
0000
0000
0000
1000
0000
0000
0001
0000
0000
0000
0000
,
1100
0000
0000
0000
1100
0000
0000
0000
0001
0000
0000
1000
0000
0000
0000
0000
,
0001
0000
0100
0000
0001
0000
1000
0000
0100
0000
0000
1000
0000
0000
0000
0000
,
1000
0000
0010
0000
1000
0000
0001
0000
0010
0000
0000
0001
0000
0000
0000
0000
,
0001
0000
0010
0000
0001
0000
1000
0000
0010
0000
0000
1000
0000
0000
0000
0000
,
1000
0100
1000
0001
0100
0000
0101
0000
,
0010
1000
0001
0000
0001
0010
0001
0000
,
0100
0001
1000
0000
1000
0100
1000
0000
,
0010
1000
0001
0000
0001
0010
0001
0000
,
0100
0001
1000
0000
1000
0100
1000
0000
,
0010
0000
0000
0000
1010
0000
0000
0000
0010
0000
0000
1000
0000
0000
0001
0000
,
0100
0000
0000
0000
0101
0000
0000
0000
0100
0000
0000
0001
0000
0000
1000
0000
,
0010
0000
0000
0000
1010
0000
0000
0000
0010
0000
0000
1000
0000
0000
0001
0000
,
0100
1001
0000
0000
,
0110
0000
0000
0000
0110
0000
0000
0000
1001
0000
0000
1001
0000
0000
1000
0000
,
0001
0010
0001
0000
0001
1000
0010
0000
,
0110
0000
0000
0000
0110
0000
0000
0000
1001
0000
0000
1001
0000
0000
0001
0000
,
1000
0100
1000
0000
1000
0001
0100
0000
,
0110
0000
0000
0000
0110
0000
0000
0000
1001
0000
0000
1001
0000
0000
1000
0000
,
0001
0100
0001
0000
1000
0100
0010
0000
,
0110
0000
0000
0000
0110
0000
0000
0000
1001
0000
0000
1001
0000
0000
0001
0000
,
1000
0010
1000
0000
0001
0010
0100
0000
;

//---------------dance-single - ----------------
#NOTES:
     dance-single:
     :
     Challenge:
     10:
     0.855,0.795,0.419,0.033,0.924:
1000
0000
0002
0000
0000
0100
0000
0000
0100
0000
0000
0100
0000
0000
0103
0000
,
0101
0000
0000
0000
1001
0000
0000
0000
1000
0000
0000
0001
0000
0000
0010
0000
,
0001
0000
2000
0000
0000
0010
0000
0000
0010
0000
0000
0010
0000
0000
3010
0000
,
1010
0000
0000
0000
1001
0000
0000
0000
0001
0000
0000
1000
0000
0000
0100
0000
,
1000
0000
0002
0000
0000
0010
0000
0000
0010
0000
0000
0010
0000
0000
0013
0000
,
0011
0000
0000
0000
1001
0000
0000
0000
1000
0000
0000
0001
0000
0000
0010
0000
,
0001
0010
0001
0100
0000
0000
0100
0010
0100
0001
0000
0000
,
0100
0001
0100
0001
1000
0100
1000
0010
0100
0010
0000
0000
,
1001
0000
0000
0000
1100
0000
0000
0000
1100
0000
0000
1100
0000
0000
0001
0000
,
1001
0000
0000
0000
0011
0000
0000
0000
0011
0000
0000
0011
0000
0000
1000
0000
,
1001
0000
0000
0000
1010
0000
0000
0000
1010
0000
0000
1010
0000
0000
0001
0000
,
1001
0000
0100
0000
0010
0000
0001
0000
0100
0000
0000
0101
0000
0000
1000
0000
,
0001
0000
1000
0100
1000
0100
1000
0100
0000
1000
0000
0001
0100
0001
0100
0000
,
0001
0000
0010
0000
0100
0000
1000
0000
1010
0000
0000
1010
0000
0000
0001
0000
,
1000
0000
1000
0000
0001
0010
0001
0000
0010
0001
0000
1000
0010
1000
0010
0000
,
1000
0000
0100
0000
0010
0000
0001
0000
1001
0000
0000
1010
0000
0000
0011
0000
,
1000
0000
0001
0000
0100
0001
0000
0100
0001
0000
1000
0100
0000
1000
0100
0000
,
1000
0000
0001
0000
0010
0000
0100
0000
0110
0000
0000
0110
0000
0000
1000
0000
,
0001
0000
1000
0000
0010
1000
0000
0010
1000
0000
0001
0010
0000
0001
0010
0000
,
0001
0000
1000
0000
0100
0000
0010
0000
0110
0000
0000
0110
0000
0000
0001
0000
,
1001
0000
1000
0000
0100
1000
0000
0100
1000
0000
0001
0100
0000
0001
0100
0000
,
0001
0000
0010
0000
0100
0000
1000
0000
1001
0000
0000
0101
0000
0000
0010
0000
,
1000
0000
0001
0000
0010
0001
0000
0010
0001
0000
1000
0010
0000
1000
0010
0000
,
1000
0000
0100
0000
0010
0000
0001
0000
1001
0000
0000
1010
0000
0000
0001
0000
,
1000
0100
1000
0100
1000
0000
0001
0100
0001
0000
1000
0000
0100
0000
1000
0000
,
0001
0010
0001
0010
0001
0000
1000
0010
1000
0000
0001
0000
0010
0000
0001
0000
,
0100
0001
0100
0001
1000
0100
1000
0100
0010
0000
0001
0000
1001
0000
0000
0000
,
0010
1000
0010
1000
0001
0010
0001
0010
0100
0000
1000
0000
1001
0000
0000
0000
,
1000
0000
0010
0100
0010
0100
0010
0000
1000
0000
0001
0000
0011
0000
0000
0000
,
0001
0000
0100
0010
0100
0010
0100
0000
0001
0000
1000
0000
1100
0000
0000
0000
,
1000
0000
0001
0100
0001
0100
0001
1000
0100
0000
1000
0000
1001
0000
0000
0000
,
0001
0000
1000
0000
0001
0000
1000
0000
0001
0010
0001
0010
0001
1000
0010
1000
,
0010
0000
1000
0000
0010
0000
1000
0001
0000
0010
0000
0001
1000
0000
0100
0000
,
0010
0000
0001
0000
0100
0000
0001
1000
0000
0100
0000
1000
0001
0000
0010
0000
,
0100
0000
1000
0010
1000
0010
1000
0001
0000
0100
0000
0010
1000
0000
1000
0000
,
0001
0000
0010
0000
0001
0000
1000
0000
1001
0000
0000
0001
1000
0000
0010
0000
,
1000
0000
1000
0000
1000
0000
1000
0000
1001
0000
0000
1000
0001
0000
0100
0000
,
0101
0000
0000
0000
0110
0000
0000
0000
0110
0000
0000
0101
0000
0000
0010
0000
,
1000
0000
0010
1000
0010
0000
1000
0000
0100
0010
0000
0100
0010
0000
0001
0000
,
1000
0000
0100
0000
0010
0000
0001
0000
1000
0010
1000
0010
1000
0000
0001
0010
,
0001
0000
1000
0010
1000
0010
1000
0100
0010
0000
0001
0000
0001
0000
1000
0100
,
1000
0000
0001
0100
0001
0100
0001
0010
0100
1000
0001
0000
0001
0000
0100
0000
,
0001
0100
0001
1000
0010
0000
1000
0000
0010
0000
0100
0000
0001
0000
1000
0010
,
1000
0000
0010
1000
0010
1000
0001
0100
0001
0000
0010
0000
0100
0000
1000
0000
,
0010
1000
0010
1000
0001
0000
0001
0010
0001
0010
0100
1000
0001
0000
0001
0000
,
0100
0001
0100
0001
1000
0000
1000
0100
1000
0100
0010
0001
1000
0000
1000
0000
,
0001
0100
0001
1000
0100
1000
0100
0000
1000
0000
0001
0000
0100
0000
0001
0100
,
0001
0100
0001
1000
0100
1000
0100
0000
1000
0100
0010
0001
1000
0000
0000
0000
,
1010
0000
1000
0000
0001
0010
0000
0001
0010
0000
0001
0100
0000
0001
0100
0000
,
0101
0000
0001
0000
1000
0100
0000
1000
0100
0000
1000
0010
0000
1000
0010
0000
,
1010
0000
1000
0000
0001
0010
0000
0001
0010
0000
0001
0100
0000
0001
0100
0000
,
0101
0000
0001
0000
1000
0010
0000
1000
0010
0000
1000
0100
0000
1000
0100
0000
,
1000
0000
0010
0000
0100
0001
0000
0100
0010
0000
0100
0001
0000
0100
0010
0000
,
1000
0000
0001
0000
0100
0010
0000
1000
0010
0000
0100
0010
0000
1000
0010
0000
,
1000
0000
0001
0000
0010
0001
0000
0010
0100
0000
0010
0001
0000
0010
0100
0000
,
1000
0001
1000
0000
0100
0010
0000
0100
1000
0000
0010
0000
0110
0000
0000
0000
,
0100
0000
0001
0000
0100
0000
0010
1000
0000
0100
0000
0010
0001
0000
1000
0000
,
0001
0000
0010
0000
0001
0000
0010
0001
0010
0000
0001
0010
0001
1000
0010
0000
,
1000
0010
1000
0010
1000
0001
0010
0100
1000
0001
0000
1000
0001
1000
0001
0000
,
0010
0000
1000
0000
0010
0100
0010
0000
1000
0010
0000
1000
0010
0100
0001
0000
,
1000
0000
1000
0000
0001
0000
0010
0000
0100
0000
1000
0010
0000
0100
0001
0100
,
0001
0000
0001
0000
1000
0000
0100
0000
0010
0000
0001
0100
0000
0010
1000
0010
,
1000
0000
0100
0000
0010
0000
0001
0000
1000
0000
0100
0010
0000
0100
0010
0000
,
0001
2000
0000
3001
,
0011
0000
0001
0000
1000
0000
0010
1000
0000
0100
0000
0010
0001
0000
1000
0000
,
0100
0000
1000
0000
0001
0000
0100
0001
0000
0010
0000
0100
1000
0100
0010
0000
,
0001
0010
0001
0010
0100
1000
0100
1000
0000
0010
0000
1000
0001
0000
0001
0000
,
1000
0100
1000
0100
0010
0000
0001
0000
0100
0010
0100
0001
0010
0000
0100
0000
,
1000
0001
0010
0001
0010
0100
1000
0000
0001
0100
0000
0001
0100
0000
0001
0000
,
1000
0000
0001
0100
0001
0100
0010
0000
1000
0010
0000
1000
0010
0100
0001
0000
,
1000
0000
0010
1000
0010
0100
0010
0100
0000
0001
0000
0010
0100
0000
1000
0000
,
0010
0000
0100
0000
0001
1000
0001
1000
0001
0010
0100
1000
0001
0000
0000
0000
;

//---------------dance-single - ----------------
#NOTES:
     dance-single:
     :
     Hard:
     9:
     0.698,0.707,0.345,0.008,0.632: // measure 1
0100
0000
0000
0000
0110
0000
0000
0000
0001
0000
0000
0010
0000
0000
0100
0000
,  // measure 2
0010
0000
0000
0000
0110
0000
0000
0000
1000
0000
0000
0100
0000
0000
0010
0000
,  // measure 3
0100
0000
0000
0000
0110
0000
0000
0000
0001
0000
0000
0100
0000
0000
0010
0000
,  // measure 4
0100
0000
0000
0000
0110
0000
0000
0000
1000
0000
0000
0010
0000
0000
0100
0000
,  // measure 5
0010
0000
0000
0000
0110
0000
0000
0000
0001
0000
0000
1000
0000
0000
0100
0000
,  // measure 6
0001
0000
0000
0000
1001
0000
0000
0000
1000
0000
0000
0001
0000
0000
0010
0000
,  // measure 7
1000
0001
1000
0001
0000
0000
0001
1000
0001
1000
0000
0000
,  // measure 8
0010
1000
0010
1000
0001
0100
0001
0100
0010
1000
0000
0000
,  // measure 9
1100
0000
0000
0000
1100
0000
0000
0000
1000
0000
0000
0100
0000
0000
1000
0000
,  // measure 10
0001
0000
0000
0000
0011
0000
0000
0000
0001
0000
0000
0010
0000
0000
0001
0000
,  // measure 11
1000
0000
0000
0000
1010
0000
0000
0000
1000
0000
0000
0010
0000
0000
1000
0000
,  // measure 12
0001
0000
0000
0000
0100
0000
0001
0000
1000
0000
0000
1000
0000
0000
0001
0000
,  // measure 13
1000
0000
0100
0000
1000
0000
0100
0000
1000
0000
0001
0100
0000
0000
0001
0000
,  // measure 14
0100
0000
0100
0000
0100
0000
0000
0000
0001
0000
0000
0100
0000
0000
0001
0000
,  // measure 15
1000
0000
0010
0000
1000
0000
0010
0000
1000
0000
0001
0010
0000
0000
0001
0000
,  // measure 16
0100
0000
0010
0000
0100
0000
0001
0000
1000
0000
0000
0100
0000
0000
1000
0000
,  // measure 17
0001
0000
0100
0000
0000
0100
0000
0000
0100
0000
0000
0010
0000
0000
0010
0000
,  // measure 18
1000
0000
0100
0000
0010
0000
0000
0000
0001
0000
0000
1000
0000
0000
0001
0000
,  // measure 19
1000
0000
0010
0000
0000
0010
0000
0000
0010
0000
0000
0100
0000
0000
0100
0000
,  // measure 20
0001
0000
0010
0000
0100
0000
1000
0000
0001
0000
0000
1000
0000
0000
0001
0000
,  // measure 21
1001
0000
0000
0000
1001
0000
0000
0000
1000
0000
0000
0100
0000
0000
0010
0000
,  // measure 22
0100
0000
1000
0000
0001
0000
0000
0000
1000
0000
0000
1000
0000
0000
0001
0000
,  // measure 23
1001
0000
0000
0000
1001
0000
0000
0000
0001
0000
0000
0010
0000
0000
0100
0000
,  // measure 24
0010
0000
0001
0000
1000
0000
0100
0000
0010
0000
0001
1000
0001
0000
0000
0000
,  // measure 25
0100
0001
0100
0001
0100
0000
0001
0100
0001
0000
1000
0000
1000
0000
0000
0000
,  // measure 26
0010
1000
0010
1000
0010
0000
1000
0010
1000
0000
0001
0000
0001
0000
0000
0000
,  // measure 27
0100
0001
0100
0001
0100
0000
0001
0010
0100
0000
1000
0000
1000
0000
0000
0000
,  // measure 28
0010
1000
0010
1000
0010
0000
1000
0100
0010
0000
0001
0000
0001
0000
0000
0000
,  // measure 29
1000
0000
0001
0000
1000
0100
1000
0000
0001
0000
0100
0000
0101
0000
0000
0000
,  // measure 30
0001
0000
1000
0000
0001
0010
0001
0000
1000
0000
0010
0000
1010
0000
0000
0000
,  // measure 31
0001
0000
1000
0010
1000
0000
0001
0000
0010
0000
0001
0000
0011
0000
0000
0000
,  // measure 32
0100
0000
1000
0000
0100
0000
1000
0000
0100
1000
0100
1000
0100
0000
0000
0000
,  // measure 33
1000
0000
0001
0000
0100
0000
0000
0001
0000
0100
0000
0001
1000
0000
1000
0000
,  // measure 34
0001
0000
1000
0000
0010
0000
0000
1000
0000
0010
0000
1000
0001
0000
0001
0000
,  // measure 35
1000
0000
0100
0000
0010
0000
0001
1000
0000
0010
0000
1000
0001
0000
1000
0000
,  // measure 36
0001
0000
0010
0000
0100
0000
1000
0000
0001
0000
0000
0010
0000
0000
0001
0000
,  // measure 37
1000
0000
0001
0000
1000
0000
0001
0000
1000
0000
0000
1100
0000
0000
0001
0000
,  // measure 38
0101
0000
0000
0000
0101
0000
0000
0000
0001
0000
0000
0011
0000
0000
1000
0000
,  // measure 39
1010
0000
0000
0000
1010
0000
0000
0000
1000
0000
0000
1100
0000
0000
0001
0000
,  // measure 40
0010
0000
0100
0000
1000
0000
0100
0000
1000
0001
1000
0001
1000
0000
0000
0000
,  // measure 41
0100
0000
1000
0100
1000
0100
1000
0000
0001
0000
0010
0000
0100
0000
1000
0000
,  // measure 42
0001
0100
0001
0100
0001
0000
0100
0000
0001
0010
0100
0000
1000
0000
0000
0000
,  // measure 43
0010
1000
0010
1000
0010
0000
1000
0000
0100
0000
0010
0000
0001
0000
1000
0000
,  // measure 44
0001
0010
0001
0010
0001
0000
1000
0000
0010
0000
0100
0000
0001
0000
0000
0000
,  // measure 45
0100
0001
0100
0001
0100
0000
0001
0010
0100
0000
0000
1001
0000
0000
1000
0000
,  // measure 46
0100
1000
0100
1000
0100
0000
1000
0100
0010
0000
0000
1001
0000
0000
0001
0000
,  // measure 47
0010
0001
0010
0001
0010
0000
0001
0010
0100
0000
0000
1001
0000
0000
0001
0000
,  // measure 48
1000
0010
1000
0010
1000
0000
0001
0010
0100
1000
0001
0000
0001
0000
0000
0000
,  // measure 49
1000
0000
0001
0000
0000
0100
0000
0000
0001
0000
0000
1001
0000
0000
1000
0000
,  // measure 50
0001
0000
1000
0000
0000
0100
0000
0000
1000
0000
0000
1001
0000
0000
0001
0000
,  // measure 51
1000
0000
0001
0000
0000
0010
0000
0000
0001
0000
0000
1001
0000
0000
1000
0000
,  // measure 52
0001
0000
1000
0000
0000
0010
0000
0000
1000
0000
0000
1001
0000
0000
0001
0000
,  // measure 53
1000
0000
0010
0000
1000
0010
0000
0000
0100
0000
0000
0101
0000
0000
1000
0000
,  // measure 54
0001
0000
0100
0000
0001
0100
0000
0000
0010
0000
0000
1010
0000
0000
0001
0000
,  // measure 55
1000
0000
0100
0000
1000
0100
0000
0000
0010
0000
0000
0011
0000
0000
1000
0000
,  // measure 56
0001
0000
0010
0000
0001
0010
0000
0000
0100
0000
0000
1100
0000
0000
0001
0000
,  // measure 57
1000
0000
0100
0000
1000
0000
0000
0001
0000
0100
0000
0001
1000
0000
1000
0000
,  // measure 58
0100
0000
0001
0000
0010
0000
0100
0000
1000
0000
0010
1000
0000
0010
1000
0000
,  // measure 59
0001
0000
0010
0000
0001
0000
0000
1000
0000
0010
0000
1000
0001
0000
0001
0000
,  // measure 60
0100
0000
1000
0000
0100
0000
0010
0000
0001
0000
0100
0001
0000
0100
0001
0000
,  // measure 61
1001
0000
0000
0000
1001
0000
0000
0000
0001
0000
1000
0100
0000
1000
0100
0000
,  // measure 62
1001
0000
0000
0000
1001
0000
0000
0000
1000
0000
0001
0100
0000
0001
0100
0000
,  // measure 63
1001
0000
0000
0000
1001
0000
0000
0000
0001
0000
1000
0010
0000
1000
0010
0000
,  // measure 64
1001
0002
0000
1003
,  // measure 65
0010
0000
0100
0000
0010
0000
1000
0100
0000
1000
0000
0001
0100
0000
0001
0000
,  // measure 66
0100
0000
0010
0000
0100
0000
0001
0010
0000
0001
0000
1000
0010
1000
0010
0000
,  // measure 67
0100
0000
0001
0010
0001
0010
0001
0010
0000
0001
0000
1000
0010
0000
0010
0000
,  // measure 68
1000
0100
0010
0001
1000
0000
1000
0000
0001
0010
0100
1000
0001
0000
0001
0000
,  // measure 69
0100
0010
0100
0010
0100
0000
0001
0000
1000
0100
0000
1000
0100
0000
1000
0000
,  // measure 70
0010
0100
0010
0100
0010
0000
1000
0000
0001
0010
0000
0001
0010
0100
1000
0000
,  // measure 71
0010
0000
1000
0010
1000
0000
0001
0010
0000
0001
0000
1000
0010
0000
1000
0000
,  // measure 72
0001
0000
0010
0000
0100
0000
1000
0000
0001
0100
0001
1000
0100
0000
0000
0000
;

//---------------dance-single - ----------------
#NOTES:
     dance-single:
     :
     Beginner:
     2:
     0.185,0.236,0.230,0.000,0.000:
1001
0000
0001
0000
,
1000
0000
0000
0000
,
1001
0000
1000
0000
,
0001
0000
0000
0000
,
1001
0000
0001
0000
,
1000
0000
0001
0000
,
1000
0000
1000
0000
,
1001
0000
0000
0000
,
0010
0000
0010
0000
,
0110
0000
0000
0000
,
1000
0000
1000
0000
,
1001
0000
0000
0000
,
0100
0000
0100
0000
,
0110
0000
0001
0000
,
0001
0000
0001
0000
,
1001
0000
0000
0000
,
1000
0000
0001
0000
,
1000
0000
0000
0000
,
0001
0000
1000
0000
,
0001
0000
0000
0000
,
0100
0000
0010
0000
,
0100
0000
0000
0000
,
0010
0000
0100
0000
,
0010
0000
0000
0000
,
1000
0000
0001
0000
,
1000
0000
0100
0000
,
1000
0000
0100
0000
,
1000
0000
0001
0000
,
0010
0000
0001
0000
,
0010
0000
0001
0000
,
1000
0000
0001
0000
,
1000
0000
0000
0000
,
1001
0000
1000
0000
,
1001
0000
0000
0000
,
1001
0000
0001
0000
,
1001
0000
0000
0000
,
1001
0000
1000
0000
,
1001
0000
0001
0000
,
1001
0000
1000
0000
,
0110
0000
0001
0000
,
1000
0000
0001
0000
,
1000
0000
0100
0000
,
1000
0000
0001
0000
,
0010
0000
0001
0000
,
1000
0000
0010
0000
,
1000
0000
0001
0000
,
0100
0000
0001
0000
,
1000
0000
1000
0000
,
1001
0000
0001
0000
,
0110
0000
1000
0000
,
0110
0000
0001
0000
,
1001
0000
1000
0000
,
0110
0000
0001
0000
,
0110
0000
1000
0000
,
1001
0000
0001
0000
,
1001
0000
1000
0000
,
1000
0000
0010
0000
,
1000
0000
1000
0000
,
0001
0000
0100
0000
,
0001
0000
0001
0000
,
1000
0000
0001
0000
,
1001
0000
0000
0000
,
0001
0000
1000
0000
,
1000
0000
0000
0000
,
0010
0000
0010
0000
,
0010
0000
0110
0000
,
1000
0000
1000
0000
,
1000
0000
1001
0000
,
0100
0000
0100
0000
,
0100
0000
0110
0000
,
0001
0000
0001
0000
,
0001
0000
1000
0100
;
