#TITLE:セレクトショップに横たわるネコ;
#SUBTITLE:;
#ARTIST:little lounge * little twinkle;
#TITLETRANSLIT:SELECT SHOP NI YOKOTAWARU NEKO;
#SUBTITLETRANSLIT:;
#ARTISTTRANSLIT:;
#CREDIT:DMAxel;
#BANNER:SELECT SHOP NI YOKOTAWARU NEKO.png;
#BACKGROUND:SELECT SHOP NI YOKOTAWARU NEKO-bg.png;
#LYRICSPATH:;
#CDTITLE:pop'n music.png;
#MUSIC:SELECT SHOP NI YOKOTAWARU NEKO.mp3;
#OFFSET:-6.801;
#SAMPLESTART:0.820;
#SAMPLELENGTH:12.000;
#SELECTABLE:YES;
#BPMS:0.000=162.000,184.000=141.000,186.000=130.000,188.000=89.000,201.750=100.000,206.104=120.000,211.000=130.000,215.979=142.000,216.979=147.000,218.000=150.000,222.000=156.000,230.000=162.000,234.000=167.000;
#STOPS:;
#BGCHANGES:;

//---------------dance-single - ----------------
#NOTES:
     dance-single:
     :
     Hard:
     9:
     0.620,0.626,0.404,0.156,0.188:
0001
0000
0001
0000
1000
0000
1000
0000
0010
1000
0010
0000
1000
0000
0001
0000
,
0010
0000
0000
0000
1100
0000
0000
0000
1001
0000
0000
0000
1000
0001
1000
0001
,
1000
0000
0100
0000
0010
0000
0001
0000
1000
0001
1000
0000
0001
0000
1000
0000
,
0100
0011
1001
1001
,
0100
0001
0000
0000
1000
0010
0000
0000
0100
0000
0010
0000
1000
0000
0000
0000
,
0001
0000
0010
0000
0100
0000
0000
0000
1000
0001
1000
0000
0001
0000
0001
0000
,
2000
0000
0100
0000
3100
0000
0000
0000
1000
0001
1000
0000
0001
0000
0001
0000
,
0010
0100
0010
0100
1000
0100
1000
0010
,
0100
0001
1000
0010
0100
0001
0100
1000
,
0022
0000
0000
0000
0000
0000
0000
0000
0033
0000
0000
0000
0010
0001
0010
0000
,
1001
0000
0000
0011
0000
0000
1001
0000
,
0000
1100
0000
0100
0001
0100
1000
0000
,
1001
0000
0000
0011
0000
1000
0002
0000
,
0000
0000
0003
0000
0000
1000
1000
1000
,
0001
0000
0010
0000
0100
0000
1000
0000
0001
1000
0001
0000
1000
0000
0000
0000
,
1100
0000
0000
0000
0110
0000
0000
0000
1001
0000
0000
0000
1000
0001
1000
0001
,
1000
0000
0100
0000
0010
0000
0001
0000
1000
0001
1000
0000
0001
0000
0000
0000
,
0011
0000
0000
0000
0110
0000
0000
0000
1001
0000
0000
0000
0100
0010
0100
0000
,
0010
1000
0000
0000
0001
0100
0000
0000
0010
0000
1000
0000
0001
0000
0000
0000
,
0010
0000
0100
0000
1000
0000
0001
0000
1000
0001
1000
0000
0100
0000
0010
0000
,
0001
0000
1000
0000
0001
0000
1000
0000
0100
0010
0100
0000
0010
0000
0100
0000
,
0010
0001
0010
0001
0100
0010
1000
0001
,
0100
0010
1000
0100
0001
1000
0010
0001
,
2200
0000
0000
0000
0000
0000
0000
0000
3300
0000
0000
0000
0100
1000
0100
0000
,
1001
0000
0000
0101
0000
0000
1001
0000
,
0000
0110
0000
0100
0001
0100
1000
0000
,
1001
0000
0000
1100
0000
1000
0001
0010
,
0100
0010
0200
0000
0000
0000
0310
0000
0001
0000
1000
0000
0100
0000
0000
0000
,
1001
0000
0000
1010
0000
0000
1001
0000
,
0000
0110
0000
0100
1000
0100
0001
0000
,
1001
0000
0000
0011
0000
0000
1001
0000
,
0000
1100
0000
0000
1000
0100
0010
0001
,
2000
0000
0001
0000
3001
0100
1000
0010
,
0100
0001
0010
1000
0100
0010
0001
1000
,
0001
0020
0000
0001
0032
0000
0000
1000
,
1003
0000
1000
0010
1000
0001
0010
0000
,
0002
0000
1000
0000
1003
0100
0001
0100
,
0010
1000
0010
0001
0010
0100
1000
0001
,
1000
0200
0000
1000
2300
0000
0000
0001
,
3001
0000
0001
0100
0001
1000
0100
0000
,
1000
0100
0001
1000
0100
0010
0001
0010
,
0001
0010
0100
0010
0100
1000
0001
0010
,
0100
1000
0100
1000
0100
0001
1000
0100
,
0010
0000
1001
0000
0001
0010
1000
0000
,
0001
0010
0100
1000
0001
0010
1000
0010
,
1000
0100
0010
0100
0010
0001
1000
0100
,
0010
0100
0010
0001
0010
0100
1000
0001
,
0010
1000
0100
0010
0100
0010
0001
1000
0100
0001
0010
0100
,
0000
0000
0000
0000
1001
0000
1000
0000
1000
0000
0001
0000
0010
0100
1000
0000
,
0100
0010
0100
0010
0001
0000
1000
0000
0100
0000
1000
0000
0001
0000
1000
0000
,
0100
1000
0100
0000
1001
0000
0001
0000
0001
0000
1000
0000
0100
0010
0001
0000
,
0010
0100
0010
0100
1000
0000
0001
0000
0010
0000
0001
0000
1000
0000
0001
0000
,
0010
0000
0000
0000
0100
0010
0100
0000
0010
0100
0010
0000
0001
0000
1000
0000
,
0001
0000
0000
0000
1000
0000
0001
0000
1000
0000
0100
0000
0010
0100
0010
0000
,
0100
0000
0010
0000
0001
0000
0010
0000
0001
0000
0010
0000
0100
0010
0100
0000
,
0010
0100
1000
0001
0010
0100
1000
0100
,
0001
1000
0100
0010
0001
0010
1000
0001
,
0100
1000
0220
0000
0000
0000
0330
0000
,
0010
0100
0010
0000
1001
0000
0000
0000
0000
0000
0011
0000
0000
0000
0000
0000
,
1001
0000
0000
0110
0000
0010
0001
0010
,
1000
0000
1001
0000
0000
1100
0000
1000
,
0001
0100
0001
0000
2002
0000
0000
0000
0000
0000
0000
0000
0000
0000
0000
0000
,
3003
0000
0000
0000
;

//---------------dance-single - ----------------
#NOTES:
     dance-single:
     :
     Medium:
     6:
     0.495,0.455,0.634,0.083,0.018:
0001
0010
0001
0010
0001
0000
0001
0000
,
1000
0100
0010
0001
,
1000
0100
1000
0100
1000
0000
1000
0000
,
0001
0010
0100
1000
,
1001
1001
0010
0001
,
0010
0000
1000
0000
0001
0010
0100
1000
,
0000
0001
0001
0000
1000
0100
1000
0100
,
1000
0010
1001
1001
,
0001
0100
1001
1001
,
2200
0000
0000
3300
,
1001
0000
0000
0011
0000
0000
1001
0000
,
0000
0100
0000
0100
1000
0001
0010
0000
,
1001
0000
0000
0011
0000
1000
0001
0000
,
0000
0000
0000
0000
0000
1000
0100
1000
,
0100
1000
0100
0000
1100
0000
0010
0000
,
1001
1001
1100
1100
,
0001
0010
0001
0010
0001
0000
0010
0000
,
1001
1001
0011
0011
,
1001
0000
1001
0000
1000
0010
0100
0000
,
0001
0010
0001
0000
0010
0100
1000
0001
,
0000
1000
1000
0000
0100
1000
0100
1000
,
0100
1100
1001
1001
,
1100
0110
0011
1001
,
0220
0000
0000
0330
,
1001
0000
0000
1010
0000
0000
1001
0000
,
0000
0101
0000
0100
0001
1000
0100
0000
,
1001
0000
0000
0101
0000
0100
0001
0010
,
0100
2000
0000
0001
0001
0001
3001
0000
,
1001
0000
0000
0101
0000
0000
1001
0000
,
0000
1010
0000
0010
1000
0001
0010
0000
,
1001
0000
0000
1010
0000
0000
0110
0000
,
0000
0101
0000
0000
1001
0000
0001
0000
,
1000
0001
1000
0000
0100
0010
0100
0000
,
1000
0001
1000
0100
0010
0001
1000
0000
,
0001
1000
0001
0000
0010
0100
0010
0000
,
0001
1000
0001
0010
0100
1000
0001
0000
,
1000
0001
1000
0000
0100
0010
0100
0000
,
1000
0001
1000
0100
0010
0001
1000
0000
,
0001
1000
0001
0000
0010
0100
0010
0000
,
0001
1000
0001
0010
0100
1000
0001
0000
,
1000
0001
1000
0001
1000
0000
0110
0000
,
0001
0000
0110
0000
1000
0010
0100
0000
,
0001
1000
0001
1000
0001
0010
0100
1000
,
0001
0000
1001
0000
0001
0100
0010
0000
,
1000
0001
1000
0001
1000
0100
0010
0000
,
0001
0000
0110
0000
1000
0010
0100
0000
,
0001
1000
0001
0010
0100
0010
0001
1000
,
0100
0000
0010
0000
0100
0000
0010
0000
0100
0000
0010
0000
,
0000
0000
0110
0000
0001
0010
1000
0000
,
0001
1001
0010
0110
,
1000
0000
0110
0000
1000
0100
0001
0000
,
1000
1001
0100
0110
,
0001
0000
0100
0010
0100
0010
1000
0000
,
1000
0000
1001
0000
0001
0000
0001
1000
,
0100
0010
0000
0001
1000
0000
0100
1000
,
0100
1000
0100
0000
1100
0000
0001
0000
,
0011
0100
1001
0010
,
1100
2002
0000
0000
,
3003
0000
1001
0000
0000
1100
0000
0000
,
1001
0000
0000
0110
0000
0100
0001
1000
,
0100
0000
1001
0000
0000
0011
0000
1000
,
0001
2002
0000
0000
,
3003
0000
0000
0000
;

//---------------dance-single - ----------------
#NOTES:
     dance-single:
     :
     Easy:
     4:
     0.313,0.285,0.147,0.073,0.000:
1000
1000
1000
1000
,
1000
0100
0010
0001
,
1001
0001
0001
0001
,
0001
0010
0100
1000
,
0010
0100
0010
1000
,
0100
1000
0001
0100
,
0000
0001
1000
0000
0001
0000
1000
0000
,
0100
0010
0100
0010
,
0001
1000
0001
1000
,
0220
0000
0000
0330
,
1001
0000
0000
0001
0000
0000
1000
0000
,
0000
0001
0000
0000
1000
0000
0001
0000
,
1001
0000
0000
1000
0000
0000
1000
0000
,
0000
0000
0000
0000
,
1000
1000
1000
1000
,
1000
0100
0010
0001
,
1001
0001
0001
0001
,
0001
0010
0100
1000
,
0010
0100
0010
1000
,
0001
1000
0010
1000
,
0000
0001
1000
0000
0100
0000
0010
0000
,
0100
1000
0001
0010
,
0100
0010
0001
1000
,
0220
0000
0000
0330
,
1001
0000
0000
1000
0000
0000
0001
0000
,
0000
1000
0000
0000
0001
0000
1000
0000
,
1001
0000
0000
0001
0000
0000
0001
0000
,
0000
1000
0000
0000
1000
0000
0001
0000
,
1001
0000
0000
1000
0000
0000
0100
0000
,
0000
0010
0000
0000
0001
0000
1000
0000
,
1001
0000
0000
0010
0000
0000
0100
0000
,
0000
1000
0000
0000
0000
0000
0000
0000
,
0001
1000
0001
1000
,
0001
0010
0100
1000
,
0001
0010
0001
0010
,
0001
0010
0001
0001
,
1000
0100
1000
0100
,
1000
0001
0010
0100
,
1000
0001
1000
0001
,
1000
0100
0010
0001
,
1000
0010
1000
0010
,
1000
0001
0100
0001
,
0100
0001
1000
0100
,
1000
1000
0001
0001
,
1000
0100
0010
0001
,
0010
0001
1000
0100
,
0001
0010
0100
1000
,
0001
0010
1000
0100
,
0000
0110
1000
0001
,
0000
0001
0010
0001
,
1000
0110
0001
1000
,
0000
1000
0100
1000
,
0001
0010
0010
0100
,
0100
1000
0100
0010
,
0001
1000
0001
1000
,
0001
1000
0100
0010
,
0001
0010
0100
1000
,
0001
0220
0000
0000
,
0330
0000
1001
0000
0000
1000
0000
0000
,
0010
0000
0000
0100
0000
0000
0001
0000
,
1000
0000
1001
0000
0000
0001
0000
0100
,
0010
2002
0000
0000
,
3003
0000
0000
0000
;

//---------------dance-single - ----------------
#NOTES:
     dance-single:
     :
     Challenge:
     9:
     0.740,0.825,0.395,0.129,0.482: // measure 1
0001
0000
1000
0000
0001
0000
1000
0000
0001
1000
0001
0000
1000
0000
0100
0000
,  // measure 2
0010
0001
0000
0000
1001
0000
0000
1000
0010
0000
0000
0000
0100
0001
0100
0001
,  // measure 3
1000
0000
0001
0000
1000
0000
0001
0000
1000
0001
1000
0000
0001
0000
0010
0000
,  // measure 4
0100
1000
0000
0000
1001
0000
0000
0001
0100
0000
0000
0000
1001
0000
0000
0000
,  // measure 5
0100
1000
0100
0000
1000
0100
1000
0000
0001
0000
0100
0000
0001
0000
1000
0000
,  // measure 6
0001
0000
0010
0000
0100
0000
1000
0000
0001
0010
0001
0000
0010
0001
0010
0000
,  // measure 7
0001
0000
0001
0000
0010
0000
0100
0000
1000
0100
0010
0000
0001
0000
0001
0000
,  // measure 8
1000
0000
0100
0000
1000
0000
0001
0000
0100
0000
0001
0000
0100
0010
0100
0000
,  // measure 9
0001
0100
0001
0000
1000
0100
1000
0000
0010
0100
0010
0000
1000
0100
0010
0000
,  // measure 10
2002
0000
0000
0000
0000
0000
0000
0000
3003
0000
0000
0000
0100
0001
0100
0000
,  // measure 11
1001
0000
0000
0101
0000
0000
1100
0000
,  // measure 12
0000
1100
0000
0010
0001
0100
1000
0000
,  // measure 13
1001
0000
0000
1010
0000
0001
1002
0000
,  // measure 14
1000
1000
0000
0000
0000
1003
1000
1000
,  // measure 15
0001
0000
0100
0000
0001
0000
1000
0000
0100
1000
0100
0000
1000
0000
0010
0000
,  // measure 16
0100
0001
0000
0000
1001
0000
0000
0001
1000
0000
0000
0000
0010
1000
0010
1000
,  // measure 17
0001
0000
0001
0000
0100
0000
0001
0000
1000
0100
1000
0000
0001
0000
0100
0000
,  // measure 18
0010
1000
0000
0000
1001
0000
0000
1000
0001
0000
0010
0000
0001
1000
0001
1000
,  // measure 19
0001
0010
0001
0000
0010
0001
0010
0000
0001
0000
1000
0000
0100
0000
1000
0000
,  // measure 20
0001
0100
0001
0000
0010
0000
0100
0000
1000
0010
1000
0000
0001
0000
0001
0000
,  // measure 21
1000
0000
1000
0000
0100
0000
0010
0000
0001
0010
0100
0000
1000
0000
1000
0000
,  // measure 22
0001
0000
0010
0000
1000
0000
0100
0000
0010
0000
0001
0000
0100
0010
0100
0000
,  // measure 23
0001
0010
0001
0000
0100
0010
0100
0000
0010
1000
0010
0000
1000
0100
0010
0000
,  // measure 24
2002
0000
0000
0000
0000
0000
0000
0000
3003
0000
0000
0000
0100
1000
0100
0000
,  // measure 25
1001
0000
0000
1100
0000
0000
0101
0000
,  // measure 26
0000
0101
0000
0010
1000
0100
0001
0000
,  // measure 27
1001
0000
0000
0101
0000
0010
1000
0100
,  // measure 28
0010
0001
0020
0000
0000
0000
0001
0000
0031
0000
1000
0000
0010
0000
0000
0000
,  // measure 29
1010
0000
0000
0101
0000
0000
0110
0000
,  // measure 30
0000
1010
0000
0100
0001
0010
1000
0000
,  // measure 31
0011
0000
0000
0110
0000
0000
1100
0000
,  // measure 32
0000
0110
0000
0001
0001
0010
0100
1000
,  // measure 33
0010
1000
0010
1000
0001
0000
0010
0000
0100
0000
1000
0000
0100
0000
0001
0000
,  // measure 34
0010
0000
0100
0000
1000
0000
0001
0000
0100
0001
0100
0001
1000
0100
1000
0000
,  // measure 35
0001
0100
0020
1000
1030
0010
0200
0001
,  // measure 36
0301
0100
0001
1000
0100
0100
1000
0001
,  // measure 37
0100
0001
0100
0001
1000
0000
0100
0000
0010
0000
0001
0000
0010
0000
1000
0000
,  // measure 38
0100
0000
0010
0000
0001
0000
1000
0000
0010
1000
0010
1000
0001
0010
0001
0000
,  // measure 39
1000
0010
0200
0001
0301
0100
0020
1000
,  // measure 40
1030
0001
0010
0001
0100
0100
0001
1000
,  // measure 41
0100
1000
0100
1000
0100
0010
0001
0000
0100
0000
0001
0000
0100
0000
1000
0000
,  // measure 42
0100
0000
0001
0000
0100
0000
0010
0000
0100
0001
0100
0001
0100
0010
1000
0000
,  // measure 43
0100
1000
0100
0001
0100
1000
0100
0010
,  // measure 44
0110
0000
1001
0000
0001
0010
1000
0001
,  // measure 45
0010
0001
0010
0001
0010
0100
1000
0000
0010
0000
1000
0000
0010
0000
0001
0000
,  // measure 46
0010
0000
1000
0000
0010
0000
0001
0000
0100
0001
0100
0001
0100
0010
1000
0000
,  // measure 47
0001
0010
0100
1000
0100
0001
0010
1000
,  // measure 48
0100
0010
0001
0010
1000
0100
0001
0010
0100
1000
0010
0100
,  // measure 49
0000
0000
0000
0000
0101
0000
0100
0000
1001
0000
1001
0000
0010
0100
1000
0000
,  // measure 50
0100
0010
0001
0010
0100
1000
0010
1000
0001
0010
0001
1000
0100
0010
0001
0010
,  // measure 51
0100
1000
0100
0000
1100
0000
0100
0000
1001
0000
1001
0000
0100
0010
0001
0000
,  // measure 52
0010
0100
1000
0100
0010
0001
0100
0001
1000
0100
1000
0000
0001
0100
0001
0010
,  // measure 53
0100
1000
0001
0000
0100
0001
0100
0000
0001
0100
0001
0000
0010
0000
0100
0000
,  // measure 54
1000
0000
0001
0100
0001
0000
1000
0000
0100
0000
0010
0001
0010
0001
0100
0000
,  // measure 55
0010
1000
0010
0000
1000
0000
1000
0000
0001
0000
0100
0000
0001
0010
0100
0000
,  // measure 56
1000
1000
0100
0010
0001
1000
0100
0001
,  // measure 57
0100
0010
0100
0000
0001
0010
0001
0000
1000
0010
1000
0000
0010
0100
0010
0000
,  // measure 58
1000
0100
0010
0000
2002
0000
0000
0000
0000
0000
0000
0000
3003
0000
0000
0000
,  // measure 59
0010
0100
0010
0000
1001
0000
0000
0000
0000
0000
1100
0000
0000
0000
0000
0000
,  // measure 60
0101
0000
0000
1100
0000
0010
0001
0100
,  // measure 61
1000
0000
1001
0000
0000
0101
0000
1000
,  // measure 62
0010
1000
0010
2000
0002
0000
0000
0000
0000
0000
0000
0000
0000
0000
0000
0000
,  // measure 63
3003
0000
0000
0000
;

//---------------dance-single - ----------------
#NOTES:
     dance-single:
     :
     Beginner:
     2:
     0.100,0.141,0.073,0.000,0.000:
1000
0000
0000
0000
,
0001
0000
0000
0000
,
1000
0000
0000
0000
,
1000
0000
0000
0000
,
1001
0000
0000
0000
,
0001
0000
0000
0000
,
0100
0000
0000
0000
,
0010
0000
0000
0000
,
0100
0000
0000
0000
,
0110
0000
0000
0000
,
0001
0000
0000
0000
,
0000
0000
0000
0000
,
1000
0000
0000
0000
,
0000
0000
0000
0000
,
1000
0000
0000
0000
,
0001
0000
0000
0000
,
1000
0000
0000
0000
,
1000
0000
0000
0000
,
0010
0000
0000
0000
,
0100
0000
0000
0000
,
0010
0000
0000
0000
,
0010
0000
0000
0000
,
0010
0000
0000
0000
,
0110
0000
0000
0000
,
0001
0000
0000
0000
,
0000
0000
0000
0000
,
1000
0000
0000
0000
,
0000
0000
0000
0000
,
0001
0000
0000
0000
,
0000
0000
0000
0000
,
1000
0000
0000
0000
,
0000
0000
0000
0000
,
0001
0000
0001
0000
,
0001
0000
0000
0000
,
1000
0000
1000
0000
,
1000
0000
0000
0000
,
0001
0000
0001
0000
,
0001
0000
0000
0000
,
1000
0000
1000
0000
,
1000
0000
0000
0000
,
0010
0000
0000
0000
,
0100
0000
0000
0000
,
0010
0000
0000
0000
,
0100
0000
0000
0000
,
0001
0000
0000
0000
,
1000
0000
0000
0000
,
0001
0000
0000
0000
,
1000
0000
0000
0000
,
0000
1001
0000
0001
,
0000
1000
0000
1000
,
0000
0100
0000
0100
,
0000
0010
0000
0010
,
0000
0001
0000
1000
,
0000
0001
0000
1000
,
0000
0001
0000
0001
,
0000
1000
0000
1000
,
0000
0100
0000
0010
,
0000
1001
0000
0000
,
0000
1001
0000
0000
,
0000
0000
0000
0000
,
0000
0110
0000
0000
,
0000
1001
0000
0000
;
