#TITLE:さんぽのうた;
#SUBTITLE:;
#ARTIST:V.C.O.+ALT;
#TITLETRANSLIT:SANPO NO UTA;
#SUBTITLETRANSLIT:;
#ARTISTTRANSLIT:;
#CREDIT:DMAxel;
#BANNER:SANPO NO UTA.png;
#BACKGROUND:SANPO NO UTA-bg.png;
#LYRICSPATH:SANPO NO UTA.lrc;
#CDTITLE:ee'MALL.png;
#MUSIC:SANPO NO UTA.mp3;
#OFFSET:-14.440;
#SAMPLESTART:14.444;
#SAMPLELENGTH:12.000;
#SELECTABLE:YES;
#BPMS:0.000=135.000;
#STOPS:;
#BGCHANGES:;

//---------------dance-single - ----------------
#NOTES:
     dance-single:
     :
     Easy:
     2:
     0.117,0.166,0.045,0.054,0.000: // measure 1
1000
0000
0001
0000
,  // measure 2
1000
0000
0000
0000
,  // measure 3
0010
0000
0010
0100
,  // measure 4
0000
0100
0000
0000
,  // measure 5
0100
0000
0100
0000
,  // measure 6
0000
0010
0000
1000
,  // measure 7
0000
0001
1000
0001
,  // measure 8
0000
0000
0001
0000
,  // measure 9
0001
0000
0000
0000
,  // measure 10
1000
0000
0000
0000
,  // measure 11
0001
0000
0001
0000
,  // measure 12
1000
0000
1000
0000
,  // measure 13
0010
0000
1000
0000
,  // measure 14
1000
0000
0001
0000
,  // measure 15
0001
0000
1000
0000
,  // measure 16
0010
0000
0010
0000
,  // measure 17
0110
0000
0000
0000
,  // measure 18
1000
0000
0000
0000
,  // measure 19
0110
0000
0000
0001
,  // measure 20
0000
0000
0000
0000
,  // measure 21
0001
0000
0000
0000
1000
0000
0000
1000
,  // measure 22
0000
0000
0000
0000
,  // measure 23
1000
0000
0000
0000
1000
0000
0000
0001
,  // measure 24
0000
0000
0000
0000
,  // measure 25
0002
0000
0000
0000
,  // measure 26
0003
0000
0000
0000
,  // measure 27
0200
0000
0000
0000
,  // measure 28
0300
0000
0000
0000
,  // measure 29
0020
0000
0000
0000
,  // measure 30
0030
0000
0000
0000
,  // measure 31
0200
0000
0000
0000
,  // measure 32
0300
0000
0000
0000
,  // measure 33
0010
0000
0010
0000
,  // measure 34
0100
0000
0100
0000
,  // measure 35
0010
0000
0010
0000
,  // measure 36
1000
0000
1000
0000
,  // measure 37
0001
0000
1000
0000
,  // measure 38
0001
0000
0001
0000
,  // measure 39
0010
0000
0010
0000
,  // measure 40
0100
0000
0100
0000
,  // measure 41
1000
0000
0001
0000
,  // measure 42
1000
0000
0010
0000
,  // measure 43
0100
0000
0010
0000
,  // measure 44
0100
0000
0001
0000
,  // measure 45
1000
0000
0001
0000
,  // measure 46
1000
0000
0001
0000
,  // measure 47
1001
0000
0000
0000
1000
0000
0000
1000
,  // measure 48
0000
0000
0001
0000
,  // measure 49
1001
0000
0000
0000
0001
0000
0000
0001
,  // measure 50
0000
0000
0000
0000
,  // measure 51
0001
0000
0000
0000
,  // measure 52
0000
0220
0000
0000
,  // measure 53
0000
0000
0000
0330
;

//---------------dance-single - ----------------
#NOTES:
     dance-single:
     :
     Medium:
     4:
     0.257,0.285,0.081,0.054,0.000: // measure 1
0010
0000
0000
0001
0010
0000
0000
0001
,  // measure 2
0010
0010
0000
0000
,  // measure 3
0100
0000
0000
1000
0100
0000
0100
0000
,  // measure 4
0000
1000
0001
0000
0000
0000
0000
0000
,  // measure 5
0100
0000
0000
0001
0100
0000
0000
0100
,  // measure 6
0000
0001
0100
0000
0000
0000
0010
0000
,  // measure 7
0000
1000
0010
0000
1000
0000
0010
0100
,  // measure 8
0000
0010
0100
0000
0001
0000
0001
0000
,  // measure 9
1002
0000
0000
1000
0000
0000
0003
0000
,  // measure 10
2000
0000
0000
0001
0000
0000
3000
0000
,  // measure 11
0010
0010
0100
0100
,  // measure 12
0001
0001
1000
1000
,  // measure 13
2001
0000
0000
0001
0000
0000
3000
0000
,  // measure 14
0002
0000
0000
1000
0000
0000
0003
0000
,  // measure 15
0100
0100
0010
0010
,  // measure 16
1000
1000
0001
0001
,  // measure 17
0100
0000
0000
0001
0100
0000
0000
0001
,  // measure 18
0100
0000
0100
0000
0000
0000
0000
0001
,  // measure 19
1000
0000
0000
1000
0001
0000
1000
0010
,  // measure 20
0000
0010
0100
0000
0000
0000
0000
0001
,  // measure 21
0010
0000
0000
0001
0010
0000
0000
0010
,  // measure 22
0000
0010
0000
0100
,  // measure 23
1000
0000
0001
0000
1000
0000
0000
1010
,  // measure 24
0000
0010
0010
0010
,  // measure 25
0010
0000
1000
0000
0100
0000
0001
1000
,  // measure 26
0000
0000
0000
0010
,  // measure 27
0100
0000
0001
0000
0010
0000
1000
0001
,  // measure 28
0000
0000
0000
0100
,  // measure 29
0010
0000
1000
0000
0100
0000
0001
1000
,  // measure 30
0000
0000
0000
0010
,  // measure 31
0000
0100
0001
0000
1000
0000
0100
1000
,  // measure 32
0000
0001
0001
0000
0100
0000
0100
0000
,  // measure 33
0110
1000
0100
1000
,  // measure 34
0001
0010
0001
1000
,  // measure 35
0010
0010
0100
0100
,  // measure 36
0010
0010
0100
0100
,  // measure 37
0001
0100
0001
1000
,  // measure 38
0010
1000
0010
1000
,  // measure 39
0010
0010
0100
0100
,  // measure 40
0010
0000
0010
0000
0100
0010
0100
0000
,  // measure 41
0001
0000
0000
0100
0001
0000
0000
0100
,  // measure 42
0001
0010
0100
1000
,  // measure 43
1000
0000
0000
0010
1000
0000
0010
1000
,  // measure 44
0000
0100
0010
0000
0001
0000
1000
0000
,  // measure 45
0001
0000
0000
0010
0001
0000
0000
0001
,  // measure 46
0000
0010
0100
0000
1000
0000
0001
0000
,  // measure 47
1001
0000
0001
0100
0001
0000
0000
1001
,  // measure 48
0000
1000
0100
1000
,  // measure 49
1001
0000
1000
0010
1000
0000
0000
1001
,  // measure 50
0000
0000
0001
0000
,  // measure 51
0001
0010
1000
0100
,  // measure 52
0001
0220
0000
0000
,  // measure 53
0000
0000
0000
0330
;

//---------------dance-single - ----------------
#NOTES:
     dance-single:
     :
     Hard:
     7:
     0.413,0.404,0.171,0.072,0.045: // measure 1
0100
0000
0000
0001
0100
0000
0000
0001
,  // measure 2
0100
0010
1000
0000
0000
0000
0000
1000
,  // measure 3
0010
0000
0000
1000
0010
0000
1000
0001
,  // measure 4
0000
0001
1000
0000
0000
0000
0000
0001
,  // measure 5
0010
0000
0000
0000
0000
0000
0001
0010
0001
0000
0000
0000
0000
0000
1001
0000
,  // measure 6
0000
1000
0001
0000
0000
0000
0010
0010
,  // measure 7
0000
0010
1000
0001
0100
0000
0100
0001
,  // measure 8
0000
0001
1000
0000
1000
0001
1000
0000
,  // measure 9
0102
0000
1000
1003
0000
1000
0010
0100
,  // measure 10
0000
0001
1000
0001
0000
0010
0100
1000
,  // measure 11
0001
0101
1000
1100
,  // measure 12
0001
0100
0001
0100
0010
1000
1000
0000
,  // measure 13
2010
0000
0001
3001
0000
0001
0100
0010
,  // measure 14
0000
1000
0001
1000
0000
0100
0010
0001
,  // measure 15
1000
1100
0001
0101
,  // measure 16
1000
0000
0010
0000
1000
0000
0001
0100
0001
0000
1000
0000
0100
0000
0010
0000
,  // measure 17
1001
0000
0000
0010
0100
0000
0000
0001
,  // measure 18
0010
0100
1000
0000
0000
0000
0000
0010
,  // measure 19
0100
0000
0000
0100
0010
0000
1000
0001
,  // measure 20
0000
0001
1000
0000
0000
0000
0000
0100
,  // measure 21
1000
0000
0000
0000
0000
0000
0001
0100
0001
0000
0000
0000
0000
0000
1001
0000
,  // measure 22
0000
0001
1000
0000
0000
0000
0001
1000
,  // measure 23
0001
1000
0100
0001
0100
1000
0010
0110
,  // measure 24
0000
0001
1000
0100
0010
0000
1001
0000
,  // measure 25
1000
0100
1000
0001
0100
0001
0100
0002
,  // measure 26
0000
0000
1003
0100
1000
0000
0000
0000
0000
0000
0100
0000
0010
0000
0001
0000
,  // measure 27
2000
0000
0000
0000
0000
0000
3001
0010
0001
0000
1000
0000
0100
0000
0010
0000
,  // measure 28
0000
0000
0001
1000
0001
0000
1000
0000
0100
0000
0010
0000
0001
0000
0100
0000
,  // measure 29
2000
0000
0000
0000
0000
0000
3100
0010
0100
0000
1000
0000
0100
0000
0001
0000
,  // measure 30
0000
0100
0010
1000
0000
0001
0001
1000
,  // measure 31
0000
0100
0010
0001
0100
0000
0001
1000
,  // measure 32
0000
0000
0010
0000
0010
0000
0000
0000
1000
0001
1000
0000
1001
0000
0000
0000
,  // measure 33
0100
1000
0001
0100
0000
0001
0010
0100
,  // measure 34
0000
1000
0100
0001
0000
0100
0001
1000
,  // measure 35
0100
1100
0001
0101
,  // measure 36
1000
0100
1000
0001
0100
0001
0001
0010
,  // measure 37
0100
0000
1000
0001
0000
0010
0100
1000
,  // measure 38
0000
0010
0100
0001
0000
1000
0100
0001
,  // measure 39
0100
0101
1000
1100
,  // measure 40
0001
0000
0010
0000
0100
0000
1000
0001
1000
0000
0010
0000
0010
0000
0100
0000
,  // measure 41
0110
0000
0001
0010
0100
0000
1000
0100
,  // measure 42
0001
0100
1000
0000
0100
0000
0010
0100
,  // measure 43
1000
0000
0001
1000
0100
0000
1000
0001
,  // measure 44
0000
0001
1000
0000
0010
0000
0100
0001
,  // measure 45
0010
0000
0000
0000
0000
0000
0001
1000
0001
0000
0000
0000
0100
0000
0010
0000
,  // measure 46
0000
0010
0100
0000
0001
0000
1000
1000
,  // measure 47
0001
0100
1000
0100
0010
0001
0100
0110
,  // measure 48
0000
1000
0100
0001
0100
0010
1000
0000
,  // measure 49
0001
0001
0100
1000
0100
0010
0001
0200
,  // measure 50
0000
0000
0010
0310
,  // measure 51
1000
0001
0010
0100
1000
0001
0010
0100
,  // measure 52
1000
2002
0000
0000
,  // measure 53
0000
0000
0000
3003
;

//---------------dance-single - ----------------
#NOTES:
     dance-single:
     :
     Beginner:
     1:
     0.050,0.069,0.009,0.000,0.000: // measure 1
1000
0000
0000
0000
,  // measure 2
0001
0000
0000
0000
,  // measure 3
0001
0000
0000
0000
,  // measure 4
1000
0000
0000
0000
,  // measure 5
1000
0000
0001
0000
,  // measure 6
0000
0000
0000
0001
,  // measure 7
0000
0000
0000
0000
,  // measure 8
0000
0000
0001
0000
,  // measure 9
0001
0000
0000
0000
,  // measure 10
1000
0000
0000
0000
,  // measure 11
0001
0000
0000
0000
,  // measure 12
1000
0000
0000
0000
,  // measure 13
1000
0000
0000
0000
,  // measure 14
0001
0000
0000
0000
,  // measure 15
1000
0000
0000
0000
,  // measure 16
0010
0000
0000
0000
,  // measure 17
0100
0000
0000
0000
,  // measure 18
0000
0000
0000
0000
,  // measure 19
0100
0000
0000
0000
,  // measure 20
0000
0000
0000
0000
,  // measure 21
0010
0000
0000
0000
,  // measure 22
0000
0000
0000
0000
,  // measure 23
1000
0000
0000
0000
,  // measure 24
0000
0000
0000
0000
,  // measure 25
0001
0000
0000
0000
,  // measure 26
0000
0000
0000
0000
,  // measure 27
1000
0000
0000
0000
,  // measure 28
0000
0000
0000
0000
,  // measure 29
0001
0000
0000
0000
,  // measure 30
0000
0000
0000
0000
,  // measure 31
1000
0000
0000
0000
,  // measure 32
0000
0000
0000
0000
,  // measure 33
0010
0000
0000
0000
,  // measure 34
0000
0000
0000
0000
,  // measure 35
0100
0000
0000
0000
,  // measure 36
0000
0000
0000
0000
,  // measure 37
0010
0000
0000
0000
,  // measure 38
0000
0000
0000
0000
,  // measure 39
1000
0000
0000
0000
,  // measure 40
1000
0000
0000
0000
,  // measure 41
0001
0000
0000
0000
,  // measure 42
0001
0000
0000
0000
,  // measure 43
1000
0000
0000
0000
,  // measure 44
1000
0000
0000
0000
,  // measure 45
0010
0000
0000
0000
,  // measure 46
0010
0000
0000
0000
,  // measure 47
0100
0000
0000
0000
,  // measure 48
0000
0000
0000
0000
,  // measure 49
0100
0000
0000
0000
,  // measure 50
0000
0000
0000
0000
,  // measure 51
0000
0000
0000
0000
,  // measure 52
0000
1001
0000
0000
;
