#TITLE:サナ・モレッテ・ネ・エンテ;
#SUBTITLE:;
#ARTIST:Togo Project feat. Sana;
#TITLETRANSLIT:SANA MOLLETE NE ENTE;
#SUBTITLETRANSLIT:;
#ARTISTTRANSLIT:;
#CREDIT:DMAxel;
#BANNER:SANA MOLLETE NE ENTE.png;
#BACKGROUND:SANA MOLLETE NE ENTE-bg.png;
#LYRICSPATH:SANA MOLLETE NE ENTE.lrc;
#CDTITLE:beatmania.png;
#MUSIC:SANA MOLLETE NE ENTE.mp3;
#OFFSET:-3.620;
#SAMPLESTART:88.147;
#SAMPLELENGTH:12.000;
#SELECTABLE:YES;
#BPMS:0.000=90.000;
#STOPS:124.750=1.320
;
#BGCHANGES:;

//---------------dance-single - ----------------
#NOTES:
     dance-single:
     :
     Easy:
     2:
     0.158,0.151,0.104,0.104,0.000:
0000
0000
0000
0000
,
0000
0000
0000
0000
,
0000
0000
0000
1000
,
1000
1000
1000
0000
,
1001
0000
0000
0100
,
0100
0001
0001
0100
,
0001
0100
0000
0010
,
0010
1000
1000
0010
,
1000
0010
0000
1000
,
1000
0100
0100
1000
,
0100
1000
0000
0001
,
0001
0010
0010
0001
,
0010
0001
0000
2000
,
0000
0000
3000
0020
,
0000
0000
0030
0200
,
0000
0000
0300
0002
,
0000
0000
0000
1003
,
0000
0110
0000
1000
,
1000
0100
0010
0001
,
0100
0001
0000
0001
,
0001
0010
0100
1000
,
0010
1000
0000
1000
,
1000
1010
0000
0001
,
0001
0101
0000
1000
,
1000
1100
0000
0001
,
0001
0011
0000
0022
,
0000
0000
0033
2200
,
0000
0000
3300
0202
,
0000
0000
0303
2020
,
0000
0000
3030
0001
,
0001
0010
0100
1000
,
1000
0001
0100
0001
,
1000
0010
1000
0010
,
0000
1000
1000
0001
,
0001
0100
0010
0100
,
0000
0010
0010
1000
,
0100
0010
0001
0001
,
0000
1000
1000
0100
,
0010
0001
0100
0110
,
1001
0000
0000
0000
;

//---------------dance-single - ----------------
#NOTES:
     dance-single:
     :
     Hard:
     7:
     0.370,0.343,0.147,0.078,0.358:
0000
0000
0000
0000
0000
0000
0000
0000
0000
0000
0000
0000
1000
0000
0000
0100
,
0000
1000
0000
0010
0000
1000
0000
0000
0010
0000
0010
0000
0001
0000
0000
0010
,
0000
0001
0000
0100
0000
0002
0000
0000
0000
0000
0000
0000
1003
0000
0100
0000
,
1000
0000
0100
0000
0010
0000
0000
0001
1000
0000
1000
0000
0000
0000
0110
0000
,
0110
0000
0000
1001
0000
0000
0000
0000
0000
0000
0000
0000
0001
0000
0001
0000
,
0010
0100
1000
0100
0001
0100
1000
0100
,
0010
0001
0001
0000
1001
0000
1000
1000
,
0100
0010
0001
0010
1000
0010
0001
0010
,
0100
1000
1000
0000
1001
0000
0001
0001
,
0010
0100
1000
0100
0001
0001
0010
0100
,
1000
0000
0010
0000
0000
0100
0000
0000
0010
0000
0000
0000
1000
0000
1000
0000
,
0100
0010
0001
0010
1000
1000
0100
0010
,
0001
0010
0100
1100
1001
0000
0010
0001
,
0010
0000
0000
0001
0000
0100
0000
0001
0000
1000
0000
0000
0100
0000
1000
0000
,
0100
0000
0000
1000
0000
0010
0000
1000
0000
0001
0000
0000
0100
0000
0001
0000
,
0100
0000
0000
0001
0000
0010
0000
0001
0000
1000
0000
0000
0010
0000
1000
0000
,
0010
0000
0000
1000
0000
0100
0000
1000
0000
0001
0000
0000
0000
0000
0110
0000
,
0110
0000
0000
2002
0000
0000
0000
0000
3003
0000
0000
0000
0001
0000
0001
0000
,
0010
0000
0100
0000
1000
0000
0010
1000
0000
0000
0010
0000
0010
0000
1000
0000
,
0100
0010
0001
0100
0001
0000
1000
1000
,
0100
0000
0010
0000
0001
0000
0100
0001
0000
0000
0100
0000
0100
0000
0001
0000
,
0010
0100
1000
0010
1000
0000
0001
0100
,
0001
0000
0000
0010
0000
0001
0000
0010
0000
0100
0000
0000
1000
0000
0010
0000
,
1000
0000
0000
0100
0000
1000
0000
0100
0000
0010
0000
0000
0001
0000
0010
0000
,
0001
0000
0000
0100
0000
0001
0000
0100
0000
0010
0000
0000
1000
0000
0100
0000
,
1000
0000
0000
0010
0000
1000
0000
0010
0000
0100
0000
0000
0102
0000
0000
0000
,
0100
0000
0103
0001
0010
0100
2010
0000
,
0010
0010
3010
0012
,
0010
0000
0013
0001
0100
0010
2100
0000
,
0100
0000
0000
0000
3100
0000
1000
0000
0100
0000
0010
0000
0001
0000
0100
0001
,
0000
0100
0000
0010
0000
0100
0000
0010
1000
0000
1000
0000
0010
0000
1000
0010
,
0000
0100
0000
0010
1000
0010
1000
0010
0000
0100
0000
0010
0000
0100
0000
0010
,
1000
0000
0001
0000
0100
0001
0100
0001
0000
0100
0000
0100
0000
0000
0010
0000
,
0010
0000
0000
0000
1000
0100
1000
0100
0000
1000
0000
0001
0000
1000
0000
0001
,
0010
0000
0010
0000
0001
0010
0001
0010
0000
0100
0000
0100
0000
1000
0000
1000
,
0001
0000
0000
0000
1000
0000
1000
0000
0010
0000
0100
0010
0000
0100
0000
0100
,
0000
0001
0100
1000
0100
0010
0001
0001
,
1000
0000
1000
0000
0001
0000
0001
0000
0100
0000
0010
0100
0000
0010
0000
0010
,
0000
1000
0010
0001
0010
0100
1000
0110
,
0110
0000
0000
2002
0000
0000
0000
0000
0000
0000
0000
0000
3003
0000
0000
0000
;

//---------------dance-single - ----------------
#NOTES:
     dance-single:
     :
     Challenge:
     8:
     0.509,0.463,0.207,0.035,0.841:
0000
0000
0000
0000
0000
0000
0000
0000
0000
0000
0000
0000
0001
0010
0001
0010
,
0000
0001
0000
0010
0000
1000
0000
0010
0010
0000
0100
0000
0001
0010
0001
0010
,
0000
0000
0001
0000
0000
0000
0100
0000
0000
0000
1000
0000
0010
0000
1000
0000
0010
0000
0000
0100
0000
0000
0010
0000
0100
0000
0001
0000
0100
0000
0001
0000
,
0000
1000
0000
0100
0000
0001
0000
0100
0010
0000
0100
0100
0000
0000
0011
0000
,
0011
0000
0000
1002
0000
0100
0000
0103
0010
0000
0110
0000
0001
0100
0001
0100
,
0000
0010
0000
1000
0000
0100
0000
0001
0010
0000
0010
0001
1000
0010
1000
0010
,
0000
0100
0000
0100
0000
0010
0000
0000
1100
0000
0000
0000
0010
1000
0010
1000
,
0000
0100
0000
0001
0000
0010
0000
0100
1000
0000
1000
0100
1000
0010
1000
0010
,
0000
0100
0000
0100
0000
0001
0000
0100
0110
0000
0000
0000
1000
0000
1000
0000
,
0100
0000
0010
0100
0000
1000
0000
1000
0000
0001
0010
0001
0010
0000
0001
0000
,
0100
0000
0010
0100
0000
0010
0000
0100
0010
0000
1000
0000
0001
0000
0001
0000
,
0010
0000
0100
0000
0010
0000
0001
1000
0000
0100
1000
0100
1000
0000
0010
0000
,
1000
0100
0010
0001
0000
0010
0101
0000
0101
0010
1000
0100
0010
0000
0001
0010
,
0001
0010
0000
0100
0000
0100
0000
0100
0000
1000
0010
1000
0010
0000
1000
0100
,
1000
0100
0000
0010
0000
0010
0000
0010
0000
0001
0100
0001
0100
0000
0001
0010
,
0001
0010
0000
0100
0000
0100
0000
0100
0000
1000
0010
1000
0010
0000
1000
0100
,
1000
0100
0000
0010
0000
0010
0000
0010
0000
0001
0100
0000
0000
0000
1100
0000
,
1100
0000
0000
1002
0000
0100
0000
0103
0010
0000
0110
0000
1000
0000
1000
0000
,
0100
0000
0010
0000
0100
0000
1000
0100
0000
1000
0010
1000
0010
0000
1000
0000
,
0100
0000
0001
0010
0000
0001
0000
0010
0001
0000
0110
0000
1000
0000
0100
0000
,
0010
0000
0100
0000
1000
0000
0100
0010
0000
0001
0100
0001
0100
0000
0010
0000
,
1000
0100
0010
0001
0000
0010
0001
0000
0100
0001
0010
0001
0010
0000
0001
0010
,
0100
1000
0000
0010
0000
0010
0000
0010
0000
1000
0100
1000
0100
0000
1000
0100
,
0010
0001
0000
0010
0000
0010
0000
0010
0000
0001
0100
0001
0100
0000
0001
0100
,
0010
1000
0000
0100
0000
0100
0000
0100
0000
1000
0010
1000
0010
0000
1000
0010
,
0100
0001
0000
0010
0000
0010
0000
0010
0000
0001
1000
0000
1100
0000
0100
0000
,
0010
0001
0010
0100
1000
0000
0011
0010
,
0100
1000
0100
0010
0001
0000
1010
0010
,
0100
0000
0001
0000
0010
0000
0100
0000
1000
0000
0010
0000
1000
0100
1000
0100
,
1000
0000
1000
0000
0000
0010
0000
0100
0001
0100
0000
0000
0001
0010
0100
1000
,
0000
0010
0000
0010
0000
0010
0000
0100
0001
0000
0001
0100
0001
0010
0100
1000
,
0000
0010
0000
0110
1000
0100
1000
0100
0000
1000
0000
0010
0000
0010
0000
0010
,
0100
0000
0100
0001
0010
0001
0010
0001
0000
0100
0000
0110
0000
1000
0010
0000
,
0110
0000
0000
0000
1000
0010
1000
0010
0000
0100
0000
0100
0000
0100
0000
0001
,
0100
0000
0100
0001
0010
0001
0010
0001
0000
0100
0000
0110
0000
1000
0000
0010
,
0100
0000
0110
0000
0001
0000
0001
0000
0010
0000
0100
1000
0000
0100
0000
1000
,
0000
0010
1000
0010
1000
0000
0100
0000
0010
0000
0001
0100
0001
0010
0001
0010
,
0100
1000
0100
1000
0001
0000
0010
0000
0100
0000
0010
0001
0000
0100
0000
0010
,
0000
1000
0010
1000
0010
0000
0100
0000
0001
0100
0000
0100
0000
0000
1010
0000
,
1010
0000
0000
2002
0000
0000
0000
0000
0000
0000
0000
0000
3003
0000
0000
0000
;

//---------------dance-single - ----------------
#NOTES:
     dance-single:
     :
     Medium:
     4:
     0.214,0.237,0.052,0.052,0.013:
0000
0000
0000
0000
,
0000
0000
0000
0000
,
0000
0000
0000
0000
0000
0000
0001
0100
,
0001
0000
1000
0010
1000
0000
0000
0001
,
1000
0000
0000
1001
0000
0000
0000
0000
0000
0000
0000
0000
0010
0000
0001
0000
,
0010
0000
0001
0000
0010
0000
0100
1000
,
0100
0000
1000
0000
1001
0000
0010
0001
,
0100
0000
0010
0000
1000
0000
0100
1000
,
0010
0100
1001
0010
,
0010
0000
0001
0010
0100
0000
0100
0000
,
0100
0000
1000
0100
0010
0000
0001
0000
,
1000
0000
0001
0010
0100
0000
1000
0000
,
0001
0000
1000
0100
0100
0000
1000
0000
,
0100
0010
0001
0010
,
0100
1000
0010
0100
,
0001
0100
0010
1000
,
0100
0000
0010
0000
0001
0000
0000
1000
,
0001
0000
0000
2002
0000
0000
0000
0000
3003
0000
0000
0000
0100
0000
1000
0000
,
0100
0000
0010
0000
0001
0000
0100
0001
,
0100
0000
0010
0000
0010
0000
1000
0010
,
1000
0000
0010
0000
1000
0000
0100
1000
,
0100
0010
0001
0100
,
0100
0001
0010
1000
,
0100
0001
0010
0010
,
0001
0100
1000
0010
,
0001
0100
0100
0020
,
0000
0000
0000
2030
,
0000
0000
0000
3002
,
0000
0000
0000
0203
,
0000
0000
0000
0310
,
0010
0000
1000
0001
1000
0000
0001
0100
,
0001
0000
0100
0010
1000
0000
0100
0000
,
0010
0000
0001
0100
0010
0000
0100
0010
,
0010
0000
1000
0010
0100
0000
0010
0000
,
1000
0000
0100
1000
0010
0000
0100
0000
,
1001
0000
0010
0001
0100
0000
0010
0100
,
0010
0000
1000
0010
0100
0000
0010
0010
,
0010
0010
1000
0010
1000
0000
0010
0100
,
0010
0000
0100
0001
0010
0000
0000
0001
,
1000
0000
0000
1001
0000
0000
0000
0000
0000
0000
0000
0000
0000
0000
0000
0000
;

//---------------dance-single - ----------------
#NOTES:
     dance-single:
     :
     Beginner:
     1:
     0.057,0.050,0.035,0.000,0.000:
0000
0000
0000
0000
,
0000
0000
0000
0000
,
0000
0000
0000
0001
,
0000
0001
0000
0000
,
0000
0000
0000
1000
,
0000
1000
0000
1000
,
0000
0000
0000
0010
,
0000
0010
0000
0010
,
0000
0000
0000
0100
,
0000
0000
0000
0100
,
0000
0000
0000
0001
,
0000
0000
0000
0001
,
0000
0000
0000
1000
,
0000
0000
0000
0100
,
0000
0000
0000
1000
,
0000
0000
0000
0001
,
0000
0000
0000
0010
,
0000
0000
0000
1001
,
0000
0000
0000
1000
,
0000
0000
0000
0001
,
0000
0000
0000
0100
,
0000
0000
0000
0010
,
0000
0000
0000
0010
,
0000
0000
0000
0010
,
0000
0000
0000
0100
,
0000
0000
0000
1001
,
0000
0000
0000
1000
,
0000
0000
0000
1001
,
0000
0000
0000
0001
,
0000
0000
0000
0100
,
0000
0000
0000
0010
,
0000
0100
0000
0000
,
0000
0100
0000
0000
,
0000
0010
0000
0000
,
0000
0010
0000
0000
,
0000
1000
0000
1000
,
0000
1000
0000
0000
,
0000
0001
0000
0001
,
0000
0001
0000
0000
,
1001
0000
0000
0000
;

//---------------dance-double - ----------------
#NOTES:
     dance-double:
     :
     Easy:
     2:
     0.168,0.151,0.078,0.069,0.000: // measure 1
00000000
00000000
00000000
00000000
,  // measure 2
00000000
00000000
00000000
00000000
,  // measure 3
00000000
00000000
00000000
10000000
,  // measure 4
00010000
10000000
00010000
00000000
,  // measure 5
10010000
00000000
00000000
00000010
,  // measure 6
00000010
00001000
00001000
00000010
,  // measure 7
00000100
00001000
00000000
00010000
,  // measure 8
00010000
00100000
00100000
01000000
,  // measure 9
00100000
00010000
00000000
00000001
,  // measure 10
00000001
00000010
00000010
00000100
,  // measure 11
00001000
00010000
00000000
10000000
,  // measure 12
10000000
01000000
01000000
00100000
,  // measure 13
00010000
00001000
00000000
00000001
,  // measure 14
00000001
00000001
00000001
00001000
,  // measure 15
00001000
00001000
00001000
00010000
,  // measure 16
00010000
00010000
00010000
10000000
,  // measure 17
10000000
10000000
10000000
00000000
,  // measure 18
00000000
00011000
00000000
00000001
,  // measure 19
00000010
00000100
00001000
00010000
,  // measure 20
00100000
01000000
00000000
10000000
,  // measure 21
01000000
00100000
00010000
00001000
,  // measure 22
00000100
00000010
00000000
00000001
,  // measure 23
00000001
00000001
00000001
00001000
,  // measure 24
00001000
00001000
00001000
00010000
,  // measure 25
00010000
00010000
00010000
10000000
,  // measure 26
10000000
10000000
10000000
00022000
,  // measure 27
00000000
00000000
00033000
00000022
,  // measure 28
00000000
00000000
00000033
00022000
,  // measure 29
00000000
00000000
00033000
22000000
,  // measure 30
00000000
00000000
33000000
00100000
,  // measure 31
00010000
00001000
00000100
00000010
,  // measure 32
00000001
00001000
00001000
00000100
,  // measure 33
00000010
00000001
00000001
00001000
,  // measure 34
00000000
00010000
00010000
10000000
,  // measure 35
10000000
00100000
01000000
00010000
,  // measure 36
00000000
00011000
00000001
00000100
,  // measure 37
00000010
00001000
00000001
00001000
,  // measure 38
00000000
00011000
00100000
01000000
,  // measure 39
10000000
00100000
01000000
00010000
,  // measure 40
00011000
00000000
00000000
00000000
;

//---------------dance-double - ----------------
#NOTES:
     dance-double:
     :
     Medium:
     5:
     0.277,0.304,0.233,0.069,0.013: // measure 1
00000000
00000000
00000000
00000000
,  // measure 2
00000000
00000000
00000000
00000000
,  // measure 3
00000000
00000000
00000000
10000000
,  // measure 4
01000000
00000000
00100000
00000000
00010000
00000000
00000000
00010000
,  // measure 5
00001000
00000000
00000000
00001001
00000000
00000000
00000000
00000000
00000000
00000000
00000000
00000000
00000001
00000000
00000000
00000000
,  // measure 6
00000100
00000000
00000010
00000010
00000100
00000000
00000001
00001000
,  // measure 7
00000001
00000010
00000100
00000000
00011000
00000000
00100000
00010000
,  // measure 8
01000000
00000000
00100000
00100000
10000000
00000000
01000000
10000000
,  // measure 9
00100000
01000000
01000000
00000000
00011000
00000000
00000100
00001000
,  // measure 10
00000100
00001000
00000100
00000010
00000001
00000000
00000010
00000001
,  // measure 11
00000010
00000100
00001000
00000000
00011000
00000000
00100000
00010000
,  // measure 12
00100000
00010000
00100000
01000000
10000000
00000000
01000000
10000000
,  // measure 13
01000000
10000000
00100000
01000000
01000000
00000000
10000000
00000000
,  // measure 14
01000000
00100000
00010000
00001000
,  // measure 15
00000100
00000010
00000001
00000010
,  // measure 16
00000100
00001000
00010000
00100000
,  // measure 17
01000000
00000000
10000000
00000000
00010000
00000000
00000000
00100000
,  // measure 18
00001000
00000000
00000000
00011000
00000000
00000000
00000000
00000000
00000000
00000000
00000000
00000000
01000000
00000000
10000000
00000000
,  // measure 19
01000000
10000000
01000000
00100000
00010000
00000000
01000000
00010000
,  // measure 20
01000000
00010000
00100000
00000000
00011000
00000000
00000001
00000100
,  // measure 21
00000001
00000100
00000001
00000010
00000100
00000000
00001000
00000010
,  // measure 22
00001000
00000010
00000100
00000000
00000001
00000010
00000100
00001000
,  // measure 23
00001000
00010000
00010000
00100000
01000000
00000000
10000000
01000000
,  // measure 24
00100000
00010000
00010000
00001000
00001000
00000000
00000001
00000100
,  // measure 25
00000001
00000010
00000100
00001000
00001000
00010000
00010000
00100000
,  // measure 26
01000000
10000000
00010000
10000000
00010000
00000000
22000000
00000000
,  // measure 27
00000000
00000000
33000000
00022000
,  // measure 28
00000000
00000000
00033000
00000022
,  // measure 29
00000000
00000000
00000033
00022000
,  // measure 30
00000000
00000000
00000000
00000000
00033000
00000000
00000100
00000010
,  // measure 31
00000100
00000000
00000001
00001000
00000001
00000000
00001000
00010000
,  // measure 32
00001000
00011000
00110000
10010010
,  // measure 33
00110100
00000000
00011000
00000000
00001100
00000000
00001000
00000001
,  // measure 34
00000001
00001010
00011000
01010000
,  // measure 35
10010000
00011000
00001010
00001001
,  // measure 36
00011000
00000000
01000000
00010000
00100000
00010000
01000000
00100000
,  // measure 37
01000000
00000000
00010000
01000000
00010000
00000000
00110000
00000000
,  // measure 38
00011000
00000000
00001000
00000100
00001000
00000000
00000010
00000000
,  // measure 39
00000100
00000001
00000010
00000100
00001000
00010000
00100000
00001000
,  // measure 40
00001000
00000000
00000000
00011000
00000000
00000000
00000000
00000000
00000000
00000000
00000000
00000000
00000000
00000000
00000000
00000000
;
