#TITLE:サムライ・シンドローム;
#SUBTITLE:;
#ARTIST:新堂敦士;
#TITLETRANSLIT:SAMURAI SYNDROME;
#SUBTITLETRANSLIT:;
#ARTISTTRANSLIT:ATSUSHI SHINDO;
#CREDIT:DMAxel;
#BANNER:SAMURAI SYNDROME.png;
#BACKGROUND:SAMURAI SYNDROME-bg.png;
#LYRICSPATH:SAMURAI SYNDROME.lrc;
#CDTITLE:pop'n music.png;
#MUSIC:SAMURAI SYNDROME.mp3;
#OFFSET:-7.920;
#SAMPLESTART:48.338;
#SAMPLELENGTH:12.000;
#SELECTABLE:YES;
#BPMS:0.000=142.000,64.000=143.000,92.000=142.000,96.000=141.000,164.000=142.000;
#STOPS:;
#BGCHANGES:-16.000=SAMURAI SYNDROME.avi=1.000=1=1=0,
199.000=SAMURAI SYNDROME-bg.png=1.000=1=0=1,
99999=-nosongbg-=1.000=0=0=0 // don't automatically add -songbackground-
;

//---------------dance-single - ----------------
#NOTES:
     dance-single:
     :
     Easy:
     3:
     0.215,0.244,0.072,0.161,0.000:
1000
0100
0010
0001
,
1000
0100
0010
0001
,
0200
0000
0000
0000
,
0320
0000
0230
0000
,
0301
0010
0100
1000
,
0001
0010
0100
1000
,
0020
0000
0000
0000
,
0230
0000
0320
0000
,
1030
0000
1000
0000
,
0001
1000
0001
0000
,
0001
0000
0001
0000
,
0100
0010
0100
0000
,
0100
0000
0010
0000
,
1000
0000
0001
0001
,
1000
0000
0010
0000
,
1000
1000
0001
0000
,
0200
0000
0000
0000
,
0301
0010
0100
1000
,
0020
0000
0000
0000
,
1030
0100
0010
0001
,
2000
0000
0000
0000
,
3010
0100
0001
0010
,
0002
0000
0000
0000
,
1003
0000
0000
0000
,
1001
1000
1001
0000
,
0001
0100
0001
1000
,
1001
0001
1001
0000
,
1000
0010
1000
0001
,
1001
1000
1001
0000
,
0001
0010
0001
1000
,
1001
0001
1001
0000
,
1000
0100
1000
0001
,
0200
0000
0000
0000
,
0310
0100
0010
0000
,
1000
0001
1000
0000
,
0100
0010
0001
1000
,
0020
0000
0000
0000
,
0130
0010
0100
0000
,
0001
1000
0001
0000
,
0010
0001
0100
0010
,
1000
1000
0001
0001
,
1000
0100
0010
0001
,
1000
0100
0010
0001
,
0200
0000
0010
0010
,
0320
0000
2030
0000
,
3001
0010
0100
1000
,
0001
0010
0100
1000
,
0020
0000
0100
0100
,
0230
0000
0302
0000
,
1003
0100
0001
0000
;

//---------------dance-single - ----------------
#NOTES:
     dance-single:
     :
     Medium:
     5:
     0.406,0.356,0.422,0.144,0.009:
0001
0100
0001
0100
0001
0100
0001
0000
,
1000
0010
1000
0010
1000
0010
1000
0000
,
0020
0100
0100
0130
,
0110
0001
0110
1000
,
0001
0010
0001
0010
0001
0010
0001
0000
,
1000
0100
1000
0100
1000
0100
1000
0000
,
0020
0100
0100
0130
,
0110
0001
0110
1000
,
0002
0000
0100
0000
0103
0001
0100
0000
,
0010
1010
1001
0000
,
2000
0000
0010
0000
3010
1000
0010
0000
,
0100
0101
1001
1000
,
0001
0100
0001
0000
1000
0010
1000
0000
,
0010
0100
0010
1000
0001
0000
1001
0000
,
1000
0010
1000
0000
0001
0100
0001
0000
,
0100
0010
0100
0001
1000
0000
1001
0000
,
0010
0000
0000
0100
0000
0000
0020
0000
0000
0000
0000
0000
0000
0000
0000
0000
,
1030
0100
0010
0000
0001
0010
0100
0000
,
1001
1000
0110
0001
,
0100
0001
0010
0100
1000
0000
0001
0000
,
0100
0000
0000
0010
0000
0000
0200
0000
0000
0000
0000
0000
0000
0000
0000
0000
,
0301
0010
0100
0000
1000
0100
0010
0000
,
0001
0010
0100
1000
0001
0100
0010
0000
,
2002
0000
0000
3003
,
1100
1100
0011
0011
,
0100
1000
0100
0010
0000
0001
1000
0000
,
0011
0011
1100
1100
,
0010
0001
0010
0100
0000
1000
0001
0000
,
1010
1010
0101
0101
,
0010
1000
0100
0010
0000
0001
1000
0000
,
0101
0101
1010
1010
,
0100
0001
0010
0100
0000
1000
0001
1000
,
0200
0010
0310
0110
,
0002
1000
1003
1001
,
0201
0001
0001
0301
,
1020
1000
1000
1030
,
0210
0010
0310
0110
,
1002
1000
1003
1001
,
0021
0001
0031
0011
,
1200
1000
1300
1100
,
0010
0001
0100
0000
0010
1000
0100
0000
,
1000
0010
0100
0010
1000
0010
0100
0000
,
0001
0100
0010
0100
0001
0100
0010
0000
,
1001
1000
0110
0001
,
0110
0000
1000
0100
0001
0100
1000
0000
,
0001
0100
0010
0100
0001
0100
0010
0000
,
1000
0010
0100
0010
1000
0010
0100
0000
,
1001
0001
0110
1000
,
0110
0000
0001
0100
1000
0100
0001
0000
,
1000
0010
0100
0010
1000
0001
0000
0000
;

//---------------dance-single - ----------------
#NOTES:
     dance-single:
     :
     Hard:
     8:
     0.492,0.487,0.188,0.063,0.193: // measure 1
1000
0000
0100
0000
1000
0000
0001
0010
0000
0100
0000
1000
0001
0000
0001
0000
,  // measure 2
1000
0000
0100
0000
1000
0000
0001
0010
0000
0100
0000
1000
0001
0000
0001
0000
,  // measure 3
0200
0000
0001
0000
0301
0000
0100
0001
,  // measure 4
1000
0000
1000
0001
0010
0100
1000
0001
,  // measure 5
0001
0000
0010
0000
0001
0000
1000
0100
0000
0010
0000
0001
1000
0000
1000
0000
,  // measure 6
0001
0000
0010
0000
0001
0000
1000
0100
0000
0010
0000
0001
1000
0000
1000
0000
,  // measure 7
0020
0000
1000
0000
1030
0000
0010
1000
,  // measure 8
0001
0000
0000
0000
0001
0000
1000
0000
0100
0000
0010
0000
0001
1000
0001
1000
,  // measure 9
0001
0100
0001
0000
0100
0001
1000
0000
,  // measure 10
0100
1100
0011
0010
,  // measure 11
1001
0000
1100
0000
0100
1000
0001
0000
,  // measure 12
0101
1100
0101
1100
,  // measure 13
0001
0100
0001
1000
0100
0010
0100
0000
,  // measure 14
1000
0100
0001
0000
0100
1000
0001
0000
,  // measure 15
1000
0010
1000
0001
0010
0100
0010
0000
,  // measure 16
0101
1100
0101
1100
,  // measure 17
0100
0000
0000
1000
0000
0000
0001
0000
0000
0000
0100
0000
0010
0000
0100
0000
,  // measure 18
0001
0100
1000
0100
0010
1000
0001
0000
,  // measure 19
0100
0001
1000
0100
0010
0100
1000
0001
,  // measure 20
0100
0001
0010
0100
1000
0000
1001
0000
,  // measure 21
0010
0000
0000
0001
0000
0000
1000
0000
0000
0000
0010
0000
0100
0000
0010
0000
,  // measure 22
1000
0100
0001
0100
0010
0001
1000
0000
,  // measure 23
0010
1000
0001
0010
0100
0010
0001
1000
,  // measure 24
2002
0000
0000
3003
,  // measure 25
1000
0100
0001
0100
1000
0001
0010
0001
,  // measure 26
1000
0100
0001
0100
0000
0010
0001
1000
,  // measure 27
0001
0100
1000
0100
0001
1000
0010
1000
,  // measure 28
0001
0100
1000
0100
0010
1000
0010
0100
,  // measure 29
0001
0100
1000
0100
0001
1000
0010
1000
,  // measure 30
0001
0100
1000
0100
0000
0010
1000
0001
,  // measure 31
1000
0100
0001
0100
1000
0001
0010
0001
,  // measure 32
1000
0100
0001
0100
0010
0001
1000
0100
,  // measure 33
0020
0000
0001
0000
0000
0001
0000
0000
0031
0000
1000
0000
0100
0000
0000
0000
,  // measure 34
1100
0000
0000
0000
0101
0000
0000
0000
1001
0000
0000
0000
1000
0001
1000
0001
,  // measure 35
1000
0010
0100
0010
1000
0100
0001
0000
,  // measure 36
0100
1000
0001
0000
1001
0000
0001
0010
,  // measure 37
0200
0000
1000
0000
0000
1000
0000
0000
1300
0000
0001
0000
0100
0000
0000
0000
,  // measure 38
0101
0000
0000
0000
1100
0000
0000
0000
1001
0000
0000
0000
0001
1000
0001
1000
,  // measure 39
0001
0100
0010
0100
0001
0100
1000
0000
,  // measure 40
0100
0001
1000
0000
0100
1000
0001
0000
,  // measure 41
0100
0001
0100
0001
0100
0000
0010
1000
0000
0010
1000
0000
0001
0000
0001
0000
,  // measure 42
1000
0000
0010
0000
0100
0000
0001
1000
0000
0100
0000
0001
0100
0000
1000
0000
,  // measure 43
0001
0000
0100
0000
0010
0000
1000
0001
0000
0100
0000
1000
0100
0000
0001
0000
,  // measure 44
1000
0010
1000
0001
0010
0001
1000
0100
,  // measure 45
0010
0001
1000
0100
0001
0100
0010
0001
,  // measure 46
1000
0000
0010
0000
0100
0000
0001
1000
0000
0100
0000
0001
0100
0000
1000
0000
,  // measure 47
0001
0000
0100
0000
0010
0000
1000
0001
0000
0100
0000
1000
0100
0000
0001
0000
,  // measure 48
1000
0100
1000
0001
0100
1000
0100
0010
,  // measure 49
1000
0000
0001
0000
0100
0000
1000
0000
0100
0000
0001
0000
0100
0010
0100
0010
,  // measure 50
0100
0000
0001
0000
1000
0000
0100
0001
0000
0100
0000
2000
0000
0000
0000
0000
,  // measure 51
0000
0000
0000
0000
,  // measure 52
0000
0000
0000
3000
;

//---------------dance-single - ----------------
#NOTES:
     dance-single:
     :
     Beginner:
     1:
     0.062,0.088,0.027,0.000,0.000:
1000
0000
0000
0000
,
1000
0000
0000
0000
,
1000
0000
0000
0000
,
0000
0000
0000
0000
,
0001
0000
0000
0000
,
0001
0000
0000
0000
,
0001
0000
0000
0000
,
0000
0000
0000
0000
,
1001
0000
0000
0000
,
0000
0000
0000
0000
,
1000
0000
0000
0000
,
0001
0000
0000
0000
,
1000
0000
0000
0000
,
0000
0000
0000
0000
,
0001
0000
0000
0000
,
1000
0000
0000
0000
,
0001
0000
0000
0000
,
0001
0000
0000
0000
,
1000
0000
0000
0000
,
1000
0000
0000
0000
,
0001
0000
0000
0000
,
0001
0000
0000
0000
,
0100
0000
0000
0000
,
0100
0000
0000
0000
,
0100
0000
0000
0000
,
0010
0000
0000
0000
,
0100
0000
0000
0000
,
0110
0000
0000
0000
,
1000
0000
0000
0000
,
0001
0000
0000
0000
,
1000
0000
0000
0000
,
1001
0000
0000
0000
,
0001
0000
0000
0000
,
0001
0000
0000
0000
,
1000
0000
0000
0000
,
1000
0000
0000
0000
,
1000
0000
0000
0000
,
0001
0000
0000
0000
,
1000
0000
0000
0000
,
0001
0000
0000
0000
,
0000
0000
0000
0000
,
0100
0000
0000
0000
,
0010
0000
0000
0000
,
0100
0000
0000
0000
,
0100
0000
0000
0000
,
0001
0000
0000
0000
,
1000
0000
0000
0000
,
0001
0000
0000
0000
,
0001
0000
0000
0000
,
1000
0000
0000
0000
;
