#TITLE:SA-DA-ME;
#SUBTITLE:;
#ARTIST:good-cool feat. すわひでお;
#TITLETRANSLIT:;
#SUBTITLETRANSLIT:;
#ARTISTTRANSLIT:good-cool feat. Hideo Suwa;
#CREDIT:DMAxel;
#BANNER:SA-DA-ME.png;
#BACKGROUND:SA-DA-ME-bg.png;
#LYRICSPATH:SA-DA-ME.lrc;
#CDTITLE:Pop'n Music.png;
#MUSIC:SA-DA-ME.mp3;
#OFFSET:0.480;
#SAMPLESTART:48.222;
#SAMPLELENGTH:12.000;
#SELECTABLE:YES;
#BPMS:0.000=128.000;
#STOPS:;
#BGCHANGES:0.000=SA-DA-ME.avi=1.000=1=1=0,
200.000=SA-DA-ME-bg.png=1.000=1=0=1,
99999=-nosongbg-=1.000=0=0=0 // don't automatically add -songbackground-
;

//---------------dance-single - ----------------
#NOTES:
     dance-single:
     :
     Easy:
     2:
     0.188,0.274,0.120,0.120,0.000: // measure 1
0000
0000
0000
0000
,  // measure 2
0000
0000
0000
0000
,  // measure 3
0000
0000
0000
0000
,  // measure 4
0000
0000
0000
0000
,  // measure 5
0000
0000
0000
0000
,  // measure 6
0000
0000
0000
0000
,  // measure 7
0001
0000
0000
0000
,  // measure 8
0010
0000
0000
0000
,  // measure 9
0001
0001
1000
1000
,  // measure 10
0100
0100
1000
1000
,  // measure 11
0010
0000
0000
0000
,  // measure 12
0100
0000
0000
0000
,  // measure 13
0010
0000
0000
0000
,  // measure 14
1000
0000
0001
0000
,  // measure 15
1001
0000
0000
0000
,  // measure 16
0100
0000
0000
0000
,  // measure 17
0010
0000
0000
0000
,  // measure 18
0100
0000
0010
0000
,  // measure 19
1001
0000
0000
0000
,  // measure 20
1000
0000
0010
0000
,  // measure 21
0100
0100
0020
0000
,  // measure 22
1030
1000
0002
0000
,  // measure 23
0103
0000
0000
0000
,  // measure 24
0010
0000
1000
0000
,  // measure 25
0001
0001
0100
0100
,  // measure 26
0020
0000
0000
0000
,  // measure 27
1030
0100
1000
1000
,  // measure 28
0010
0100
0001
0001
,  // measure 29
1001
0100
0100
0010
,  // measure 30
1000
1000
0010
0100
,  // measure 31
1001
0100
0010
0010
,  // measure 32
1000
0100
0010
0010
,  // measure 33
1001
0010
0100
0100
,  // measure 34
0001
0010
0100
0100
,  // measure 35
1001
0000
1000
0000
,  // measure 36
0010
0000
1001
0000
,  // measure 37
1001
0010
0100
0001
,  // measure 38
0100
0100
0010
1000
,  // measure 39
0100
1000
0100
1000
,  // measure 40
0010
0100
0001
0010
,  // measure 41
0001
0000
0010
0000
,  // measure 42
1000
0000
0100
0000
,  // measure 43
0001
0001
0010
0010
,  // measure 44
0100
0100
2000
0000
,  // measure 45
3010
0000
0000
0100
,  // measure 46
2002
0000
3003
0010
,  // measure 47
2002
0000
3003
0100
,  // measure 48
2002
0000
3003
0000
,  // measure 49
2002
0000
0000
0000
,  // measure 50
0000
0000
0000
0000
,  // measure 51
3003
0000
0000
0000
;

//---------------dance-single - ----------------
#NOTES:
     dance-single:
     :
     Hard:
     7:
     0.375,0.399,0.200,0.060,0.120:
0000
0000
0000
0000
,
0000
0000
0000
0000
,
0000
0000
0000
0000
,
0000
0000
0000
0000
,
0000
0000
0000
0000
,
0000
0000
0000
0000
,
0100
0000
1000
0000
0001
0000
0000
0100
0000
0000
0020
0000
0000
0000
0000
0000
,
0130
0000
0001
0000
1000
0000
0000
0010
0000
0000
0200
0000
0000
0000
0000
0000
,
0310
1000
0010
0100
0010
0000
1001
0000
,
0100
0001
0100
0010
0100
0000
1001
0000
,
0010
0100
0010
1000
0100
1000
0100
0010
,
0000
0001
0010
0100
1000
0100
1000
0000
,
1000
0001
0010
0100
1000
0010
0100
0010
,
0100
0100
0001
0001
,
1001
0000
0100
0010
0100
0001
0010
0001
,
0000
0010
0100
1000
0010
0100
0001
0000
,
0001
0010
0100
1000
0010
0100
0010
0000
,
0010
0100
1001
1001
,
0010
0100
0000
0010
0000
1000
0100
0010
,
0000
0001
0010
0001
0000
0100
0010
0000
,
1000
0100
1000
0000
1001
0000
0000
0000
,
0010
0000
0001
0000
0010
0000
0000
0000
0001
0100
0000
0000
0010
1000
0000
0000
,
0100
1000
0000
0010
0000
0100
0001
0010
,
0000
0100
1000
0010
0000
0100
0001
0000
,
0011
0101
1010
1100
,
2002
0000
0000
0000
0000
0000
3003
0000
0000
0000
0010
0000
0000
0010
0000
0000
,
1001
0000
0100
0000
0010
1000
0100
0000
,
1000
0010
0100
0010
0100
0000
1001
0000
,
0010
0000
0100
0010
1000
0100
1000
0000
,
0010
0000
0100
0000
0001
0100
0010
0000
,
1001
0000
0010
0100
0001
0010
0010
0000
,
0001
0100
0010
1000
1000
0000
1001
0000
,
1001
0000
0010
0000
0100
0001
0100
0000
,
0010
1000
0100
1000
0010
0100
0010
0000
,
1000
0000
0100
0000
1000
0000
0000
0100
0000
0000
0010
0000
0001
0000
0000
0100
,
0000
0000
0010
0000
1000
0000
0000
0110
0000
0000
0001
0000
1001
0000
0000
0000
,
0010
0000
0001
0000
0100
0000
0000
0010
0000
0000
0010
0000
0000
0000
0000
0000
,
0100
0000
0010
0000
1000
0000
0000
0010
0000
0000
0010
0000
0000
0000
0000
0000
,
0010
0000
0100
0000
0001
0000
0000
0010
0000
0000
0010
0000
0000
0000
0000
0000
,
0010
0000
0001
0000
1000
0000
0000
0100
0000
0000
0100
0000
0000
0000
0000
0000
,
0100
0000
1000
0000
0010
0000
0000
0010
0000
0000
0010
0000
0000
0000
0000
0000
,
0010
0000
0100
0000
0001
0000
0000
0010
0000
0000
0010
0000
0000
0000
0000
0000
,
0001
0010
1000
0010
0001
0010
1000
0100
,
0001
0100
1000
0100
0001
0000
1001
0000
,
1000
0000
0000
0100
0000
0000
1000
0000
0000
0010
0000
0000
0100
0000
0010
0000
,
0100
0000
0000
0001
0000
0000
0010
0000
0000
0001
0000
0000
1000
0000
0001
0000
,
1000
0000
0000
0010
0000
0000
0100
0000
0000
0001
0000
0000
1000
0000
0001
0000
,
0000
1000
0000
0100
0000
0010
0000
0001
0000
0000
0000
0000
0000
0000
0000
0000
,
2002
0000
0000
0000
,
0000
0000
0000
0000
,
3003
0000
0000
0000
;

//---------------dance-single - ----------------
#NOTES:
     dance-single:
     :
     Challenge:
     8:
     0.502,0.549,0.379,0.060,0.264:
0000
0000
0000
0000
,
0000
0000
0000
0000
,
0000
0000
0000
0000
,
0000
0000
0000
0000
,
0000
0000
0000
0000
,
0000
0000
0000
0000
,
1000
0000
0001
0000
1000
0000
0000
0110
0000
0000
0001
0000
0010
0000
0000
0000
,
0001
0000
1000
0000
0001
0000
0000
0110
0000
0000
1000
0000
0100
0000
0010
0000
,
0001
0100
0010
0100
0010
0100
1001
0000
,
1000
0010
0100
0010
0100
0010
1001
0000
,
0001
0010
0001
1000
0100
0010
0001
0001
,
0000
1000
0100
1000
0001
0010
1100
0000
,
0011
0100
1000
0001
0010
0100
1000
0001
,
0010
0001
0100
1000
0010
0001
1010
0000
,
0101
0000
0001
0010
0001
1000
0100
0010
,
0000
0001
1000
0010
1000
0001
1100
0000
,
0011
0100
0001
1000
0100
0010
0001
0100
,
0010
0000
0100
0000
0010
0000
0000
1000
0001
0000
0000
0001
1000
0000
0100
0000
,
1002
1000
0000
0010
0000
0103
0010
0100
,
1001
0010
0100
1000
1001
0100
0010
0001
,
0010
0001
0010
0000
0101
0000
0000
0000
2020
0000
0000
0000
0000
0000
3030
0000
,
0100
1000
0100
0000
1010
0000
0000
0000
1000
0001
1000
0000
0010
0100
0010
0000
,
2001
0001
0000
0100
0000
3010
0100
0010
,
1001
0000
0100
0000
0010
0000
0001
0000
1001
0000
0010
0000
0100
0000
1000
0100
,
1000
0000
0000
1000
0010
0000
0000
0010
0100
0000
0000
0100
0001
0000
0000
0000
,
0010
0001
0000
0100
0010
0000
1100
0000
0000
0000
1010
0000
0000
0110
0000
0000
,
0101
0000
0000
0010
0001
0000
0010
0000
0001
0000
0100
0000
1000
0000
0000
0100
,
1000
0100
1000
0010
0101
0000
1010
0000
,
1001
0000
0000
0010
1000
0000
0010
0000
1000
0000
0100
0000
0001
0000
0000
0100
,
0001
0100
0001
0010
1000
0100
1000
0000
,
1001
0000
0000
0010
1000
0000
0010
0000
0100
0000
0010
0000
1000
0000
0000
0100
,
0001
0010
0001
0100
0011
0000
1100
0000
,
1001
0000
0000
0100
1000
0000
0010
0000
1000
0000
0100
0000
1000
0000
0000
0010
,
0001
0100
0010
0100
0001
0100
1000
0000
,
1000
0000
0100
0000
1000
0010
0000
0101
0000
0000
0010
0000
0001
0100
0000
1010
,
0000
0000
0100
0000
1000
0010
0000
0101
0000
0000
0100
0000
1001
0000
0000
0000
,
1000
0000
0100
0000
1000
0000
0000
0010
0000
0000
0001
0000
0100
0000
0000
0000
,
0001
0000
0010
0000
0001
0000
0000
0100
0000
0000
1000
0000
0000
0010
0000
0000
,
0001
0010
1000
0010
0001
0100
0010
1000
,
0100
0001
0100
1000
0100
0010
0001
0000
,
1001
0000
0100
0000
1000
0100
0000
1000
0000
0000
1001
0000
0000
0000
0010
0000
,
0001
0000
0010
0000
0001
0100
0000
0001
0000
0000
1001
0000
0000
0100
0000
0000
,
1000
0100
0001
0100
1000
0010
0100
0001
,
0010
1000
0010
0001
0100
0010
0100
0000
,
0001
0010
0000
0001
0100
0000
0010
1000
0000
0100
1000
0000
0010
0000
1000
0000
,
0100
1000
0000
0010
1000
0000
0010
0100
0000
0001
0100
0000
0010
0000
1000
0000
,
0010
0100
0000
0001
0010
0000
0001
1000
0000
0100
1000
0000
0010
0000
0100
0000
,
0010
0100
0000
0010
0000
1000
0000
0001
0000
0000
0000
0000
0000
0000
0000
0000
,
2002
0000
0000
0000
,
0000
0000
0000
0000
,
3003
0000
0000
0000
;

//---------------dance-single - ----------------
#NOTES:
     dance-single:
     :
     Medium:
     5:
     0.294,0.374,0.279,0.120,0.005:
0000
0000
0000
0000
,
0000
0000
0000
0000
,
0000
0000
0000
0000
,
0000
0000
0000
0000
,
0000
0000
0000
0000
,
0000
0000
0000
0000
,
1000
0100
1000
0100
,
1000
0010
0100
0010
,
0100
0100
0001
0011
,
0001
0010
0100
1100
,
0010
0000
0100
0000
0010
0100
0010
0000
,
1000
0010
1000
1001
,
1001
0000
0100
0000
0001
1000
0001
0000
,
0100
0010
0100
1001
,
1001
0000
0100
0000
1000
0100
1000
0000
,
0010
0100
0001
1001
,
1001
0000
0001
0000
0010
0001
0100
0000
,
0010
1000
1100
1100
,
0020
0000
0000
0000
,
0230
0000
0302
0000
,
1003
0000
1001
0000
0220
0000
0000
0330
,
0001
0000
1001
0000
0220
0000
0000
0330
,
2000
0000
0000
0000
,
3020
0000
0230
0000
,
0301
0101
1010
1010
,
1001
0000
0000
0000
0000
0000
0000
0000
0000
0000
0010
0000
0000
0010
0000
0000
,
0010
0100
0010
0000
1000
0010
0001
0000
,
0100
0010
0100
0000
0001
0100
1000
0000
,
1001
0000
0001
1000
0001
0000
0100
0000
,
0010
0000
1000
0001
1000
0000
0010
0000
,
1001
0000
0100
0000
0001
0100
1000
0000
,
0010
0000
1000
0010
0001
0000
1001
0000
,
0100
0000
0010
0100
0001
1000
0001
0000
,
0100
0010
1000
0001
1000
0000
0110
0000
,
0001
0010
1001
0100
,
1001
0010
1001
0000
,
0100
0001
0100
0000
0001
0000
1000
0000
,
0010
1000
0010
0000
1000
0000
0001
0000
,
0100
0100
0010
0010
,
1000
0100
0010
0001
,
0100
0000
0010
0000
,
1000
0000
0001
0000
,
0100
0100
0010
0010
,
1000
0100
0011
1100
,
0010
0000
0000
0100
0000
0000
0010
0000
,
1000
0000
0000
0001
0000
0000
0100
0000
,
0010
0000
0000
1000
0000
0000
0100
0000
,
1000
0001
1000
0001
0000
0000
0000
0000
,
2002
0000
0000
0000
,
0000
0000
0000
0000
,
3003
0000
0000
0000
;

//---------------dance-single - ----------------
#NOTES:
     dance-single:
     :
     Beginner:
     1:
     0.093,0.144,0.090,0.000,0.000:
0000
0000
0000
0000
,
0000
0000
0000
0000
,
0000
0000
0000
0000
,
0000
0000
0000
0000
,
0000
0000
0000
0000
,
0000
0000
0000
0000
,
1000
0000
0000
0000
,
1000
0000
0000
0000
,
0010
0000
0000
0000
,
0010
0000
0000
0000
,
0100
0000
0000
0000
,
0001
0000
0000
0000
,
0100
0000
0000
0000
,
0001
0000
0000
0000
,
1000
0000
0000
0000
,
0001
0000
0000
0000
,
1000
0000
0000
0000
,
0010
0000
0100
0000
,
1001
0000
0000
0000
,
0001
0000
0010
0000
,
1001
0000
0000
0000
,
1000
0000
0000
0000
,
1001
0000
0000
0000
,
1000
0000
0100
0000
,
1001
0000
0010
0000
,
0010
0000
0000
0000
,
1001
0000
0000
0001
,
0000
0010
0000
0001
,
0000
1000
0000
0100
,
0000
1000
0000
0001
,
0000
1000
0000
0001
,
0000
1000
0000
0001
,
0000
0001
0000
1000
,
0000
1000
0000
0010
,
0000
0000
0000
0000
,
0000
0000
0000
0000
,
1001
0000
0000
0000
,
1000
0000
0000
0000
,
0010
0000
0010
0000
,
0010
0000
0100
0000
,
0100
0000
0000
0000
,
0001
0000
0000
0000
,
0010
0000
0010
0000
,
0010
0000
0000
0000
,
1001
0000
0000
0000
,
0100
0000
0000
0000
,
1001
0000
0000
0000
,
0010
0000
0000
0000
,
1001
0000
0000
0000
;
