#TITLE:S.E.O.U.L.;
#SUBTITLE:;
#ARTIST:슈퍼주니어 & 소녀시대;
#TITLETRANSLIT:;
#SUBTITLETRANSLIT:;
#ARTISTTRANSLIT:Super Junior & Girls' Generation;
#CREDIT:DMAxel;
#BANNER:S.E.O.U.L..png;
#BACKGROUND:S.E.O.U.L.-bg.png;
#LYRICSPATH:S.E.O.U.L..lrc;
#CDTITLE:Korean Dance music.png;
#MUSIC:S.E.O.U.L..mp3;
#OFFSET:-0.220;
#SAMPLESTART:54.809;
#SAMPLELENGTH:12.000;
#SELECTABLE:YES;
#BPMS:0.000=123.000;
#STOPS:;
#BGCHANGES:-2.250=S.E.O.U.L..avi=1.000=1=1=0,
175.500=S.E.O.U.L.-bg2.png=1.000=1=0=1,
99999=-nosongbg-=1.000=0=0=0 // don't automatically add -songbackground-
;

//---------------dance-single - ----------------
#NOTES:
     dance-single:
     :
     Easy:
     2:
     0.146,0.202,0.229,0.069,0.000:
0000
0000
0000
0000
,
0000
0000
0000
0000
,
0000
0000
0000
0000
,
0000
0000
0000
0000
,
0002
0000
0103
0000
,
2000
0000
3010
0000
,
0002
0000
1003
0000
,
2000
0000
3001
0000
,
1001
0000
0000
0000
,
0010
0000
0000
0000
,
1001
0000
0000
0000
,
0100
0000
0000
0000
,
1000
0000
0000
0000
,
0001
0000
0000
0000
,
1000
0000
0000
0000
,
1000
0000
0000
0000
,
1001
0000
0010
0000
,
0010
0000
0010
0000
,
0100
0000
0100
0000
,
0100
0000
0100
0000
,
0010
0000
0010
0000
,
1000
0000
1000
0000
,
0001
0000
0001
0000
,
0220
0000
0000
0330
,
1001
0000
1000
0000
,
1100
0000
0000
0000
,
1001
0000
0001
0000
,
0011
0000
0000
0000
,
1001
0000
1001
0000
,
0010
0000
0010
0000
,
1001
0000
1001
0000
,
0100
0000
0100
0000
,
1100
0000
0000
0000
,
1000
0000
0000
0000
,
0011
0000
0000
0000
,
0001
0000
0000
0000
,
1001
0000
1001
0000
,
0100
0000
0100
0000
,
1001
0000
1001
0000
,
0010
0000
0010
0000
,
1001
0000
0000
0000
,
0001
0000
0000
0000
,
1000
0000
0000
0000
,
0010
0000
0010
0000
,
0110
0000
0000
0000
;

//---------------dance-single - ----------------
#NOTES:
     dance-single:
     :
     Medium:
     4:
     0.249,0.328,0.252,0.138,0.000:
0000
0000
0000
0000
,
0000
0000
0000
0000
,
0000
0000
0000
0000
,
0000
0000
0000
0000
,
1000
0100
0010
0010
,
0001
0010
1000
0000
,
0001
0010
0100
0100
,
1000
0100
0001
1000
,
1001
0000
0001
0000
,
0010
0000
0010
0000
,
0001
0000
1000
0000
,
0100
0000
0100
0000
,
1000
0000
0001
0000
,
1000
0000
0001
0000
,
1000
0000
1000
0000
,
0001
0000
0001
0000
,
1001
0000
0010
0000
,
0010
0100
0010
0000
,
1001
0000
0100
0000
,
0100
0010
0100
0000
,
1001
0000
0001
0000
,
1000
0000
0001
0000
,
1000
0000
0100
0000
,
0110
0010
0010
0010
,
1001
0000
0000
0100
0001
0000
0001
0000
,
0011
0100
1000
0100
,
1001
0000
0000
0010
1000
0000
1000
0000
,
2200
0000
0000
3300
,
1001
0000
1001
0000
0001
1000
0001
0000
,
0010
0100
1000
1000
,
1001
0000
1001
0000
1000
0001
1000
0000
,
0100
0010
0001
0001
,
0022
0000
0000
0033
,
0200
0000
0000
0300
,
2200
0000
0000
3300
,
0020
0000
0000
0030
,
1001
0000
1001
0000
0001
1000
0001
0000
,
0010
0100
1000
1000
,
1001
0000
1001
0000
1000
0001
1000
0000
,
0100
0010
0001
0001
,
0201
0000
0000
0002
0000
0000
0303
0000
,
0001
0010
0100
0010
,
1020
0000
0000
2000
0000
0000
3030
0000
,
0000
0010
0100
0000
0010
0100
0000
0001
,
1001
0000
0000
0000
;

//---------------dance-single - ----------------
#NOTES:
     dance-single:
     :
     Hard:
     6:
     0.388,0.403,0.332,0.080,0.057:
0000
0000
0000
0000
,
0000
0000
0000
0000
,
0000
0000
0000
0000
,
0000
0000
0000
0000
,
1001
0000
0001
1000
0000
0010
0100
0001
,
0000
0001
0000
1001
0000
0000
1000
0100
,
0001
0000
0100
0000
0100
0010
0100
0002
,
0000
1000
0000
1003
,
1001
0000
1000
0100
0000
0010
0000
0100
,
1000
0000
0000
1000
0000
0000
1000
0000
0000
0000
0001
0000
0010
0000
0100
0000
,
1000
0000
0001
0010
0000
0100
0000
0010
,
0001
0000
0000
0001
0000
0000
0001
0000
0000
0000
1000
0000
0100
0000
0010
0000
,
0001
0000
0000
0001
0000
0000
0001
0000
0100
0000
0000
0000
0000
0000
0010
0000
,
1000
0000
0000
1000
0000
0000
1000
0000
0001
0000
0000
0000
0000
0000
0000
0000
,
0001
0000
0001
1000
0000
0000
1000
0010
,
1000
0000
0000
0000
0001
0000
0100
0000
0010
0000
0000
0010
0000
0000
0010
0000
,
1001
0000
1000
0000
1000
0010
0001
0000
,
0100
0000
0000
0100
0000
0000
0100
0000
0000
0000
0001
0000
1000
0000
0100
0000
,
1000
0000
1000
0000
1000
0100
0001
0000
,
0010
0000
0000
0010
0000
0000
0010
0000
0000
0000
0001
0000
1000
0000
0100
0000
,
1000
0000
0001
1000
0000
0000
0000
0100
,
0100
0000
1000
0001
0000
0010
0000
0010
,
0001
0000
0010
0100
0000
0000
1000
0001
,
1000
0100
1000
0000
0010
0100
0010
0000
,
1001
0000
0000
0000
0000
0000
0010
0000
1000
0000
0000
1000
0000
0000
1000
0000
,
0000
1000
0100
1000
0001
0000
0011
0000
,
1001
0000
0000
0000
0000
0000
0100
0000
0001
0000
0000
0001
0000
0000
0001
0000
,
0000
0001
0010
0001
1000
0000
0000
0000
,
1100
0000
1010
0000
1000
0010
0001
0000
,
0100
0010
0100
0001
0010
0000
1010
0000
,
0011
0000
0101
0000
0001
0100
1000
0000
,
0010
0100
0010
1000
0100
0000
0101
0000
,
1001
0000
0000
0000
0001
0000
0010
0000
0001
0000
0000
0001
0000
0000
1000
0000
,
0000
0010
0100
0010
1000
0000
1000
0000
,
1100
2002
0000
0000
,
3003
0101
0110
0101
,
1100
0000
1010
0000
1000
0010
0001
0000
,
0100
0010
0100
0001
0010
0000
1010
0000
,
0011
0000
0101
0000
0001
0100
1000
0000
,
0010
0100
0010
1000
0100
0000
0101
0000
,
1100
0000
2000
0002
0000
0000
3003
0000
,
0010
0100
0010
1000
0100
0001
0010
0000
,
0011
0000
0002
2000
0000
0000
3003
0000
,
0010
1000
0100
0000
0001
0010
0000
1010
,
1001
0000
0000
0000
;

//---------------dance-single - ----------------
#NOTES:
     dance-single:
     :
     Challenge:
     7:
     0.501,0.479,0.688,0.092,0.097: // measure 1
0000
0000
0000
0000
,  // measure 2
0000
0000
0000
0000
,  // measure 3
0000
0000
0000
0000
,  // measure 4
0000
0000
0000
0000
,  // measure 5
1001
0000
1010
0000
1000
0100
0010
0100
,  // measure 6
0000
1100
0000
1001
0001
0000
0001
0100
,  // measure 7
0010
1000
0010
0000
1000
0100
0010
0002
,  // measure 8
0000
0000
1000
0000
0000
0000
1003
0000
0100
0000
0000
0000
1000
0010
1000
0000
,  // measure 9
1001
0001
0010
0001
0000
0100
0010
0100
,  // measure 10
0001
0000
0000
1001
0000
0000
1001
0000
0000
0000
1000
0000
0100
0000
0010
0000
,  // measure 11
0001
0100
0001
0100
0000
0010
0100
0010
,  // measure 12
1000
0000
0000
1001
0000
0000
1001
0000
0000
0000
0001
0000
1000
0000
0010
0000
,  // measure 13
1010
0000
0000
1010
0000
0000
1000
0000
0001
0000
0000
0000
0010
0000
0100
0000
,  // measure 14
1000
0000
0000
1010
0000
0000
1000
0000
0001
0000
0000
0000
0010
0000
0100
0000
,  // measure 15
1000
0010
1000
0001
0000
0001
1000
0100
,  // measure 16
1000
0000
0000
0000
1000
0000
0010
0000
0100
0000
0000
0001
0000
0000
1000
0000
,  // measure 17
1001
0000
0001
0100
0001
0010
0100
1000
,  // measure 18
0010
0000
0000
0110
0000
0000
0110
0000
0000
0000
0001
0000
0010
0000
0100
0000
,  // measure 19
1000
0100
1000
0010
1000
0100
0010
0001
,  // measure 20
0100
0000
0000
0110
0000
0000
0110
0000
0000
0000
1000
0000
0100
0000
0010
0000
,  // measure 21
0002
0000
0000
0000
1000
0000
1003
0000
0000
0000
0100
0000
0010
0000
1000
0010
,  // measure 22
2000
0000
0001
3001
0000
0010
0100
1000
,  // measure 23
0002
0000
1000
1003
0000
0100
0010
0001
,  // measure 24
1000
0010
0000
0000
0010
0100
0000
0000
0001
0100
0000
0000
0100
0010
0000
0000
,  // measure 25
1001
0000
0000
0000
1000
0000
0001
0000
0100
0000
0000
0100
0000
0000
0101
0000
,  // measure 26
0000
0001
0010
0100
1100
0000
1010
0000
,  // measure 27
1001
0000
0000
0000
0001
0000
1000
0000
0010
0000
0000
0010
0000
0000
1010
0000
,  // measure 28
0000
1000
0100
0010
0011
0000
0000
0000
,  // measure 29
0011
0000
0110
0000
1100
0100
1001
0000
,  // measure 30
1000
0100
0010
0100
1100
0000
1001
0000
,  // measure 31
1100
0000
0110
0000
0011
0010
1001
0000
,  // measure 32
0001
0010
0100
0010
0011
0000
1001
0000
,  // measure 33
1001
0000
0000
0000
1000
0000
0100
0000
0010
0000
0000
0010
0000
0000
0011
0000
,  // measure 34
0000
0000
0010
0000
0100
0000
1000
0000
0100
0000
0000
0001
0000
0000
1000
0000
,  // measure 35
0010
2002
0000
0000
,  // measure 36
3003
1010
0110
1010
,  // measure 37
0101
0000
0110
0000
1010
0010
1001
0000
,  // measure 38
1000
0100
0010
0100
1100
0000
1001
0000
,  // measure 39
1010
0000
0110
0000
0101
0100
1001
0000
,  // measure 40
0001
0010
0100
0010
0011
0000
1001
0000
,  // measure 41
1001
0010
0100
2000
0000
3001
0100
0000
,  // measure 42
0010
0100
0010
1000
0100
0001
0010
0100
,  // measure 43
1001
0000
0010
0002
0000
1003
0010
0100
,  // measure 44
0010
1000
1010
0000
0001
0011
0000
1010
,  // measure 45
1001
0000
0000
0000
;

//---------------dance-single - ----------------
#NOTES:
     dance-single:
     :
     Beginner:
     1:
     0.080,0.151,0.092,0.000,0.000:
0000
0000
0000
0000
,
0000
0000
0000
0000
,
0000
0000
0000
0000
,
0000
0000
0000
0000
,
1000
0000
0000
0000
,
0000
0000
0000
0000
,
1000
0000
0000
0000
,
0000
0000
0000
0000
,
0001
0000
0000
0000
,
0000
0000
0000
0000
,
0001
0000
0000
0000
,
0000
0000
0000
0000
,
0100
0000
0000
0000
,
0001
0000
0000
0000
,
0100
0000
0000
0000
,
0001
0000
0000
0000
,
1001
0000
0000
0000
,
1000
0000
0000
0000
,
1000
0000
0000
0000
,
1000
0000
0000
0000
,
1000
0000
0000
0000
,
0010
0000
0000
0000
,
1000
0000
0000
0000
,
0000
0000
0000
0000
,
1001
0000
1000
0000
,
0000
0000
0000
0000
,
1001
0000
0001
0000
,
0000
0000
0000
0000
,
0100
0000
0100
0000
,
0010
0000
0010
0000
,
0100
0000
0100
0000
,
0010
0000
0010
0000
,
0110
0000
0000
0000
,
0000
0000
0000
0000
,
1001
0000
0000
0000
,
0000
0000
0000
0000
,
0010
0000
0010
0000
,
0100
0000
0100
0000
,
0010
0000
0010
0000
,
0100
0000
0100
0000
,
0110
0000
0000
0000
,
0000
0000
0000
0000
,
1001
0000
0000
0000
,
0001
0000
0000
0000
,
1001
0000
0000
0000
;
