#TITLE:Run To You;
#SUBTITLE:;
#ARTIST:Sota Fujimori feat. Runa;
#TITLETRANSLIT:;
#SUBTITLETRANSLIT:;
#ARTISTTRANSLIT:;
#CREDIT:DMAxel & Ebisu;
#BANNER:Run To You.png;
#BACKGROUND:Run To You-bg.png;
#LYRICSPATH:Run To You.lrc;
#CDTITLE:pop'n music.png;
#MUSIC:Run To You.mp3;
#OFFSET:-7.260;
#SAMPLESTART:75.414;
#SAMPLELENGTH:12.000;
#SELECTABLE:YES;
#BPMS:0.000=140.010;
#STOPS:;
#BGCHANGES:;

//---------------dance-single - DMAxel----------------
#NOTES:
     dance-single:
     DMAxel:
     Easy:
     3:
     0.217,0.233,0.122,0.160,0.000:
2000
0000
0000
0000
,
3002
0000
0000
0000
,
2003
0000
0000
3000
,
0001
0010
0100
1000
,
1001
0000
0001
0000
,
0100
0000
0010
0000
,
1000
0000
0100
0000
,
0010
0000
0001
0000
,
2000
0000
3001
0000
,
0002
0000
1003
0000
,
0020
0000
0130
0000
,
0100
0010
1000
0001
,
0200
0000
0000
0000
,
0301
0010
0110
0000
,
0020
0000
0000
0000
,
1030
0100
0110
0000
,
0200
0000
0000
0000
,
0301
0010
0110
0000
,
0020
0000
0000
0000
,
1030
0100
0010
0001
,
1000
1000
0100
0000
,
0010
0010
0001
0000
,
0100
0100
0010
0000
,
1000
0001
1000
0001
,
0100
0010
0100
0000
,
0000
0010
1000
0001
,
0000
0100
0001
0100
,
0010
1000
0010
0000
,
0110
0000
0100
0000
,
1001
0000
0000
0000
,
0010
0100
0010
1000
,
0001
0000
0001
0000
,
1001
0000
0010
0000
,
0110
0000
0100
0001
,
1000
0000
1000
0000
,
1000
0100
0010
0001
,
2000
0000
0000
0000
,
3002
0000
0000
0000
,
2003
0000
0000
0000
,
3001
0010
0100
1000
,
1001
0000
0010
0000
,
0110
0000
0100
0000
,
0001
1000
0001
0000
,
1000
0001
1000
0010
,
0110
0000
1000
0000
,
1001
0000
0001
0000
,
1000
0010
1000
0000
,
0001
0010
0100
1000
,
0110
0000
0001
0000
,
1001
0000
1000
0001
,
1000
0000
0001
0010
,
0100
1000
0010
0100
,
0110
0000
0010
0000
,
1001
0000
1000
0000
,
0001
0100
0001
0000
,
1000
0100
0010
0001
,
1000
1000
1000
1000
,
0020
0000
0000
0000
,
1030
1000
1000
1000
,
0020
0000
0000
0000
,
0130
0100
0100
0100
,
0002
0000
0000
0000
,
0103
0100
0100
0100
,
0002
0000
0000
0000
,
2003
0000
0000
0000
,
3200
0000
0000
0000
,
0320
0000
0000
0000
,
0032
0000
0000
0000
,
0003
0000
0000
0000
;

//---------------dance-single - DMAxel----------------
#NOTES:
     dance-single:
     DMAxel:
     Hard:
     7:
     0.506,0.490,0.259,0.259,0.061: // measure 1
0002
0100
0000
0103
,  // measure 2
0020
1000
0000
1030
,  // measure 3
0200
0010
0000
0310
,  // measure 4
0001
0100
1000
0110
,  // measure 5
0001
0100
0000
0100
0001
0000
0010
0100
,  // measure 6
1000
0010
0000
0010
1000
0000
0100
0010
,  // measure 7
0001
0100
0000
0100
0010
0000
0100
0001
,  // measure 8
0010
0100
1000
0000
0010
0000
0110
0000
,  // measure 9
1000
0100
0000
0100
1000
0000
0010
0100
,  // measure 10
0001
0010
0000
0010
0001
0000
0100
0010
,  // measure 11
1000
0100
0000
0100
1000
0000
0010
1000
,  // measure 12
0100
0010
0001
0010
0100
1000
0010
0010
,  // measure 13
1000
0001
0100
1000
0100
0001
0100
1000
,  // measure 14
1100
0000
0101
0000
2002
0000
0003
3000
,  // measure 15
0001
1000
0100
0001
0100
1000
0100
0001
,  // measure 16
0101
0000
1100
0000
2002
0000
3000
0003
,  // measure 17
1000
0001
0010
1000
0010
0001
0010
1000
,  // measure 18
1010
0000
0011
0000
2002
0000
0003
3000
,  // measure 19
0001
1000
0100
0001
0100
1000
0100
0001
,  // measure 20
0101
0000
0110
0000
1000
1000
0001
0001
,  // measure 21
1001
0000
0000
0000
1000
0000
0010
0000
0100
0000
0000
0001
0000
0010
0000
0100
,  // measure 22
0000
0000
0000
0000
1000
0000
0100
0000
0010
0000
0000
0001
0000
0100
0000
0010
,  // measure 23
0000
0000
1000
0010
0100
0001
1000
0100
,  // measure 24
1000
1100
0011
0100
,  // measure 25
1001
0000
0000
0000
0001
0000
0010
0000
0100
0000
1000
0001
0000
0100
0000
0110
,  // measure 26
0000
0000
0000
0000
1000
0000
0100
0000
0010
0000
0001
1000
0000
0010
0000
0110
,  // measure 27
0000
0000
0000
0000
0101
0000
0000
0000
0100
0000
0000
0000
1010
0000
0000
0010
,  // measure 28
0000
1000
0100
0010
0001
1000
0010
0100
,  // measure 29
0120
1000
1000
1030
,  // measure 30
1000
0001
0010
0100
1000
0000
1001
0000
,  // measure 31
0100
0001
0010
0000
0100
1000
0001
0010
,  // measure 32
0200
0000
0010
0000
0310
0100
1000
0000
,  // measure 33
0210
0000
0000
0000
0001
0000
0000
0000
0301
0000
0000
1001
0000
0000
0001
0000
,  // measure 34
0000
1000
0100
0010
0001
1000
0001
0000
,  // measure 35
0100
0001
0010
0000
0100
1000
0001
0010
,  // measure 36
0200
0000
0010
0000
0310
0100
1000
0001
,  // measure 37
0200
0001
0000
0301
,  // measure 38
0020
1000
0000
1030
,  // measure 39
0200
0010
0000
0310
,  // measure 40
0001
0010
0100
1000
0001
0010
0100
1000
,  // measure 41
0001
0100
0000
1000
0100
0000
0001
0010
,  // measure 42
0100
0010
0000
0001
1000
0000
0100
0010
,  // measure 43
0001
0100
0000
1000
0100
0000
0001
0010
,  // measure 44
0100
0010
0001
1000
0010
0100
0001
0001
,  // measure 45
1000
0100
0000
0001
0100
0000
1000
0100
,  // measure 46
0010
0100
0000
1000
0001
0000
0010
0100
,  // measure 47
1000
0100
0000
0001
0100
0000
1000
0100
,  // measure 48
0010
0100
1000
0001
0100
0010
1000
1000
,  // measure 49
0001
0020
0000
1030
0020
0000
0031
0010
,  // measure 50
0100
2000
0000
3100
0002
0000
0103
1000
,  // measure 51
0100
0020
0000
0031
0020
0000
1030
0100
,  // measure 52
0010
0100
1000
0001
0100
0010
1000
1000
,  // measure 53
0001
0020
0000
1030
0020
0000
0031
1000
,  // measure 54
0100
0020
0000
0031
0020
0000
1030
0100
,  // measure 55
0010
0200
0000
1300
0200
0000
0301
0100
,  // measure 56
1000
0100
0010
0001
1000
1000
0001
0001
,  // measure 57
1000
0100
0001
0100
1000
0100
0001
0100
,  // measure 58
1100
0101
2001
0001
,  // measure 59
3001
0010
1000
0010
0001
0010
1000
0010
,  // measure 60
0011
1010
1002
1000
,  // measure 61
1003
0010
0001
0010
1000
0010
0001
0010
,  // measure 62
1010
0011
2001
0001
,  // measure 63
3001
0100
1000
0100
0001
0100
1000
0100
,  // measure 64
0001
1000
0001
0000
1000
0100
1000
0000
0001
0000
0001
0000
0100
0000
0100
0000
,  // measure 65
0020
1000
0000
0000
0000
0000
1030
0001
,  // measure 66
0200
0001
0000
0001
0000
0001
0000
0300
,  // measure 67
0020
1000
0000
1000
0000
1000
0000
0000
,  // measure 68
0030
1000
0100
0010
0001
0100
0010
1000
;

//---------------dance-single - Ebisu----------------
#NOTES:
     dance-single:
     Ebisu:
     Challenge:
     8:
     0.542,0.577,0.236,0.677,0.160: // measure 1
0100
0000
0001
0000
0200
0000
0000
0000
0001
0000
0000
0001
0000
0000
0301
0000
,  // measure 2
0010
0000
1000
0000
0020
0000
0000
0000
1000
0000
0000
1000
0000
0000
1030
0000
,  // measure 3
0100
0000
0010
0000
0200
0000
0000
0000
0001
0000
0000
0001
0000
0000
0301
0000
,  // measure 4
0010
0000
0100
0000
0020
0000
0000
0000
1000
0000
0000
1000
0000
0000
1030
0000
,  // measure 5
2001
0000
0000
3002
0000
0000
0010
0000
,  // measure 6
0203
0000
0000
0320
0000
0000
0001
0000
,  // measure 7
0230
0000
0000
2300
0000
0000
0100
0000
,  // measure 8
3002
0000
0000
0203
0000
0000
0310
0000
,  // measure 9
2001
0000
0000
0000
0000
3000
0002
0000
0000
0000
0000
0000
0103
0000
0000
0000
,  // measure 10
0020
0000
0000
2030
0000
0000
0001
0000
,  // measure 11
3002
0000
0000
0203
0000
0000
0010
0000
,  // measure 12
0310
1000
0100
0000
0010
0001
0100
0010
,  // measure 13
0100
0001
0001
1000
1000
0010
0010
0100
,  // measure 14
0200
0302
2003
0001
,  // measure 15
3001
1000
1000
0001
0001
0100
0100
0010
,  // measure 16
0020
2030
3002
1000
,  // measure 17
1003
0001
0001
0100
0100
1000
1000
0100
,  // measure 18
0200
0302
2003
0001
,  // measure 19
3001
1000
1000
0100
0100
0001
0001
0100
,  // measure 20
2100
0000
3002
0000
0103
0010
0100
0001
,  // measure 21
1000
0000
0000
0000
0010
0000
1000
0000
0010
0000
1000
0010
0000
1000
0000
0100
,  // measure 22
0000
0000
0000
0000
0010
0000
0001
0000
0010
0000
0001
0010
0000
0001
0000
0100
,  // measure 23
0000
0000
0000
0000
0010
0000
0000
0000
1010
0000
0000
0000
0100
0000
0000
0101
,  // measure 24
0000
0100
0010
1000
0100
0010
0001
1000
,  // measure 25
0001
0000
0000
0000
0100
0000
0001
0000
0100
0000
0001
1000
0000
0100
0000
1100
,  // measure 26
0000
0000
0000
0000
0010
0000
1000
0000
0010
0000
1000
0001
0000
0010
0000
0011
,  // measure 27
0000
0000
0000
0000
0100
0000
0000
0000
1100
0000
0000
0000
0010
0000
0000
0011
,  // measure 28
0000
0010
0100
0001
0010
0100
1000
0001
,  // measure 29
2000
0000
0000
0000
3200
0000
0000
0000
0302
0000
0000
0100
0000
0000
1003
0000
,  // measure 30
0000
1000
0100
0010
0001
0100
0010
1000
,  // measure 31
0002
0000
0000
0000
0203
0000
0000
0000
2300
0000
0000
0100
0000
0000
3001
0000
,  // measure 32
0000
0001
0010
0100
1000
0010
0100
0001
,  // measure 33
2000
0000
0000
0000
3200
0000
0000
0000
0301
0000
0000
1001
0000
0000
1000
0000
,  // measure 34
0000
1000
0010
0100
0001
1000
0000
0100
,  // measure 35
2000
0000
0000
0000
3000
0000
0001
0000
0200
0000
0000
0001
0300
0000
1001
0000
,  // measure 36
0000
1010
0000
0220
0000
0000
0000
0330
,  // measure 37
0100
0000
1000
0000
0002
0000
0000
0100
0000
0000
0100
0000
0103
0000
0000
0000
,  // measure 38
0100
0000
0001
0000
2000
0000
0000
0010
0000
0000
0010
0000
3010
0000
0000
0000
,  // measure 39
0010
0000
0100
0000
0002
0000
0000
1000
0000
0000
1000
0000
1003
0000
0000
0000
,  // measure 40
0001
1000
0100
0010
0001
0100
1000
0100
,  // measure 41
0202
0000
0303
2020
0000
3030
0010
1000
,  // measure 42
2002
0000
3003
0220
0000
0330
0100
0001
,  // measure 43
0202
0000
0303
0220
0000
0330
0100
0001
,  // measure 44
0022
0000
0033
2200
0000
3300
0100
1000
,  // measure 45
2020
0000
3030
0022
0000
0033
0001
0100
,  // measure 46
0220
0000
0330
2020
0000
3030
1000
0001
,  // measure 47
2002
0000
3003
2200
0000
3300
0100
0001
,  // measure 48
2002
0000
0000
0000
0000
0000
0000
0000
0000
0000
0000
3003
0010
0000
0100
0000
,  // measure 49
0001
0001
0000
1000
0010
0000
1000
0010
,  // measure 50
0100
0001
0000
0001
0000
0100
0010
1000
,  // measure 51
0100
1000
0000
0010
0000
0100
0000
0002
,  // measure 52
0000
0000
1003
0020
0000
0130
0001
0010
,  // measure 53
0100
1000
0000
1000
0001
0000
0100
0010
,  // measure 54
1000
0100
0000
1000
0000
1000
0100
0010
,  // measure 55
0001
0100
0000
0010
0000
1000
0000
0002
,  // measure 56
1000
0000
1000
0000
1003
0100
0010
0001
,  // measure 57
1000
0000
0010
0000
1000
0010
0000
1000
0100
0000
1000
0100
0000
0010
0001
0000
,  // measure 58
0100
0010
1000
0000
2002
0000
0003
0000
,  // measure 59
3001
0000
0010
0000
0001
0010
0000
0001
0100
0000
0001
0100
0000
0010
1000
0000
,  // measure 60
0100
0010
0001
0000
2002
0000
3000
0000
,  // measure 61
1003
0000
0010
0000
0100
0001
0000
0100
0001
0000
1000
0100
0000
1000
0001
0000
,  // measure 62
0010
0100
1000
0000
2002
0000
0003
0000
,  // measure 63
3001
0000
0010
0000
0100
1000
0000
0100
1000
0000
0001
0100
0000
0001
1000
0000
,  // measure 64
0010
0000
0100
0000
0010
0000
1000
0000
0100
0000
0001
0000
0100
0000
1000
0001
,  // measure 65
2000
0000
0000
0000
0000
0000
3001
0100
,  // measure 66
0010
2000
0000
0001
0000
3001
0100
0001
,  // measure 67
1000
0020
0000
0230
0000
0302
0000
0000
,  // measure 68
0000
1003
0100
0010
0001
1000
0100
0020
,  // measure 69
0000
0000
0000
0000
,  // measure 70
0030
0000
0000
0000
;

//---------------dance-single - Ebisu----------------
#NOTES:
     dance-single:
     Ebisu:
     Medium:
     5:
     0.331,0.341,0.053,0.449,0.011:
2000
0000
0000
0000
0000
0000
0000
3000
,
0002
0000
0000
0000
0000
0000
0000
0003
,
0020
0000
0000
0000
0000
0000
0000
0030
,
0200
0000
0000
0000
0000
0000
0000
0300
,
2000
0000
0000
0001
0000
0000
0001
3000
,
0002
0000
0000
0010
0000
0000
0010
0003
,
0020
0000
0000
0100
0000
0000
0100
0030
,
0200
0000
0000
1000
0000
0000
1000
0300
,
2000
0000
0000
0010
0000
0000
0001
3000
,
0200
0000
0000
1000
0000
0000
0010
0300
,
0002
0000
0000
0100
0000
0000
1000
0003
,
0020
0000
0000
0001
0000
0000
0100
0030
,
2000
0000
0000
0100
0000
0000
0010
3000
,
0200
0000
0000
0001
0000
0000
0010
0300
,
0002
0000
0000
0100
0000
0000
1000
0003
,
2000
0000
0000
0100
0000
0000
3001
0000
,
0002
0000
0000
0100
0000
0000
0013
0000
,
0200
0000
0000
1000
0000
0000
0010
0300
,
0002
0000
0000
1000
0000
0000
0100
0003
,
2000
0000
0000
0000
3001
1000
0001
1000
,
0001
0000
1000
0000
0100
0001
0100
0000
,
1000
0000
0001
0000
0100
1000
0100
0000
,
0001
1000
0010
0100
,
0001
0000
0010
0100
0010
0000
0001
0000
,
0100
0000
0000
0000
0010
0000
0000
0000
1000
0000
0000
0000
0001
0000
0000
1000
,
0000
0000
0000
0000
1000
0000
0000
0000
0010
0000
0000
0000
1000
0000
0000
0001
,
0000
1000
0001
1000
,
0100
1000
0100
0000
0010
0001
0010
0000
,
0001
0001
1000
0010
,
0100
0010
0100
0010
0100
0010
0100
0010
,
0100
0001
0001
1000
,
0010
0100
0010
0100
0010
0100
0010
0100
,
0010
0000
0000
0000
1000
0000
0000
0000
0001
0000
0000
0100
0000
0000
0000
0000
,
0001
1000
0010
1000
,
0002
0000
0000
0003
2000
0000
0000
3010
,
0000
0100
0000
0002
0000
0000
0000
0000
,
0103
0000
0010
0000
,
0100
0000
0010
0000
,
0100
0010
0100
0010
,
1000
0001
1000
0000
1000
0000
0001
1000
,
0002
0000
0000
2003
0000
3000
0100
0000
,
0002
0000
0000
0203
0000
0000
1300
0000
,
2000
0000
0000
3002
0000
0000
0013
0000
,
2000
0000
0000
3020
0000
0000
0031
0000
,
0002
0000
0000
2003
0000
0000
3010
0000
,
0002
0000
0000
0023
0000
0000
1030
0000
,
2000
0000
0000
3002
0000
0000
0103
0000
,
2000
0000
0000
3200
0000
0000
0301
0000
,
1002
0000
0000
1000
0000
0000
1003
0000
,
1020
0000
0000
1000
0000
0000
1030
0000
,
0120
0000
0000
0100
0000
0000
0130
0000
,
0102
0000
0000
0100
0000
0000
0103
0000
,
1020
0000
0000
0100
0000
0000
0130
0000
,
1002
0000
0000
0100
0000
0000
0103
0000
,
2001
0000
0000
0010
0000
0000
3010
0000
,
0010
0100
0010
0000
0100
0010
0100
0000
,
1000
1000
1000
0000
0001
0001
0001
0000
,
0200
0000
2300
0000
3200
0000
0000
0300
,
0001
0001
0001
0000
1000
1000
1000
0000
,
0200
0000
0302
0000
0203
0000
0000
0300
,
1000
1000
1000
0000
0100
0100
0100
0000
,
0020
0000
0032
0000
2003
0000
0000
3000
,
0001
0001
0001
0000
0010
0010
0010
0000
,
0001
0000
1000
0000
0010
0100
0010
0100
,
0020
0000
0000
0030
,
2000
0000
0000
3000
,
0002
0000
0000
0003
,
0000
0000
0100
0010
0000
1000
0000
0020
,
0000
0000
0000
0000
,
0030
0000
0000
0000
;

//---------------dance-single - DMAxel----------------
#NOTES:
     dance-single:
     DMAxel:
     Beginner:
     1:
     0.055,0.097,0.023,0.000,0.000:
0000
0000
0000
0000
,
0000
0000
0000
0000
,
0000
0000
0000
0000
,
0000
0000
0000
0000
,
1000
0000
0000
0000
,
1000
0000
0000
0000
,
1000
0000
0000
0000
,
0000
0000
0000
0000
,
0001
0000
0000
0000
,
0001
0000
0000
0000
,
0001
0000
0000
0000
,
0000
0000
0000
0000
,
0100
0000
0000
0000
,
0000
0000
0000
0000
,
0100
0000
0000
0000
,
0000
0000
0000
0000
,
0010
0000
0000
0000
,
0000
0000
0000
0000
,
0010
0000
0000
0000
,
0000
0000
0000
0000
,
1000
0000
0000
0000
,
0001
0000
0000
0000
,
1000
0000
0000
0000
,
0001
0000
0000
0000
,
1000
0000
0000
0000
,
0000
0000
0000
0000
,
0000
0000
0000
0000
,
0001
0000
0000
0000
,
1001
0000
0000
0000
,
0000
0000
0000
0000
,
0100
0000
0000
0000
,
0100
0000
0000
0000
,
0100
0000
0000
0000
,
0100
0000
0000
0000
,
0010
0000
0000
0000
,
0010
0000
0000
0000
,
0100
0000
0000
0000
,
0000
0000
0000
0000
,
0000
0000
0000
0000
,
0000
0000
0000
0000
,
1001
0000
0000
0000
,
0001
0000
0000
0000
,
1000
0000
0000
0000
,
0001
0000
0000
0000
,
1000
0000
0000
0000
,
0001
0000
0000
0000
,
0100
0000
0000
0000
,
0010
0000
0000
0000
,
0100
0000
0000
0000
,
0100
0000
0000
0000
,
0100
0000
0000
0000
,
0000
0000
0000
0000
,
0010
0000
0000
0000
,
0010
0000
0000
0000
,
0010
0000
0000
0000
,
1000
0000
0000
0000
,
1001
0000
0000
0000
,
0001
0000
0000
0000
,
1000
0000
0000
0000
,
0001
0000
0000
0000
,
0001
0000
0000
0000
,
1000
0000
0000
0000
,
1000
0000
0000
0000
,
0010
0000
0000
0000
,
0010
0000
0000
0000
;
