#TITLE:Ristaccia;
#SUBTITLE:;
#ARTIST:Zektbach;
#TITLETRANSLIT:;
#SUBTITLETRANSLIT:;
#ARTISTTRANSLIT:;
#CREDIT:DMAxel;
#BANNER:Ristaccia.png;
#BACKGROUND:Ristaccia-bg.png;
#LYRICSPATH:Ristaccia.lrc;
#CDTITLE:beatmaniaIIDX.png;
#MUSIC:Ristaccia.mp3;
#OFFSET:-0.420;
#SAMPLESTART:40.860;
#SAMPLELENGTH:12.000;
#SELECTABLE:YES;
#BPMS:0.000=160.000;
#STOPS:;
#BGCHANGES:-4.250=Ristaccia.avi=1.000=1=0=1,
99999=-nosongbg-=1.000=0=0=0 // don't automatically add -songbackground-
;

//---------------dance-single - ----------------
#NOTES:
     dance-single:
     :
     Hard:
     7:
     0.446,0.521,0.443,0.214,0.144:
0000
0000
0000
0000
,
0000
0000
0000
0000
,
0000
0000
0000
0000
,
0000
0000
0000
0000
,
0000
0000
0000
0000
,
0000
0000
0000
0000
,
0000
0000
0000
0000
,
0000
0000
0000
0000
,
0000
0000
0000
0000
,
1000
0000
0001
0000
0100
0001
0100
0000
,
0001
0000
1000
0000
0010
1000
0010
0000
,
1100
1100
0011
0011
,
2002
0000
0000
3003
,
0011
0011
1100
1100
,
2002
0000
0000
0000
3003
0000
0010
0100
,
0002
0000
0000
0000
0103
0000
0100
0010
,
2000
0010
3010
1010
,
1001
0000
1001
0000
0010
0100
0010
0100
,
0010
0000
1000
0100
1000
0000
0001
0010
,
0001
0000
0100
0010
0100
0010
0100
0000
,
0001
0001
1000
1000
,
1001
0000
0000
0000
1000
0010
0100
0001
,
0101
0101
1010
1010
,
1002
0000
0010
0003
,
0101
0000
0100
0000
,
2001
0000
0100
3000
,
1010
0000
0000
0000
0010
1000
0001
0000
,
1001
0000
0001
0000
,
0001
0100
0010
1000
,
0010
0010
0100
0100
,
0002
0000
0000
1000
1003
0000
0000
0000
,
1001
0000
1000
0000
0001
0100
0001
0100
,
0010
1000
0010
1000
0100
0000
0100
0000
,
1001
0000
0001
0000
1000
0010
1000
0010
,
0200
0000
0301
0001
,
0001
1000
0000
1000
0010
1000
0000
0001
,
0010
0001
0000
1000
0001
1000
0000
0010
,
0100
0001
0100
0010
0100
0001
0100
1000
,
0010
0100
0010
1000
0010
0100
0010
0000
,
1001
1000
1010
1000
,
0110
0110
0110
1001
,
0101
0000
0010
1000
0000
1000
0010
0000
,
0010
0100
0010
0000
0100
0001
1000
0000
,
1010
0000
0100
0001
0000
0001
0100
0000
,
0100
0010
0100
0000
0010
1000
0001
0000
,
0011
0000
0100
1000
0000
1000
0100
0000
,
0010
0100
0010
0000
0100
0001
1000
0000
,
1100
0000
0010
0001
0000
0001
0010
0000
,
0100
0010
0100
0000
0010
1000
0001
0000
,
2002
0000
0000
0000
,
3003
0000
0011
0000
0000
0010
0000
0000
,
2002
0000
0000
0000
,
3003
0000
1100
0000
0000
0100
0000
0000
,
2002
0000
0000
0000
,
3003
0000
0101
0000
0000
0100
0000
0000
,
2002
0000
0000
0000
,
3003
0000
1010
0000
0000
0010
0000
0000
,
1001
1000
0001
0001
,
0010
0100
1000
0001
,
1000
1000
0001
0001
,
0010
0100
1000
0001
,
1000
0010
1000
0000
0001
0100
0001
0000
,
1000
0010
0100
0001
,
1000
0100
1000
0000
0001
0010
0001
0000
,
1000
0010
0100
0001
,
1002
0000
0010
0003
,
0101
0000
0101
0000
,
2001
0000
0100
3000
,
1010
0000
1010
0000
,
1002
0000
0023
0000
,
0230
0000
0000
0000
0000
0000
1300
0000
1000
0001
0000
0001
,
2000
0000
3200
0000
,
0320
0000
0000
0000
0000
0000
0031
0000
0001
1000
0000
1000
,
0001
0000
0000
0100
0001
0100
0001
0000
0000
0001
0000
0000
,
1001
0000
0000
0010
1000
0010
1000
0000
0000
1000
0000
0000
,
1001
0000
0000
0001
0000
0001
0100
0000
0001
0100
0000
0010
,
1000
0000
1000
0010
0000
0010
0100
0000
0100
0010
0000
0000
,
1001
0000
0000
0100
1000
0100
1000
0000
0000
1000
0000
0000
,
1001
0000
0000
0010
0001
0010
0001
0000
0000
0001
0000
0000
,
1001
0000
0000
1000
0000
1000
0010
0000
1000
0010
0000
0100
,
0001
0000
0001
0100
0000
0100
0010
0000
0010
0100
0000
0000
,
0001
0000
0001
0000
0100
0010
1000
0000
0000
1001
0000
0000
,
1000
0000
1000
0000
0010
0100
0001
0000
0000
1001
0000
0000
,
0001
0000
0001
0000
0010
0100
1000
0000
0000
1001
0000
0000
,
1000
0000
1000
0000
0100
0010
0001
0000
0001
0100
0001
2000
,
0000
3000
0000
2002
,
0000
0000
0000
0000
,
0000
0000
0000
0000
,
0000
3003
0000
0000
;

//---------------dance-single - ----------------
#NOTES:
     dance-single:
     :
     Challenge:
     9:
     0.591,0.749,0.436,0.148,0.354: // measure 1
0000
0000
0000
0000
,  // measure 2
0000
0000
0000
0000
,  // measure 3
0000
0000
0000
0000
,  // measure 4
0000
0000
0000
0000
,  // measure 5
0000
0000
0000
0000
,  // measure 6
0000
0000
0000
0000
,  // measure 7
0000
0000
0000
0000
,  // measure 8
0000
0000
0000
0000
,  // measure 9
0000
0000
0000
0000
,  // measure 10
1000
0001
1000
0000
1000
0100
0001
0000
,  // measure 11
0001
1000
0001
0000
0001
0010
1000
0000
,  // measure 12
1100
1100
0101
0101
,  // measure 13
0001
1000
0010
0000
0110
0000
0000
0000
,  // measure 14
1000
1000
0010
0010
0110
0000
1001
0000
,  // measure 15
0001
0100
0010
0000
0110
0000
1000
0001
,  // measure 16
0020
0000
0000
0000
0031
0000
0001
0100
,  // measure 17
0010
1010
1010
0101
,  // measure 18
0101
0000
0001
0100
0010
1000
0010
0100
,  // measure 19
0001
0000
1000
0010
0100
0001
0100
0010
,  // measure 20
1000
0000
0100
0010
0001
0100
0010
1000
,  // measure 21
0001
0000
0010
0100
1000
0010
0100
0001
,  // measure 22
1001
0000
0000
0000
0001
0001
1000
0100
,  // measure 23
1100
1100
0101
0101
,  // measure 24
1002
0000
0013
1010
,  // measure 25
1001
0000
1000
0010
0100
0000
0000
0000
,  // measure 26
2001
0000
3100
0101
,  // measure 27
1001
0000
0001
0100
0010
1000
0001
1000
,  // measure 28
2200
3300
2002
3003
,  // measure 29
0001
0100
0001
0000
0001
0010
0100
1000
,  // measure 30
0010
0100
0010
1000
0001
0000
1000
0010
,  // measure 31
1000
0000
0010
0100
0001
1000
0001
0000
,  // measure 32
1001
0000
0101
0000
0100
0001
1000
0001
,  // measure 33
0010
0100
1000
0100
0001
0100
1000
0000
,  // measure 34
0010
1000
0001
1000
0100
0010
0001
0010
,  // measure 35
1000
0010
0001
0000
0100
0001
1000
0000
,  // measure 36
1001
1000
0010
0000
0010
0100
0010
1000
,  // measure 37
0001
0100
0010
0000
0010
0100
0010
0000
,  // measure 38
1001
0000
1100
0000
0100
0001
0010
0100
,  // measure 39
1000
0010
1000
0001
0010
0001
0100
0000
,  // measure 40
1001
0100
0101
0100
,  // measure 41
1100
1100
0101
0101
,  // measure 42
1001
0001
0100
0010
1000
0001
0010
1000
,  // measure 43
0010
0001
0100
0000
0010
1000
0100
0000
,  // measure 44
1001
1000
0010
0100
0001
1000
0100
0001
,  // measure 45
0100
1000
0010
0000
0100
0001
0010
0000
,  // measure 46
1001
0001
0100
0010
1000
0001
0010
1000
,  // measure 47
0010
0001
0100
0000
0010
1000
0100
0000
,  // measure 48
1001
1000
0010
0100
0001
1000
0100
0001
,  // measure 49
0100
1000
0001
1000
0001
0100
0010
1000
,  // measure 50
1002
0000
0000
1000
2000
0000
0000
0000
,  // measure 51
3003
0000
0011
0000
0000
1010
0000
0000
,  // measure 52
2001
0000
0000
0001
0002
0000
0000
0000
,  // measure 53
3003
0000
1100
0000
0000
0101
0000
0000
,  // measure 54
1002
0000
0000
1000
2000
0000
0000
0000
,  // measure 55
3003
0000
0011
0000
0000
1010
0000
0000
,  // measure 56
2001
0000
0000
0001
0002
0000
0000
0000
,  // measure 57
3003
0000
1010
0000
0000
0110
0000
0000
,  // measure 58
1001
0001
0100
0000
0100
0001
1000
0001
,  // measure 59
0010
0001
0010
0001
0100
0010
1000
0000
,  // measure 60
0001
1000
0010
0000
0010
1000
0001
1000
,  // measure 61
0100
1000
0100
1000
0010
0100
0001
0000
,  // measure 62
1000
0001
0010
0000
0010
0001
1000
0001
,  // measure 63
0010
0001
0010
0001
0100
0010
1000
0000
,  // measure 64
0001
1000
0100
0000
0100
1000
0001
1000
,  // measure 65
0100
1000
0100
1000
0010
0100
0001
0000
,  // measure 66
1002
0000
0013
0000
,  // measure 67
0011
0000
0101
0000
,  // measure 68
2001
0000
0000
0000
0000
0000
3100
0000
0000
0000
0000
1000
,  // measure 69
0100
0000
0000
0000
0000
0000
0101
0000
0000
0100
0000
0100
,  // measure 70
0001
0000
0000
0001
1000
0001
1000
0000
0000
1000
0010
1000
,  // measure 71
0010
0000
0000
0100
0001
0100
0001
0010
0100
1000
0001
1000
,  // measure 72
0001
0000
0000
0001
0100
0001
0100
0000
0000
0010
1000
0010
,  // measure 73
1000
0010
0100
0001
1000
0001
1000
0100
1000
0100
0010
0100
,  // measure 74
1000
0000
1000
0001
0000
0001
1000
0010
1000
0010
1000
0010
,  // measure 75
1000
0000
0001
1000
0000
1000
0001
0100
0001
0100
0001
0100
,  // measure 76
0001
0000
1000
0001
0000
0001
0100
0000
0100
0010
0000
1000
,  // measure 77
0100
0000
1000
0100
0000
1000
0001
0100
0001
0100
0001
0100
,  // measure 78
0001
0000
1000
0001
0000
0001
1000
0100
1000
0100
1000
0100
,  // measure 79
1000
0000
0001
1000
0000
1000
0001
0010
0001
0010
0001
0010
,  // measure 80
0001
0000
1000
0001
0000
0001
0100
0000
0100
0010
0000
1000
,  // measure 81
0100
0000
1000
0100
0000
1000
0001
0100
0001
0100
0001
0100
,  // measure 82
0001
0010
0100
0010
0001
0010
0100
1000
0001
1000
0000
0000
,  // measure 83
0001
0010
0100
0010
0001
0010
0100
1000
0001
1000
0001
1000
,  // measure 84
0001
1000
0100
0010
0100
1000
0010
0100
0001
1000
0000
0000
,  // measure 85
0100
0010
0001
0010
0100
1000
0010
0100
0001
0010
0100
2000
,  // measure 86
0000
3000
0000
2002
,  // measure 87
0000
0000
0000
0000
,  // measure 88
0000
0000
0000
0000
,  // measure 89
0000
3003
0000
0000
;

//---------------dance-single - ----------------
#NOTES:
     dance-single:
     :
     Medium:
     5:
     0.345,0.456,0.480,0.118,0.000:
0000
0000
0000
0000
,
0000
0000
0000
0000
,
0000
0000
0000
0000
,
0000
0000
0000
0000
,
0000
0000
0000
0000
,
0000
0000
0000
0000
,
0000
0000
0000
0000
,
0000
0000
0000
0000
,
0000
0000
0000
0000
,
1000
0000
1000
0000
,
0001
0000
0001
0000
,
0110
0110
0110
1001
,
0000
1000
0000
0000
,
0110
0110
0110
1001
,
0000
0000
0001
0000
0000
0000
0001
1000
,
0002
0000
1003
1000
,
0100
0010
0001
0010
,
0100
0000
1000
0001
1000
0000
0001
1000
,
0001
0010
0100
1000
,
0001
0010
0100
0010
,
0001
0100
0010
1000
,
1001
0000
1001
0000
,
0110
0110
0110
0110
,
1001
0000
0100
0000
,
1001
0000
0010
0000
,
1001
0000
0100
0000
,
1001
0000
0110
0000
,
1002
0000
1000
0000
,
0103
0010
0100
0000
,
0001
1000
0001
1000
,
0001
0000
0001
0000
,
1001
0000
1000
0000
1000
0100
1000
0000
,
0001
1000
0001
0000
0010
0001
0010
0000
,
0001
0100
0010
1000
,
0010
0100
0010
0000
1001
0000
0001
0000
,
1001
0000
0001
0100
0001
0000
1000
0001
,
1000
0000
0010
1000
0010
0000
1000
0000
,
0010
0000
0100
0000
0001
0000
1000
0001
,
1000
0000
0010
0100
0010
0000
1000
0000
,
1001
0000
1001
0000
,
0110
0110
0110
1001
,
1000
0000
0001
0100
0000
0001
0100
0000
,
0001
0100
0001
0000
1000
0000
0001
0000
,
0001
0000
1000
0010
0000
1000
0010
0000
,
1000
0010
1000
0000
0001
0000
1000
0000
,
1000
0000
0100
1000
0000
0100
1000
0000
,
0100
1000
0100
0000
1000
0000
0001
0000
,
0001
0000
0010
0001
0000
0010
0001
0000
,
0010
0001
0010
0000
0001
0000
1000
0000
,
2002
0000
0000
0000
,
0000
3003
0000
0000
,
0220
0000
0000
0000
,
0000
0330
0000
0000
,
0202
0000
0000
0000
,
0000
0303
0000
0000
,
2020
0000
0000
0000
,
0000
3030
0000
0000
,
0001
0010
0100
1000
,
0100
0010
0001
0010
,
0100
1000
0100
0010
,
0001
1000
0100
0010
,
0001
0010
0100
1000
,
0100
0010
0001
1000
,
0100
0010
0001
0010
,
0100
1000
0100
0010
,
2002
0000
0000
3003
,
0011
0000
0011
0000
,
2002
0000
0000
3003
,
1100
0000
1100
0000
,
1001
0000
0001
0000
,
0001
0000
1000
0000
,
1001
0000
1000
0000
,
1000
0000
1100
0000
,
1001
0001
0011
0000
,
1001
1000
1100
0000
,
1001
0001
0100
0100
,
0010
0010
0110
0000
,
1001
1000
1010
0000
,
1001
0001
0101
0000
,
1001
1000
0010
0010
,
0100
0100
0010
0010
,
1100
1000
0011
0001
,
0101
0101
0101
0000
,
0011
0001
1100
1000
,
1010
1010
1010
1001
,
0000
0000
0000
2002
,
0000
0000
0000
0000
,
0000
0000
0000
0000
,
0000
3003
0000
0000
;

//---------------dance-single - ----------------
#NOTES:
     dance-single:
     :
     Easy:
     2:
     0.166,0.261,0.177,0.140,0.000:
0000
0000
0000
0000
,
0000
0000
0000
0000
,
0000
0000
0000
0000
,
0000
0000
0000
0000
,
0000
0000
0000
0000
,
0000
0000
0000
0000
,
0000
0000
0000
0000
,
0000
0000
0000
0000
,
0000
0000
0000
0000
,
0002
0000
0000
0000
,
2003
0000
0000
3000
,
2020
0000
0000
0000
,
3030
0000
0000
0000
,
0202
0000
0000
0000
,
0303
0000
0000
0000
,
1001
0000
0001
0000
,
0001
0000
0010
0000
,
0010
0000
0100
0000
,
0100
0000
1000
0000
,
1000
0000
0010
0000
,
0010
0000
0100
0000
,
0110
0000
0110
0000
,
2002
0000
0000
3003
,
2000
0000
0000
0000
,
3001
0000
0000
0000
,
0002
0000
0000
0000
,
1003
0000
0000
0000
,
2200
0000
0000
0000
,
0000
0000
0000
3300
,
0022
0000
0000
0000
,
0000
0000
0000
0033
,
1001
0000
0001
0000
,
0001
0000
0001
0000
,
1000
0001
1000
0000
,
1000
0000
1000
0000
,
0110
0000
0100
0000
,
0001
1000
0001
0000
,
0110
0000
0010
0000
,
1000
0001
1000
0000
,
1001
0000
0001
0000
,
0022
0000
0000
0033
,
1000
0000
0000
1000
0000
0000
1000
0000
,
0000
0000
0000
0000
,
0001
0000
0000
0001
0000
0000
0001
0000
,
0000
0000
0000
0000
,
1000
0000
0000
1000
0000
0000
1000
0000
,
0000
0000
0000
0000
,
0001
0000
0000
0001
0000
0000
0001
0000
,
0000
0000
0000
0000
,
1001
0000
0000
0000
,
0000
0000
0010
0000
0000
0010
0000
0000
,
1001
0000
0000
0000
,
0000
0000
0100
0000
0000
0100
0000
0000
,
1001
0000
0000
0000
,
0000
0000
0010
0000
0000
0010
0000
0000
,
1001
0000
0000
0000
,
0000
0000
0100
0000
0000
0100
0000
0000
,
1001
0000
0100
0000
,
0010
0000
0001
0000
,
1000
0000
0001
0000
,
1000
0000
0001
0000
,
0010
0000
0100
0000
,
1000
0000
0100
0000
,
0010
0000
0001
0000
,
1000
0000
0001
0000
,
1001
0000
0000
0000
,
0000
0000
0000
0000
,
0110
0000
0000
0000
,
0000
0000
0000
0000
,
1001
0000
0001
0000
,
0001
0000
1000
0000
,
0001
0000
0001
0000
,
1000
0000
0010
0000
,
0010
0000
0000
0000
,
0100
0000
0000
0000
,
0010
0000
0010
0000
,
0010
0000
0000
0000
,
1000
0000
0000
0000
,
0001
0000
0000
0000
,
0100
0000
0100
0000
,
0100
0000
0000
0000
,
0110
0000
0000
0000
,
0001
0000
0000
0000
,
1001
0000
1000
0000
,
1000
0000
0020
0000
,
0030
0000
0000
2002
,
0000
0000
0000
0000
,
0000
0000
0000
0000
,
0000
3003
0000
0000
;

//---------------dance-single - ----------------
#NOTES:
     dance-single:
     :
     Beginner:
     1:
     0.058,0.095,0.074,0.000,0.000:
0000
0000
0000
0000
,
0000
0000
0000
0000
,
0000
0000
0000
0000
,
0000
0000
0000
0000
,
0000
0000
0000
0000
,
0000
0000
0000
0000
,
0000
0000
0000
0000
,
0000
0000
0000
0000
,
0000
0000
0000
0000
,
0001
0000
0000
0000
,
0000
0000
0000
0000
,
1001
0000
0000
0000
,
0000
0000
0000
0000
,
1001
0000
0000
0000
,
0000
0000
0000
0000
,
1000
0000
0000
0000
,
0000
0000
0000
0000
,
0001
0000
0000
0000
,
0000
0000
0000
0000
,
1000
0000
0000
0000
,
0000
0000
0000
0000
,
1001
0000
0000
0000
,
0001
0000
0000
0000
,
0000
0000
0000
0000
,
0000
0000
0000
0000
,
0001
0000
0000
0000
,
0000
0000
0000
0000
,
1000
0000
0000
0000
,
0000
0000
0000
0000
,
0000
0000
0000
0000
,
0000
0000
0000
0000
,
1001
0000
0000
0000
,
1000
0000
0000
0000
,
1000
0000
0000
0000
,
0000
0000
0000
0000
,
0001
0000
0000
0000
,
0001
0000
0000
0000
,
0001
0000
0000
0000
,
0000
0000
0000
0000
,
0100
0000
0000
0000
,
0010
0000
0000
0000
,
0100
0000
0000
0000
,
0000
0000
0000
0000
,
0100
0000
0000
0000
,
0000
0000
0000
0000
,
0100
0000
0000
0000
,
0000
0000
0000
0000
,
0010
0000
0000
0000
,
0000
0000
0000
0000
,
0010
0000
0000
0000
,
0000
0000
0000
0000
,
0110
0000
0000
0000
,
0000
0000
0000
0000
,
1001
0000
0000
0000
,
0000
0000
0000
0000
,
1001
0000
0000
0000
,
0000
0000
0000
0000
,
1000
0000
0000
0000
,
0000
0000
0000
0000
,
0001
0000
0000
0000
,
0000
0000
0000
0000
,
1000
0000
0000
0000
,
0000
0000
0000
0000
,
0001
0000
0000
0000
,
0000
0000
0000
0000
,
1001
0000
0000
0000
,
0000
0000
0000
0000
,
0001
0000
0000
0000
,
0000
0000
0000
0000
,
1001
0000
0000
0000
,
0000
0000
0000
0000
,
1000
0000
0000
0000
,
0000
0000
0000
0000
,
0001
0000
0000
0000
,
0100
0000
0000
0000
,
0100
0000
0000
0000
,
0000
0000
0000
0000
,
0010
0000
0000
0000
,
0010
0000
0000
0000
,
1000
0000
0000
0000
,
0000
0000
0000
0000
,
0001
0000
0000
0000
,
1000
0000
0000
0000
,
0001
0000
0000
0000
,
0001
0000
0000
0000
,
0000
0000
0000
1001
;

//---------------dance-double - ----------------
#NOTES:
     dance-double:
     :
     Easy:
     3:
     0.190,0.261,0.170,0.177,0.000:
00000000
00000000
00000000
00000000
,
00000000
00000000
00000000
00000000
,
00000000
00000000
00000000
00000000
,
00000000
00000000
00000000
00000000
,
00000000
00000000
00000000
00000000
,
00000000
00000000
00000000
00000000
,
00000000
00000000
00000000
00000000
,
00000000
00000000
00000000
00000000
,
00000000
00000000
00000000
00000000
,
00100000
00000000
00100000
00000000
,
00010000
00000000
00010000
00000000
,
00011000
00000000
00011000
00000000
,
00000000
00000000
00000000
00000000
,
00001001
00000000
00001001
00000000
,
00000000
00000000
00000000
00000000
,
00001001
00000000
00000001
00000000
,
00000001
00000000
00000010
00000000
,
00000100
00000000
00001000
00000000
,
00010000
00000000
00100000
00000000
,
01000000
00000000
10000000
00000000
,
00100000
00000000
01000000
00000000
,
00011000
00000000
00010000
00000000
,
00022000
00000000
00000000
00033000
,
00020000
00000000
00000000
00000000
,
01030000
00000000
00000000
00000000
,
20000000
00000000
00000000
00000000
,
30100000
00000000
00000000
00000000
,
22000000
00000000
00000000
00000000
,
00000000
00000000
00000000
33000000
,
00220000
00000000
00000000
00000000
,
00000000
00000000
00000000
00330000
,
00011000
00000000
00001000
00000000
,
00000100
00000000
00001000
00000000
,
00000010
00000000
00000010
00000000
,
00001000
00000000
00000001
00000000
,
00000010
00000000
00000100
00000000
,
00001000
00000000
00010000
00000000
,
00100000
00000000
01000000
00000000
,
00100000
00000000
01000000
00000000
,
10010000
00000000
10000000
00000000
,
00220000
00000000
00000000
00330000
,
00010000
00000000
00000000
00001000
00000000
00000000
00010000
00000000
,
00000000
00000000
00000100
00000000
,
00001000
00000000
00000000
00010000
00000000
00000000
00001000
00000000
,
00000000
00000000
00100000
00000000
,
00010000
00000000
00000000
00001000
00000000
00000000
00010000
00000000
,
00000000
00000000
00000100
00000000
,
00001000
00000000
00000000
00010000
00000000
00000000
00001000
00000000
,
00000000
00000000
00100000
00000000
,
00022000
00000000
00000000
00000000
,
00033000
00000000
00100000
00000000
00000000
00100000
00000000
00000000
,
00022000
00000000
00000000
00000000
,
00033000
00000000
00000100
00000000
00000000
00000100
00000000
00000000
,
00022000
00000000
00000000
00000000
,
00033000
00000000
00100000
00000000
00000000
00100000
00000000
00000000
,
00022000
00000000
00000000
00000000
,
00033000
00000000
00000100
00000000
00000000
00000100
00000000
00000000
,
00011000
00000000
00100000
00000000
,
01000000
00000000
00100000
00000000
,
00010000
00000000
00001000
00000000
,
00000100
00000000
00000010
00000000
,
00000001
00000000
00000010
00000000
,
00000100
00000000
00001000
00000000
,
00010000
00000000
00100000
00000000
,
01000000
00000000
10000000
00000000
,
20020000
00000000
00000000
00000000
,
30030000
00000000
00000000
00000000
,
02200000
00000000
00000000
00000000
,
03300000
00000000
00000000
00000000
,
10010000
00000000
00010000
00000000
,
00010000
00000000
00100000
00010000
,
00001000
00000000
00001000
00000000
,
00001000
00000000
00000100
00001000
,
00010000
00000000
01000000
00000000
,
00010000
00000000
00100000
00000000
,
00010000
00000000
00001000
00000000
,
00000100
00000000
00001000
00000000
,
00000010
00000000
00001000
00000000
,
00010000
00000000
01000000
00000000
,
00010000
00000000
00100000
00000000
,
00010000
00000000
00001000
00000000
,
00011000
00000000
00001000
00000000
,
00010000
00100000
01000000
10000000
,
11000000
00000000
10000000
00000000
,
01000000
00100000
00010000
00001000
,
00000000
00000000
00000000
00002002
,
00000000
00000000
00000000
00000000
,
00000000
00000000
00000000
00000000
,
00000000
00003003
00000000
00000000
;
