#TITLE:Rising in the Sun;
#SUBTITLE:(original mix);
#ARTIST:kors k feat. Rie;
#TITLETRANSLIT:;
#SUBTITLETRANSLIT:;
#ARTISTTRANSLIT:;
#CREDIT:DMAxel;
#BANNER:Rising in the Sun (original mix).png;
#BACKGROUND:Rising in the Sun (original mix)-bg.png;
#LYRICSPATH:Rising in the Sun (original mix).lrc;
#CDTITLE:beatmaniaIIDX.png;
#MUSIC:Rising in the Sun (original mix).mp3;
#OFFSET:1.080;
#SAMPLESTART:74.224;
#SAMPLELENGTH:12.000;
#SELECTABLE:YES;
#BPMS:0.000=172.000,88.000=86.000,104.000=172.000,296.000=86.000;
#STOPS:;
#BGCHANGES:0.000=Rising in the Sun (original mix).AVI=1.000=1=1=0,
99999=-nosongbg-=1.000=0=0=0 // don't automatically add -songbackground-
;

//---------------dance-single - ----------------
#NOTES:
     dance-single:
     :
     Easy:
     4:
     0.314,0.318,0.100,0.133,0.000: // measure 1
0000
0000
0000
0000
,  // measure 2
0000
0000
0000
0000
,  // measure 3
0000
0000
0000
0000
,  // measure 4
0000
0000
0000
0000
,  // measure 5
0000
0000
0000
0000
,  // measure 6
2002
0000
0000
3003
,  // measure 7
0010
0001
0010
0000
,  // measure 8
0100
1000
0100
0010
,  // measure 9
0001
1000
0001
0000
,  // measure 10
1000
0010
1000
0100
,  // measure 11
0010
0001
0100
0001
,  // measure 12
0000
0010
0100
1000
,  // measure 13
0010
1000
0010
1000
,  // measure 14
0100
0010
0001
0100
,  // measure 15
0001
0010
0001
0000
,  // measure 16
0010
0100
1000
0010
,  // measure 17
1000
0100
1000
0000
,  // measure 18
0010
1000
0100
0010
,  // measure 19
0002
0000
0000
0000
,  // measure 20
2003
0000
0000
3000
,  // measure 21
1001
0000
0000
0000
,  // measure 22
0000
0220
0000
0000
0000
0000
0330
0000
,  // measure 23
2001
0000
3020
0000
,  // measure 24
0230
0000
0302
0000
,  // measure 25
0023
0000
0230
0000
,  // measure 26
2300
0000
3002
0000
,  // measure 27
1003
0100
0010
0001
,  // measure 28
0010
0100
1000
0010
,  // measure 29
1000
0100
1000
0010
,  // measure 30
0100
0001
0010
0001
,  // measure 31
0010
0100
1000
0001
,  // measure 32
0010
0100
1000
0010
,  // measure 33
1000
0100
1000
0010
,  // measure 34
0110
0000
0000
0000
,  // measure 35
1001
0001
0001
0001
,  // measure 36
0001
0001
0001
0001
,  // measure 37
1000
1000
1000
1000
,  // measure 38
1000
1000
1000
1000
,  // measure 39
0010
0010
0010
0010
,  // measure 40
0010
0010
0010
0010
,  // measure 41
0100
0100
0100
0100
,  // measure 42
0110
0000
0000
0000
,  // measure 43
1001
0010
0100
1000
,  // measure 44
0001
0010
0100
1000
,  // measure 45
0001
0010
0100
1000
,  // measure 46
0100
0010
0001
1000
,  // measure 47
0100
0010
0001
1000
,  // measure 48
0100
0010
0001
1000
,  // measure 49
0001
0010
0100
1000
,  // measure 50
1001
0000
0000
0000
,  // measure 51
0010
0100
0010
1000
,  // measure 52
0100
1000
0100
0010
,  // measure 53
0001
1000
0001
0100
,  // measure 54
0010
0100
0001
0010
,  // measure 55
0100
1000
0001
1000
,  // measure 56
0010
0100
0010
1000
,  // measure 57
0100
0010
0001
1000
,  // measure 58
0001
0100
0100
0100
,  // measure 59
0001
1000
0100
1000
,  // measure 60
0001
0010
0001
0010
,  // measure 61
0001
1000
0001
1000
,  // measure 62
0100
0010
0001
0010
,  // measure 63
0001
1000
0001
1000
,  // measure 64
0010
1000
0010
1000
,  // measure 65
0020
0000
0000
0000
,  // measure 66
0230
0000
0000
0300
,  // measure 67
1001
0010
0001
0010
,  // measure 68
0001
0010
0001
0010
,  // measure 69
1000
0100
1000
0100
,  // measure 70
1000
0100
1000
0100
,  // measure 71
0001
0100
0001
0100
,  // measure 72
0010
1000
0010
1000
,  // measure 73
0010
0010
0010
0010
,  // measure 74
0110
0000
0000
0000
,  // measure 75
1001
0000
1000
0000
,  // measure 76
0001
0000
1000
0000
,  // measure 77
0010
0000
0100
0000
;

//---------------dance-single - ----------------
#NOTES:
     dance-single:
     :
     Challenge:
     9:
     0.600,0.864,0.258,0.117,0.370: // measure 1
0000
0000
0000
0000
,  // measure 2
0000
0000
0000
0000
,  // measure 3
0000
0000
0000
0000
,  // measure 4
0000
0000
0000
0000
,  // measure 5
0000
0000
0000
0000
,  // measure 6
2002
0000
0000
3003
,  // measure 7
0010
0000
0001
0000
0010
0000
0001
0000
0100
0000
0000
0001
0000
0000
0100
0000
,  // measure 8
0010
1000
0100
0000
0100
1000
0010
0000
,  // measure 9
1001
0000
0000
0000
0100
0000
1000
0000
0010
0000
0000
1000
0000
0000
0010
0000
,  // measure 10
0100
0001
0010
0000
0010
0001
0100
0000
,  // measure 11
1001
0000
1010
0000
0100
0001
0010
0000
,  // measure 12
0001
0100
0010
0100
0001
0010
0100
0000
,  // measure 13
1001
0000
0101
0000
0010
1000
0100
0000
,  // measure 14
1010
0110
0101
0110
,  // measure 15
1001
0000
0010
0001
0100
0010
0100
0000
,  // measure 16
0010
1000
0100
1000
0100
0010
0001
0000
,  // measure 17
1001
0000
0100
1000
0010
0100
0010
0000
,  // measure 18
0100
0000
0001
0000
0010
0000
0001
0000
0010
0000
0100
0000
0000
0000
1000
0001
,  // measure 19
1000
0100
0001
0100
,  // measure 20
1000
0010
0001
0010
,  // measure 21
1001
0000
0000
0000
,  // measure 22
0000
0000
0110
0000
0000
0110
0000
0000
0110
0000
0000
1001
0000
0000
0001
0000
,  // measure 23
1000
0100
1000
0100
0000
1000
0001
1000
0000
0001
0100
0001
0000
0100
0010
0100
,  // measure 24
0000
0010
1000
0100
0000
0010
0001
0100
0000
0001
0100
0001
0000
0010
0100
1000
,  // measure 25
0000
0100
0010
0001
0000
0100
0001
0010
0000
0001
1000
0001
0000
0100
0010
1000
,  // measure 26
0000
0010
1000
0100
1000
0100
1000
0010
0000
0100
0001
0010
0001
0010
0001
0100
,  // measure 27
0020
0100
0100
0100
,  // measure 28
0130
0001
0010
0100
,  // measure 29
2000
0001
0001
0001
,  // measure 30
3001
1000
0100
0010
,  // measure 31
0002
1000
1000
1000
,  // measure 32
1003
0100
1000
0001
,  // measure 33
0020
0100
0100
0130
,  // measure 34
2002
0000
0000
3003
,  // measure 35
1001
0000
0000
0001
0000
0000
0001
0000
0100
0000
0010
0000
0100
0000
0000
0000
,  // measure 36
0001
0000
0000
1000
0000
0000
1000
0000
0010
0000
0100
0000
0010
0000
0000
0000
,  // measure 37
1000
0000
0000
1000
0000
0000
0001
0000
0100
0000
0010
0000
0100
0000
0000
0000
,  // measure 38
0001
0000
0000
0001
0000
0000
1000
0000
0000
0000
0010
0000
0100
0000
0001
0000
,  // measure 39
0100
0000
0000
0100
0000
0000
0001
0000
0010
0000
0001
0000
0100
0000
0000
0000
,  // measure 40
0010
0000
0000
0010
0000
0000
1000
0000
0100
0000
1000
0000
0010
0000
0100
0000
,  // measure 41
0001
0000
0000
1000
0000
0000
0001
0000
0100
0000
0010
0000
0100
0000
0000
0000
,  // measure 42
0110
0000
0001
1001
0000
0110
0000
1000
,  // measure 43
1001
0000
0010
0100
1000
0100
1000
0000
,  // measure 44
0100
0010
0001
0010
0001
0010
0001
0000
,  // measure 45
0100
0010
1000
0010
1000
0010
1000
0000
,  // measure 46
0010
0100
0001
0100
0001
0100
0001
0000
,  // measure 47
0010
0100
1000
0010
1000
0010
1000
0100
,  // measure 48
0001
0100
0010
0100
0001
0100
0001
0010
,  // measure 49
1000
0010
0100
0010
1000
0100
1000
0000
,  // measure 50
2002
0000
0000
3003
,  // measure 51
0010
0000
0000
1000
0010
0000
0100
0000
0010
0000
0100
0000
0001
0000
0000
0000
,  // measure 52
0100
0001
0000
0000
0100
0000
0010
0000
0100
0000
0010
0000
1000
0000
0000
0000
,  // measure 53
0010
0000
0000
1000
0001
0000
0010
0000
0001
0000
0010
0000
0100
0000
0000
0000
,  // measure 54
0010
0001
0000
0000
1000
0000
0100
0000
1000
0000
0100
0000
0010
0000
0000
0001
,  // measure 55
0100
0000
0000
0100
0010
0000
0100
0000
0001
0000
0010
0000
0100
0000
0000
1000
,  // measure 56
0010
0000
0000
0010
0100
0000
0010
0000
1000
0000
0100
0000
0010
0000
0000
0001
,  // measure 57
0010
0000
0000
0010
0100
0000
0010
0000
0001
0000
0010
0000
0100
0000
0000
1000
,  // measure 58
0100
0000
0000
0100
0010
0000
0100
0000
1000
0000
0100
0000
0010
0000
0000
0001
,  // measure 59
1000
0000
0000
1000
0010
0000
0100
0000
0010
0000
1000
0000
0010
0000
0000
1000
,  // measure 60
0001
0000
0000
0001
0100
0000
0010
0000
0100
0000
0001
0000
0100
0000
0000
0000
,  // measure 61
0010
1000
0100
1000
0100
0001
0010
0100
,  // measure 62
1000
0000
0000
0010
1000
0000
0100
0000
1000
0000
0100
0000
0010
0000
0000
0000
,  // measure 63
1001
0000
0000
0010
0001
0000
0100
0000
0010
0000
0100
0000
0001
0000
0010
0000
,  // measure 64
0100
0000
0000
0000
1001
0000
0000
0100
1000
0000
0010
0000
0100
0000
0010
0000
,  // measure 65
2002
0000
0000
0000
,  // measure 66
0000
0000
0000
0000
3003
0000
0000
0000
0000
0000
0010
0100
0010
0100
0010
0000
,  // measure 67
1000
0000
0001
0010
0000
0010
0100
0000
,  // measure 68
1000
0010
0100
0000
0001
0100
0010
0000
,  // measure 69
1000
0100
0000
0100
0010
0000
0010
0001
,  // measure 70
0100
0000
0010
1000
0100
0000
1001
0000
,  // measure 71
0001
0100
0000
0100
0010
0000
1000
0010
,  // measure 72
0100
0010
0100
0000
0010
1000
0100
0000
,  // measure 73
1000
0010
0000
0010
0100
0001
0100
0000
,  // measure 74
0110
2200
0000
3300
,  // measure 75
1001
0010
0100
1000
0000
0010
1000
0100
0000
1000
0100
0001
0000
0100
0001
0010
,  // measure 76
0000
0001
0010
1000
0000
0010
1000
0100
0000
1000
0010
0100
0000
0001
0010
0100
,  // measure 77
0000
1000
0100
0010
0001
0100
0001
0010
0000
0001
0100
0001
0010
0100
1000
0100
;

//---------------dance-single - ----------------
#NOTES:
     dance-single:
     :
     Beginner:
     2:
     0.126,0.192,0.058,0.000,0.000: // measure 1
0000
0000
0000
0000
,  // measure 2
0000
0000
0000
0000
,  // measure 3
0000
0000
0000
0000
,  // measure 4
0000
0000
0000
0000
,  // measure 5
0000
0000
0000
0000
,  // measure 6
0000
0000
0000
0000
,  // measure 7
1000
0000
0000
0000
,  // measure 8
1000
0000
0000
0000
,  // measure 9
0001
0000
0000
0000
,  // measure 10
0001
0000
0000
0000
,  // measure 11
0100
0000
0000
0000
,  // measure 12
0100
0000
0000
0000
,  // measure 13
0010
0000
0000
0000
,  // measure 14
0010
0000
0000
0000
,  // measure 15
1000
0000
0000
0000
,  // measure 16
0001
0000
0000
0000
,  // measure 17
1000
0000
0000
0000
,  // measure 18
0010
0000
0000
0000
,  // measure 19
0110
0000
0000
0000
,  // measure 20
0001
0000
0000
0000
,  // measure 21
1001
0000
0000
0000
,  // measure 22
0000
0000
0000
0000
,  // measure 23
0001
0000
0000
0000
,  // measure 24
0000
0000
0000
0000
,  // measure 25
1000
0000
0000
0000
,  // measure 26
0000
0000
0000
0000
,  // measure 27
0001
0000
0000
0000
,  // measure 28
0000
0000
0000
0000
,  // measure 29
0100
0000
0000
0000
,  // measure 30
0000
0000
0000
0000
,  // measure 31
0001
0000
0000
0000
,  // measure 32
0000
0000
0000
0000
,  // measure 33
1000
0000
0000
0000
,  // measure 34
0000
0000
0000
0000
,  // measure 35
0001
0000
0001
0000
,  // measure 36
1000
0000
1000
0000
,  // measure 37
0001
0000
0001
0000
,  // measure 38
1000
0000
1000
0000
,  // measure 39
0001
0000
0001
0000
,  // measure 40
1000
0000
1000
0000
,  // measure 41
0010
0000
0010
0000
,  // measure 42
0110
0000
0000
0000
,  // measure 43
1000
0000
0001
0000
,  // measure 44
1000
0000
0001
0000
,  // measure 45
0100
0000
0010
0000
,  // measure 46
0100
0000
0010
0000
,  // measure 47
1000
0000
0010
0000
,  // measure 48
1000
0000
0001
0000
,  // measure 49
0100
0000
0001
0000
,  // measure 50
1001
0000
0000
0000
,  // measure 51
1000
0000
1000
0000
,  // measure 52
0010
0000
0010
0000
,  // measure 53
0100
0000
0100
0000
,  // measure 54
0001
0000
0001
0000
,  // measure 55
0010
0000
0010
0000
,  // measure 56
0100
0000
0100
0000
,  // measure 57
1000
0000
1000
0000
,  // measure 58
0001
0000
1000
0000
,  // measure 59
0010
0000
0010
0000
,  // measure 60
1000
0000
1000
0000
,  // measure 61
0100
0000
0100
0000
,  // measure 62
0010
0000
0010
0000
,  // measure 63
0001
0000
0010
0000
,  // measure 64
0001
0000
1000
0000
,  // measure 65
0110
0000
0000
0000
,  // measure 66
0000
0000
0000
0000
,  // measure 67
1001
0000
0100
0000
,  // measure 68
1000
0000
0100
0000
,  // measure 69
1000
0000
0001
0000
,  // measure 70
1000
0000
0001
0000
,  // measure 71
0010
0000
0001
0000
,  // measure 72
0010
0000
0001
0000
,  // measure 73
1000
0000
0001
0000
,  // measure 74
1001
0000
0000
0000
,  // measure 75
0010
0000
0000
0000
,  // measure 76
0010
0000
0000
0000
,  // measure 77
0100
0000
0000
0000
,  // measure 78
0100
0000
0000
0000
;

//---------------dance-single - ----------------
#NOTES:
     dance-single:
     :
     Hard:
     7:
     0.423,0.544,0.258,0.316,0.087: // measure 1
0000
0000
0000
0000
,  // measure 2
0000
0000
0000
0000
,  // measure 3
0000
0000
0000
0000
,  // measure 4
0000
0000
0000
0000
,  // measure 5
0000
0000
0000
0000
,  // measure 6
2002
0000
0000
3003
,  // measure 7
0100
1100
1001
0000
,  // measure 8
0100
0001
0010
0000
0001
0010
1000
0000
,  // measure 9
0010
0011
1001
0000
,  // measure 10
0010
1000
0100
0000
1000
0100
0001
0000
,  // measure 11
0100
1010
1001
0000
,  // measure 12
0100
0001
0010
0000
0001
0010
1000
0000
,  // measure 13
0010
0101
1001
0000
,  // measure 14
1001
0000
0100
0001
0010
0000
0110
0000
,  // measure 15
1001
0000
0100
1000
0010
0100
0010
0000
,  // measure 16
0100
0001
0010
0001
0010
0000
0010
0000
,  // measure 17
1001
0000
0010
0001
0100
0000
0010
0000
,  // measure 18
0100
0000
0010
1000
0010
0010
0000
0000
,  // measure 19
2001
0000
0001
0000
,  // measure 20
3002
0000
1000
0000
,  // measure 21
1003
0000
0000
0000
,  // measure 22
0000
0000
0001
0000
0000
0001
0000
0000
1000
0000
0000
1000
0000
0000
1000
0000
,  // measure 23
0002
0000
0000
0000
,  // measure 24
2003
0000
0000
0000
,  // measure 25
3020
0000
0000
0000
,  // measure 26
0230
0000
0000
0300
,  // measure 27
0002
0000
0000
0023
0000
0000
0230
0000
,  // measure 28
0000
0000
0000
0300
,  // measure 29
2000
0000
0000
3200
0000
0000
0320
0000
,  // measure 30
0000
0000
0000
0030
,  // measure 31
0002
0000
0000
0203
0000
0000
0320
0000
,  // measure 32
0000
0000
0000
0030
,  // measure 33
2000
0000
0000
3020
0000
0000
0130
0000
,  // measure 34
2002
0000
0000
3003
,  // measure 35
1100
0010
0001
0010
,  // measure 36
0100
1000
0100
0010
,  // measure 37
0001
1000
0001
1000
,  // measure 38
0001
0010
0100
1000
,  // measure 39
0100
0010
0001
1000
,  // measure 40
0100
0010
0001
0100
,  // measure 41
0001
0010
0100
1000
,  // measure 42
1001
0000
0100
0100
0000
1001
0000
0010
,  // measure 43
0010
0001
0010
0100
,  // measure 44
1000
0010
1000
0100
,  // measure 45
0010
0001
0100
0001
,  // measure 46
0010
0100
1000
0001
,  // measure 47
1000
0010
1000
0010
1000
0000
0010
0100
,  // measure 48
0010
0100
0010
0000
0100
0001
0100
0001
,  // measure 49
0100
0000
0001
1000
0001
1000
0001
0000
,  // measure 50
2002
0000
0000
3003
,  // measure 51
0100
0000
0000
0100
0000
0000
0100
0000
0001
0000
0010
0000
0100
0000
1000
0000
,  // measure 52
0010
0000
0110
0000
1000
0100
0010
0001
,  // measure 53
0100
0000
0000
0100
0000
0000
0100
0000
0001
0000
0010
0000
0100
0000
1000
0000
,  // measure 54
0010
0000
0110
0000
1000
0100
0001
0000
,  // measure 55
0010
0000
0000
0010
0000
0000
0010
0000
0001
0000
0100
0000
0010
0000
1000
0000
,  // measure 56
0100
0000
0110
0000
0001
0010
1000
0000
,  // measure 57
0100
0000
0000
0100
0000
0000
0100
0000
1000
0000
0010
0000
0100
0000
0001
0000
,  // measure 58
0100
0110
0001
1001
,  // measure 59
0010
0000
0000
0001
0000
0000
0010
0000
0001
0000
0100
0000
0010
0000
1000
0000
,  // measure 60
0010
0110
0001
1001
,  // measure 61
0100
1000
0000
1000
0010
1000
0100
0010
,  // measure 62
0001
0000
0000
1000
0000
0000
0001
0000
0010
0000
0100
0000
1000
0000
0000
0000
,  // measure 63
0100
0000
0000
1000
0000
0000
0100
0000
1000
0000
0010
0000
0100
0000
0001
0000
,  // measure 64
0100
0110
0001
1001
,  // measure 65
2002
0000
0000
0000
,  // measure 66
0000
0000
0000
3003
,  // measure 67
0200
0000
0000
2300
0000
0000
3020
0000
,  // measure 68
0000
0100
0100
0130
,  // measure 69
0200
0000
0000
0302
0000
0000
0023
0000
,  // measure 70
0000
0100
0100
0130
,  // measure 71
2000
0000
0000
3002
0000
0000
0203
0000
,  // measure 72
0000
0010
0010
0310
,  // measure 73
2000
0000
0000
3002
0000
0000
0103
0000
,  // measure 74
1001
0022
0000
0033
,  // measure 75
0100
1000
0100
0000
0000
0100
0010
0000
0000
0010
0001
0000
0000
0001
0100
0000
,  // measure 76
0000
0100
0001
0000
0000
1000
0010
0000
0000
0010
1000
0000
0000
0100
0010
0000
,  // measure 77
0000
0100
0010
0000
0000
0001
0100
0000
0000
0100
0010
0000
0000
0010
1000
0000
;

//---------------dance-single - ----------------
#NOTES:
     dance-single:
     :
     Medium:
     6:
     0.367,0.446,0.141,0.141,0.000: // measure 1
0000
0000
0000
0000
,  // measure 2
0000
0000
0000
0000
,  // measure 3
0000
0000
0000
0000
,  // measure 4
0000
0000
0000
0000
,  // measure 5
0000
0000
0000
0000
,  // measure 6
2002
0000
0000
3003
,  // measure 7
0010
0010
0011
0000
,  // measure 8
0001
0010
0100
1000
,  // measure 9
0100
0100
1100
0000
,  // measure 10
1000
0100
0010
0001
,  // measure 11
0100
0100
0101
0000
,  // measure 12
0001
0010
0100
1000
,  // measure 13
0010
0010
1010
0000
,  // measure 14
0110
0001
1000
0010
,  // measure 15
1000
0100
0010
0001
,  // measure 16
0100
0001
0010
0100
,  // measure 17
1000
0010
1000
0100
,  // measure 18
0010
0000
0001
0000
0100
0100
0000
0001
,  // measure 19
1000
0000
1000
0000
,  // measure 20
0001
0000
0001
0000
,  // measure 21
1001
0000
0000
0000
,  // measure 22
0000
0110
0000
0000
0110
0000
0000
1000
,  // measure 23
0002
0000
0203
0000
,  // measure 24
0320
0000
2030
0000
,  // measure 25
3200
0000
0320
0000
,  // measure 26
0032
0000
2003
0000
,  // measure 27
3001
0010
0100
1000
,  // measure 28
0100
0010
0001
0100
,  // measure 29
0001
0010
0001
0100
,  // measure 30
0010
1000
0100
1000
,  // measure 31
0100
0010
0001
1000
,  // measure 32
0100
0010
0001
0100
,  // measure 33
0001
0010
0001
0100
,  // measure 34
0110
0000
0000
0000
,  // measure 35
1001
0000
1000
0100
1000
0000
1000
0000
,  // measure 36
0001
0010
0001
0000
0001
0000
0001
0000
,  // measure 37
0100
0010
0100
0000
0100
0000
0100
0000
,  // measure 38
0010
0100
0010
0000
0010
0000
0010
0000
,  // measure 39
0100
0001
0100
0000
0100
0000
0100
0000
,  // measure 40
0010
1000
0010
0000
0010
0000
0010
0000
,  // measure 41
0100
0010
0100
0000
0100
0000
0100
0000
,  // measure 42
1001
0000
1000
0001
0000
0001
0000
0001
,  // measure 43
1000
0100
0010
0001
,  // measure 44
1000
0100
0010
0001
,  // measure 45
0010
0100
1000
0001
,  // measure 46
0010
0100
1000
0100
,  // measure 47
0010
0001
1000
0100
,  // measure 48
0010
0001
1000
0001
,  // measure 49
1000
0100
1000
0000
0001
0010
0001
0000
,  // measure 50
1001
0000
0000
0000
,  // measure 51
0100
0000
0010
0100
0010
0100
0001
0000
,  // measure 52
0010
0000
0001
0000
0100
0010
0100
0010
,  // measure 53
1000
0000
0001
0000
1000
0000
0010
0100
,  // measure 54
0010
0010
1000
0100
,  // measure 55
0010
0001
0010
0000
0001
1000
0001
0000
,  // measure 56
0100
0010
0100
0001
,  // measure 57
1000
0010
1000
0010
0100
0000
0001
0000
,  // measure 58
1000
0100
0010
0001
,  // measure 59
1000
0001
1000
0000
0001
0100
0001
0000
,  // measure 60
1000
0100
0010
0100
,  // measure 61
1000
0001
1000
0000
0001
0100
0001
0000
,  // measure 62
0100
0010
0100
0010
1000
0000
0100
0000
,  // measure 63
0010
0001
0010
0000
0001
1000
0001
0000
,  // measure 64
0100
0001
0010
0001
0100
0000
0010
0000
,  // measure 65
0220
0000
0000
0000
,  // measure 66
0330
0000
0000
0000
,  // measure 67
1001
0100
1000
0100
,  // measure 68
1000
0100
1000
0100
,  // measure 69
0001
0010
0001
0010
,  // measure 70
0001
0010
0001
0010
,  // measure 71
1000
0010
1000
0010
,  // measure 72
0100
0001
0100
0001
,  // measure 73
0100
0010
0100
0010
0100
0010
0100
0000
,  // measure 74
1001
0000
0000
0000
,  // measure 75
1002
0000
0203
0000
,  // measure 76
0320
0000
2030
0000
,  // measure 77
3200
0000
0300
0000
;
