#TITLE:林檎と蜂蜜;
#SUBTITLE:;
#ARTIST:亜熱帯マジ-SKA爆弾 feat. MAKI;
#TITLETRANSLIT:Ringo to hachimitsu;
#SUBTITLETRANSLIT:;
#ARTISTTRANSLIT:ANETTAI MAJI-SKA BAKUDAN feat. MAKI;
#CREDIT:DMAxel;
#BANNER:Ringo to hachimitsu.png;
#BACKGROUND:Ringo to hachimitsu-bg.png;
#LYRICSPATH:Ringo to hachimitsu.lrc;
#CDTITLE:pop'n music.png;
#MUSIC:Ringo to hachimitsu.mp3;
#OFFSET:-0.520;
#SAMPLESTART:58.506;
#SAMPLELENGTH:12.000;
#SELECTABLE:YES;
#DISPLAYBPM:160.000:210.000;
#BPMS:0.000=142.012,8.000=210.000,64.000=190.000,72.000=210.000,256.000=200.000,264.000=210.000,320.000=200.000,332.000=160.000;
#STOPS:;
#BGCHANGES:;

//---------------dance-single - ----------------
#NOTES:
     dance-single:
     :
     Easy:
     3:
     0.194,0.246,0.143,0.105,0.000:
0000
0000
0000
0000
,
0000
0000
0000
0000
,
0000
0000
0000
0000
,
0000
0000
0000
0000
,
0000
0000
0000
0000
,
0000
0000
0000
0000
,
0000
0000
0000
0000
,
0000
0000
0000
0000
,
0000
0000
0000
0000
,
0000
0000
0000
0000
,
1000
0000
0001
0000
,
1000
0000
0001
0000
,
0100
0000
0100
0000
,
0010
0000
0010
0000
,
1000
0000
0001
0000
,
1000
0000
0010
0000
,
1001
0000
0000
0000
,
0000
0000
1001
0000
,
0001
0000
0001
0000
,
0010
0000
0010
0000
,
0011
0000
0000
0000
,
1000
0000
1000
0000
,
0100
0000
0100
0000
,
1000
0000
0001
0000
,
0010
0000
0100
0000
,
1001
0000
0000
0000
,
1000
0000
0010
0000
,
1000
0000
0010
0000
,
1000
0000
0001
0000
,
1000
0000
0001
0000
,
0001
0000
0001
0000
,
0010
0000
0010
0000
,
0001
0000
0010
0000
,
1001
0000
0000
0000
,
2000
0000
0000
0000
,
0000
0000
0000
0000
,
3002
0000
0000
0000
,
0103
0000
0000
0000
,
0002
0000
0000
0000
,
0000
0000
0000
0000
,
2003
0000
0000
0000
,
3010
0000
0000
0000
,
2000
0000
0000
0000
,
0000
0000
0000
0000
,
3002
0000
0000
0000
,
0013
0000
0000
0000
,
0002
0000
0000
0000
,
0000
0000
0000
0000
,
1003
0000
1100
0000
,
1001
0000
0000
0000
,
0001
0000
0001
0000
,
0010
0000
0001
0000
,
1000
0000
0001
0000
,
1000
0000
1000
0000
,
0010
0000
1000
0000
,
0010
0000
0100
0000
,
0100
0000
0001
0000
,
0001
0000
1000
0000
,
1001
0000
0000
0000
,
0001
0000
0001
0000
,
0010
0000
0100
0000
,
1000
0000
1000
0000
,
0010
0000
0000
0000
,
0010
0000
0100
0000
,
0220
0000
0000
0000
,
0330
0000
0000
0000
,
0001
0000
0001
0000
,
0001
0000
0001
0000
,
1000
0000
1000
0000
,
1000
0000
1000
0000
,
0100
0000
0100
0000
,
0100
0000
0010
0000
,
0010
0000
0010
0000
,
0010
0000
0010
0000
,
1001
0000
0001
0000
,
0001
0000
1000
0000
,
1000
0000
0010
0000
,
1000
0000
0001
0000
,
0100
0000
0010
0000
,
0100
0000
0001
0000
,
1001
0000
0000
0000
,
0011
0000
0000
0000
,
1001
0000
0000
0000
,
1100
0000
2002
0000
,
0000
0000
0000
0000
,
0000
0000
0000
0000
,
3003
0000
0000
0000
;

//---------------dance-single - ----------------
#NOTES:
     dance-single:
     :
     Medium:
     5:
     0.374,0.410,0.220,0.229,0.000:
0000
0000
0000
0000
,
0000
0000
0000
0000
,
0000
0000
0000
0000
,
0000
0000
0000
0000
,
0000
0000
0000
0000
,
0000
0000
0000
0000
,
0000
0000
0000
0000
,
0000
0000
0000
0000
,
0000
0000
0000
0000
,
0000
0000
0000
0000
,
0001
1000
1000
0000
,
0010
0010
1000
0100
,
0010
0001
1000
0001
,
1000
0100
0010
0001
,
0001
1000
1000
0000
,
0010
0010
0100
0001
,
2002
0000
0000
3003
,
0110
0000
1001
0000
,
1000
0001
1000
0001
,
1000
0001
1000
0010
,
0100
0010
0000
0000
,
1000
0010
1000
0010
,
1000
0001
1000
0001
,
1000
0001
1000
0001
,
0100
0001
0100
0001
,
0110
0000
1001
0000
,
0001
0100
0001
0100
,
0001
1000
0001
1000
,
0010
1000
0010
1000
,
0100
1000
0100
1000
,
0100
0010
0001
0000
,
0001
0010
0100
1000
,
0001
1000
0010
0100
,
0110
0000
1001
0000
,
0001
0001
0200
0000
,
0310
0010
2000
0000
,
3100
0100
0020
0000
,
0031
0000
1001
0000
,
1000
1000
0200
0000
,
0310
0010
0002
0000
,
0103
0100
0020
0000
,
1030
0000
1001
0000
,
1000
1000
0020
0000
,
0130
0100
0002
0000
,
0013
0010
0200
0000
,
1300
0000
1001
0000
,
1000
0100
0020
0000
,
0000
0000
0000
0030
,
1001
0000
0110
0000
,
1001
0000
0000
0000
,
1000
0100
1000
0100
,
1000
0010
1000
0010
,
1000
0100
0010
0001
,
1000
0100
0001
0100
,
1000
0001
1000
0001
,
0010
0001
0010
0001
,
0010
0100
1000
0010
,
1000
0000
0001
1000
,
1001
0000
0001
0000
,
0001
0010
0001
0010
,
0001
0010
0100
1000
,
0001
0010
1000
0010
,
0001
1000
0001
1000
,
0001
0010
0100
1000
,
2020
0000
0000
3030
,
1001
0000
0000
0000
,
1000
0001
1000
0000
,
0001
0010
0001
0010
,
0001
1000
0001
0000
,
0001
0000
1000
0000
,
0010
1000
0010
1000
,
0010
0100
0020
0000
,
0000
1030
0001
1000
,
0001
0010
0000
0001
,
2001
0000
0000
3010
,
0100
0010
1000
0001
,
1000
0001
0010
1000
,
0001
1000
0001
1000
,
0001
1000
0100
0001
,
1000
0001
0110
0000
,
2002
0000
0000
3003
,
2200
0000
0000
3300
,
2002
0000
0000
3003
,
0011
0000
2002
0000
,
0000
0000
0000
0000
,
0000
0000
0000
0000
,
3003
0000
0000
0000
;

//---------------dance-single - ----------------
#NOTES:
     dance-single:
     :
     Hard:
     8:
     0.537,0.657,0.592,0.057,0.482:
0000
0000
0000
0000
,
0000
0000
0000
0000
,
0000
0000
0000
0000
,
0000
0000
0000
0000
,
0000
0000
0000
0000
,
0000
0000
0000
0000
,
0000
0000
0000
0000
,
0000
0000
0000
0000
,
0000
0000
0000
0000
,
0000
0000
0000
0000
,
0000
0000
1000
0000
0000
0010
1000
0000
0000
0000
0000
0001
,
0100
0110
1000
1100
,
1001
0000
0001
0100
0000
0000
0100
0000
0000
0010
0000
1000
,
0100
0000
0000
1000
0000
0001
0010
0000
0001
0010
0000
0000
,
1001
0000
0001
0000
0000
0100
0001
0000
0000
0000
0000
1000
,
0010
0110
0001
0011
,
1001
0000
0000
0000
1001
0000
0000
0000
1000
0000
0000
0000
,
0110
0000
1001
0000
,
0001
0010
0100
1000
,
0100
0001
0010
0100
,
1000
1001
0000
0000
,
1000
0100
0010
0001
,
0010
0000
0000
1000
0000
0001
0010
0000
0001
0000
0000
1001
,
0000
0000
1000
0100
0000
1000
0100
0000
1000
0001
0000
0000
,
0001
0000
1000
0010
0000
1000
0010
0000
1000
0001
0000
0000
,
0011
0000
0011
0000
0000
0000
1100
0000
1100
0000
0000
0000
,
1000
0100
0010
0001
,
0010
0000
0000
1000
0000
0000
0100
0000
0000
0010
0000
0001
,
1000
0000
0000
0100
0000
1000
0001
0000
0000
0010
0000
0000
,
1000
0000
0001
0010
0000
0001
0010
0000
0001
1000
0000
0000
,
0010
0000
0000
1001
0000
1000
0100
0000
1000
0000
0000
1001
,
0000
0000
0001
0010
0000
0001
0010
0000
0001
1000
0000
0000
,
1000
0000
0000
0001
0000
0000
1000
0000
0001
0100
0000
0001
,
0100
0000
0000
0001
0000
1001
0000
0000
0000
0000
0000
0000
,
1100
0000
0000
1000
0000
0000
1001
0000
0000
0000
0000
0100
,
0000
0000
0100
0000
0000
0001
1000
0000
0000
0000
0000
0000
,
0011
0001
1001
0000
,
1010
0000
0000
0000
0000
1010
0000
0000
0000
1001
0000
0000
,
0101
0000
0000
0001
0000
0000
1001
0000
0000
0000
0000
0100
,
0000
0000
0100
0000
0000
0001
1000
0000
0000
0000
0000
0000
,
1010
1000
1001
0000
,
1001
0000
0000
0002
0000
0200
0000
0000
0000
0303
0000
0000
,
1100
0000
0000
1000
0000
0000
1001
0000
0000
0000
0000
0010
,
0000
0000
0010
0000
0000
1000
0001
0000
0000
0000
0000
0000
,
0011
0001
1001
0000
,
1001
0000
0000
0000
0000
1010
0000
0000
0000
1001
0000
0000
,
0010
0100
1000
0100
,
0001
0010
1000
0001
,
0010
0000
0001
0000
0010
0000
0001
0000
1000
0000
0100
0000
,
1001
0000
0000
0000
,
0001
0010
1000
0110
,
0110
0000
0000
0001
0000
1000
0000
0000
1000
0100
0000
0000
,
1001
0000
0000
1001
0000
0000
1000
0000
0001
0000
0000
0001
,
0010
1001
0100
1001
,
0010
0100
1000
0001
,
0110
0000
0000
0110
0000
0000
1000
0000
0001
0100
0000
0000
,
0101
0000
0000
0010
0000
1000
0010
0000
1000
0001
0000
0001
,
1000
0000
0000
0001
0000
0000
0100
0000
0010
1000
0000
0000
,
1010
0000
0000
0100
0000
0000
0100
0000
0001
0100
0000
0001
,
1000
0000
0000
0001
0000
1000
0000
0000
1000
0100
0000
0000
,
1001
0000
0000
1001
0000
0000
1000
0000
0001
0000
0000
0001
,
0010
1001
0100
1001
,
0010
0100
1000
0001
,
1100
1100
0101
0101
,
1000
0000
0001
0000
1000
0000
0000
0000
0010
0000
0100
0000
,
0010
0000
2000
0000
,
3001
0000
0100
0001
0000
0000
0010
0000
0000
0100
0000
0000
,
1000
0000
0010
1000
0000
0010
1000
0000
0000
0100
0000
0000
,
0010
0000
0001
1000
0000
0001
1000
0000
0000
0010
0000
0000
,
0100
0001
1000
0001
,
0100
1000
0010
0001
,
0100
1000
0110
0000
,
0001
0000
0010
0001
0000
0010
0001
0000
0001
1000
0000
0000
,
0100
0000
1000
0100
0000
0000
1000
0000
0000
0001
0000
0000
,
0110
0000
0000
0000
0000
0000
1000
0000
0100
1000
0000
0100
,
1000
0000
1000
0001
0000
0000
0010
0000
0000
1000
0000
0000
,
0001
0000
0000
0110
0000
1000
0010
0000
1000
0010
0000
0000
,
1000
0010
0001
0100
,
1000
0000
0001
0100
0000
0000
0100
0000
0010
0000
0100
0000
,
0002
0000
1003
0000
,
0010
0000
1000
0000
0010
0000
0000
0000
0100
0000
0001
0000
,
0010
0000
0001
0000
0010
0000
0000
0000
0100
0000
1000
0000
,
0010
0000
0100
0000
0010
0000
0000
0000
1000
0000
0001
0000
,
0011
0000
2002
0000
,
0000
0000
0000
0000
,
0000
0000
0000
0000
,
3003
0000
0000
0000
;

//---------------dance-single - ----------------
#NOTES:
     dance-single:
     :
     Beginner:
     2:
     0.087,0.159,0.095,0.000,0.000:
0000
0000
0000
0000
,
0000
0000
0000
0000
,
0000
0000
0000
0000
,
0000
0000
0000
0000
,
0000
0000
0000
0000
,
0000
0000
0000
0000
,
0000
0000
0000
0000
,
0000
0000
0000
0000
,
0000
0000
0000
0000
,
0000
0000
0000
0000
,
0001
0000
0000
0000
,
0000
0000
0000
0000
,
1000
0000
0000
0000
,
0000
0000
0000
0000
,
0001
0000
0000
0000
,
0000
0000
0000
0000
,
1001
0000
0000
0000
,
0000
0000
0000
0000
,
1000
0000
0000
0000
,
0000
0000
0000
0000
,
0100
0000
0000
0000
,
0000
0000
0000
0000
,
1000
0000
0000
0000
,
0000
0000
0000
0000
,
0001
0000
0000
0000
,
1001
0000
0000
0000
,
0001
0000
0000
0000
,
0000
0000
0000
0000
,
0010
0000
0000
0000
,
0000
0000
0000
0000
,
0001
0000
0000
0000
,
0000
0000
0000
0000
,
1000
0000
0000
0000
,
1001
0000
0000
0000
,
0001
0000
0001
0000
,
0000
0000
0000
0000
,
1000
0000
1000
0000
,
0000
0000
0000
0000
,
0010
0000
0010
0000
,
0000
0000
0000
0000
,
0100
0000
0100
0000
,
0000
0000
0000
0000
,
0001
0000
0001
0000
,
0000
0000
0000
0000
,
0010
0000
0010
0000
,
0000
0000
0000
0000
,
0100
0000
0100
0000
,
0000
0000
0000
0000
,
1001
0000
0000
0000
,
0000
0000
0000
0000
,
1000
0000
0000
0000
,
0001
0000
0000
0000
,
1000
0000
0000
0000
,
0001
0000
0000
0000
,
0001
0000
0000
0000
,
1000
0000
0000
0000
,
0001
0000
0000
0000
,
0100
0000
0000
0000
,
1001
0000
0000
0000
,
1000
0000
0000
0000
,
0001
0000
0000
0000
,
0100
0000
0000
0000
,
0100
0000
0000
0000
,
0001
0000
0000
0000
,
1001
0000
0000
0000
,
0000
0000
0000
0000
,
0001
0000
0000
0000
,
0000
0000
0000
0000
,
0010
0000
0000
0000
,
0000
0000
0000
0000
,
0100
0000
0000
0000
,
0000
0000
0000
0000
,
1000
0000
0000
0000
,
0000
0000
0000
0000
,
1001
0000
0000
0000
,
0000
0000
0000
0000
,
0100
0000
0000
0000
,
0000
0000
0000
0000
,
0010
0000
0000
0000
,
0000
0000
0000
0000
,
1001
0000
0000
0000
,
0000
0000
0000
0000
,
0110
0000
0000
0000
,
0000
0000
1001
0000
;

//---------------dance-single - ----------------
#NOTES:
     dance-single:
     :
     Challenge:
     9:
     0.653,0.698,0.697,0.115,0.740: // measure 1
0000
0000
0000
0000
,  // measure 2
0000
0000
0000
0000
,  // measure 3
0000
0000
0000
0000
,  // measure 4
0000
0000
0000
0000
,  // measure 5
0000
0000
0000
0000
,  // measure 6
0000
0000
0000
0000
,  // measure 7
0000
0000
0000
0000
,  // measure 8
0000
0000
0000
0000
,  // measure 9
0000
0000
0000
0000
,  // measure 10
0000
0000
0000
0000
,  // measure 11
0001
0000
0100
0000
0000
0100
0001
0000
0000
1000
0000
1000
,  // measure 12
0100
0000
0000
1100
0000
0000
1000
0000
0001
0010
0000
0001
,  // measure 13
0010
0000
0001
1000
0000
1000
0010
0000
0010
0100
0000
0001
,  // measure 14
0010
0000
0000
0011
0000
1000
0100
0000
1000
0100
0000
0000
,  // measure 15
1001
0000
1000
0000
0000
0010
1000
0000
0000
0001
0000
0010
,  // measure 16
0001
0000
0000
0011
0000
0000
0001
0000
1000
0010
0000
1000
,  // measure 17
0010
0000
0100
0000
0110
0000
0000
0000
1000
0000
0100
0000
,  // measure 18
1001
0000
1001
0000
,  // measure 19
0010
0000
0001
1000
0000
1000
0001
0000
0000
0001
0000
0100
,  // measure 20
0001
0000
0000
1000
0000
0010
1000
0000
1000
0001
0000
0010
,  // measure 21
0001
0000
0000
1001
0000
0001
0010
0000
0000
0001
0000
1000
,  // measure 22
0100
0000
1000
0100
0000
0000
1000
0000
0001
0100
0000
0001
,  // measure 23
0100
0000
0000
1001
0000
1000
0100
0000
0100
0000
0000
1001
,  // measure 24
0000
0000
0001
0010
0000
0010
0001
0000
0001
1000
0000
0000
,  // measure 25
1000
0000
0001
0100
0000
0001
0100
0000
0100
0010
0000
0000
,  // measure 26
1100
0000
1001
0000
0000
0000
0011
0000
1001
0000
0000
0000
,  // measure 27
0100
0000
1000
0001
0000
0001
1000
0000
0000
1000
0000
0010
,  // measure 28
1000
0000
0000
0001
0000
0100
0001
0000
0001
1000
0000
1000
,  // measure 29
0001
0000
0000
1001
0000
1000
0100
0000
0000
1000
0000
0001
,  // measure 30
0010
0000
0001
0100
0000
0100
0010
0000
0010
1000
0000
1000
,  // measure 31
0001
0000
0000
1001
0000
0001
0010
0000
0010
0000
0000
1001
,  // measure 32
0000
0000
1000
0010
0000
0010
0100
0000
0100
0001
0000
0000
,  // measure 33
0010
0000
0000
0100
0000
0000
1000
0000
0010
1000
0000
1000
,  // measure 34
0010
0000
0000
0110
0000
0202
0000
0000
0000
0303
0000
0000
,  // measure 35
0011
0000
0000
1010
0000
0000
1001
0000
0000
0000
0000
0010
,  // measure 36
0000
0000
0010
0000
0000
1000
0001
0000
0000
0010
0000
0000
,  // measure 37
1100
0101
1001
0000
,  // measure 38
0101
0000
0000
0000
0000
0101
0000
0000
0000
1001
0000
0000
,  // measure 39
1010
0000
0000
0011
0000
0000
1001
0000
0000
0000
0000
0010
,  // measure 40
0000
0000
0010
0000
0000
1000
0001
0000
0000
1000
0000
0000
,  // measure 41
0101
1100
1001
0000
,  // measure 42
1001
0000
0000
0110
0000
2020
0000
0000
0000
3030
0000
0000
,  // measure 43
0011
0000
0000
1010
0000
0000
1001
0000
0000
0000
0000
0100
,  // measure 44
0000
0000
0100
0000
0000
0001
1000
0000
0000
0010
0000
0000
,  // measure 45
0101
1100
1001
0000
,  // measure 46
1001
0000
0000
0000
0000
0101
0000
0000
0000
1001
0000
0000
,  // measure 47
1002
0010
0100
0010
,  // measure 48
2003
0100
0010
3001
,  // measure 49
0100
0000
0010
0000
0100
0000
0001
0000
1000
0000
0100
0000
,  // measure 50
2002
0000
0000
3003
,  // measure 51
1100
0000
0000
0010
0000
0000
0001
0000
0100
0001
0000
0010
,  // measure 52
0001
0000
1000
0010
0000
0010
0100
0000
0010
0100
0000
0010
,  // measure 53
1000
0000
0100
1000
0000
0001
0100
0000
0100
0010
0000
0010
,  // measure 54
1000
1010
0001
0101
,  // measure 55
1000
0000
0000
0011
0000
0000
0100
0000
0000
1000
0000
0001
,  // measure 56
0100
0000
0100
0010
0000
0100
0001
0000
1000
0010
0000
0000
,  // measure 57
1001
0000
0001
0100
0000
0010
0100
0000
0010
1000
0000
1000
,  // measure 58
0001
0000
0000
1000
0000
0000
0010
0000
0100
0001
0000
0100
,  // measure 59
0001
0000
0000
0010
0000
0000
0100
0000
1000
0001
0000
1000
,  // measure 60
0010
0000
1000
0001
0000
1000
0010
0000
0010
0100
0000
0100
,  // measure 61
0001
0000
0010
0001
0000
1000
0001
0000
0100
0001
0000
0001
,  // measure 62
1000
1010
0001
0101
,  // measure 63
0010
0000
1000
0100
0000
1000
0100
0000
1000
0001
0000
0000
,  // measure 64
0101
0011
1100
1010
,  // measure 65
0100
0000
0010
0000
0110
0000
0000
0000
0001
0000
1000
0000
,  // measure 66
1001
0000
0000
0000
0000
0000
0001
0000
0000
0000
0000
0001
,  // measure 67
1000
0000
0010
1000
0000
1000
0010
0000
0000
0100
0000
0000
,  // measure 68
0001
0000
0100
0001
0000
0001
0100
0000
0010
0100
0000
0010
,  // measure 69
1000
0000
1000
0001
0000
0001
1000
0000
0000
0010
0000
0000
,  // measure 70
0100
0001
0010
0100
,  // measure 71
1010
1000
0101
0001
,  // measure 72
1010
1000
0101
1001
,  // measure 73
0000
0000
0000
0001
0000
0001
0010
0000
0001
0100
0000
0000
,  // measure 74
0001
0000
0000
1000
0000
1000
0100
0000
1000
0010
0000
0000
,  // measure 75
1001
0000
0000
0100
0000
0000
0010
0000
0001
0100
0000
0001
,  // measure 76
0010
0000
0001
1000
0000
0010
1000
0000
0010
0100
0000
0010
,  // measure 77
1000
0000
1001
0000
0000
0001
0100
0000
0001
0100
0000
0000
,  // measure 78
0010
0000
1000
0010
0000
0000
0100
0000
0001
0100
0000
0000
,  // measure 79
0001
0000
1000
0010
0000
0000
0010
0000
0100
0000
0010
0000
,  // measure 80
2000
0001
3002
1000
,  // measure 81
1003
0000
0001
0000
0101
0000
0000
0000
0010
0000
1000
0000
,  // measure 82
0100
0000
1000
0000
1010
0000
0000
0000
0100
0000
0010
0000
,  // measure 83
1000
0000
0001
0000
0011
0000
0000
0000
0001
0000
1000
0000
,  // measure 84
1100
0000
2002
0000
,  // measure 85
0000
0000
0000
0000
,  // measure 86
0000
0000
0000
0000
,  // measure 87
3003
0000
0000
0000
;

//---------------dance-double - ----------------
#NOTES:
     dance-double:
     :
     Easy:
     3:
     0.230,0.328,0.181,0.057,0.000:
00000000
00000000
00000000
00000000
,
00000000
00000000
00000000
00000000
,
00000000
00000000
00000000
00000000
,
00000000
00000000
00000000
00000000
,
00000000
00000000
00000000
00000000
,
00000000
00000000
00000000
00000000
,
00000000
00000000
00000000
00000000
,
00000000
00000000
00000000
00000000
,
00000000
00000000
00000000
00000000
,
00000000
00000000
00000000
00000000
,
10000000
00000000
00010000
00000000
,
10000000
00000000
01000000
00000000
,
00100000
00000000
00010000
00000000
,
00001000
00000000
00010000
00000000
,
00001000
00000000
00000100
00000000
,
00001000
00000000
00000001
00000000
,
00000110
00000000
00000000
00000000
,
00001001
00000000
00001001
00000000
,
00010000
00000000
00001000
00000000
,
00010000
00000000
00001000
00000000
,
00010000
00000000
00100000
00000000
,
00010000
00000000
01000000
00000000
,
00010000
00000000
01000000
00000000
,
00010000
00000000
00100000
00000000
,
00001000
00000000
00010000
00000000
,
00011000
00000000
00011000
00000000
,
00001000
00000000
00010000
00000000
,
00001000
00000000
00000100
00000000
,
00001000
00000000
00000010
00000000
,
00001000
00000000
00000001
00000000
,
00000010
00000000
00000001
00000000
,
00000010
00000000
00000100
00000000
,
00001000
00000000
00010000
00000000
,
00011000
00000000
00000000
00000000
,
00001000
00001000
00001000
00000000
,
00010000
00000000
01000000
00000000
,
00010000
00010000
00010000
00000000
,
00011000
00000000
00000000
00000000
,
00010000
00010000
00010000
00000000
,
00001000
00000000
00000010
00000000
,
00001000
00001000
00001000
00000000
,
00011000
00000000
00000000
00000000
,
00010000
00100000
00010000
00000000
,
10000000
00000000
00010000
00000000
,
00001000
00000100
00001000
00000000
,
00000001
00000000
00001000
00000000
,
00010000
00100000
00010000
00000000
,
10000000
00000000
00010000
00000000
,
01000000
00000000
01100000
00000000
,
00022000
00000000
00000000
00033000
,
00001000
00000000
00000100
00000000
,
00001000
00000000
00000100
00000000
,
00001000
00000000
00000100
00000000
,
00000010
00000000
00000001
00000000
,
00001000
00000000
00000100
00000000
,
00001000
00000000
00010000
00000000
,
00100000
00000000
01000000
00000000
,
10010000
00000000
00100000
00000000
,
00011000
00000000
00000000
00000000
,
00010000
00000000
00100000
00000000
,
00010000
00000000
00100000
00000000
,
00010000
00000000
00100000
00000000
,
01000000
00000000
10000000
00000000
,
00100000
00000000
01000000
00000000
,
01100000
00000000
00000000
00000000
,
00022000
00000000
00000000
00033000
,
00001000
00000000
00001000
00000000
,
00001000
00000000
00000001
00000000
,
00000100
00000000
00000001
00000000
,
00000100
00000000
00000001
00000000
,
00000010
00000000
00000100
00000000
,
00001000
00000000
00010000
00000000
,
00010000
00000000
00010000
00000000
,
00010000
00000000
10000000
00000000
,
00100000
00000000
10000000
00000000
,
00100000
00000000
10000000
00000000
,
00100000
00000000
10000000
00000000
,
01000000
00000000
00100000
00000000
,
00010000
00000000
00001000
00000000
,
00010000
00000000
00001000
00000000
,
00011000
00000000
00000000
00000000
,
00001100
00000000
00000000
00000000
,
00011000
00000000
00000000
00000000
,
00110000
00000000
20020000
00000000
,
00000000
00000000
00000000
00000000
,
00000000
00000000
00000000
00000000
,
30030000
00000000
00000000
00000000
;
