#TITLE:Ride on the Light;
#SUBTITLE:;
#ARTIST:Mr.T;
#TITLETRANSLIT:;
#SUBTITLETRANSLIT:;
#ARTISTTRANSLIT:;
#CREDIT:DMAxel;
#BANNER:Ride on the Light.png;
#BACKGROUND:Ride on the Light-bg.png;
#LYRICSPATH:;
#CDTITLE:KEYBOARDMANIA.png;
#MUSIC:Ride on the Light.mp3;
#OFFSET:-9.080;
#SAMPLESTART:64.200;
#SAMPLELENGTH:12.000;
#SELECTABLE:YES;
#BPMS:0.000=160.000;
#STOPS:;
#BGCHANGES:-22.000=Ride on the Light.avi=1.000=1=1=0,
99999=-nosongbg-=1.000=0=0=0 // don't automatically add -songbackground-
;

//---------------dance-single - ----------------
#NOTES:
     dance-single:
     :
     Easy:
     2:
     0.179,0.265,0.069,0.148,0.000:
1000
1000
0000
0001
,
0000
0000
0000
0001
,
0001
0000
1000
0000
0000
2002
0000
0000
,
0000
0000
0000
0000
,
3003
0000
1001
0000
0000
0001
0000
0000
,
1000
0000
0001
0000
,
1000
0000
0001
0000
,
0100
0000
0001
0000
,
1000
0000
0010
0000
,
1000
0000
0001
0000
,
1000
0000
0001
0000
,
1000
0100
0010
0001
,
1000
1000
1000
0000
,
1001
0000
0001
0000
,
0100
0000
0001
0000
,
1000
0000
0001
0000
,
1000
0000
0010
0000
,
1000
0000
0010
0000
,
1000
0000
0001
0010
,
0100
1000
0001
2002
,
0000
0000
3003
0020
,
0000
0000
0000
0000
,
0000
0000
0000
0032
,
0000
0000
0000
0000
,
0000
0000
0000
2003
,
0000
0000
0000
0000
,
0000
0000
0000
3200
,
0000
0000
0000
1300
,
0000
0000
0000
2000
,
0000
0000
0000
0000
,
0000
0000
0000
3002
,
0000
0000
0000
0000
,
0000
0000
0000
0203
,
0000
0000
0000
0000
,
0000
0000
0000
0310
,
0000
0100
0000
0110
,
0000
0000
0000
1000
,
0000
0001
0000
1000
,
0000
0010
0000
1000
,
0000
0001
0000
1000
,
0000
0001
0000
0100
,
0000
0001
0000
1000
,
0000
0100
0000
1000
,
0000
0001
0000
0010
,
0100
1000
0001
0001
,
1000
0000
0001
0000
,
1000
0000
0100
0000
,
0010
0000
0001
0000
,
1000
0001
0010
0100
,
2000
0000
0000
3001
,
0010
0100
2000
0000
,
3001
0010
0100
1000
,
0001
0100
0001
2000
,
0000
0000
0000
3001
,
0000
0000
0001
0000
0000
1000
0000
0000
,
0000
0000
0000
0000
,
0000
0000
0000
0110
0000
0000
0000
0000
,
0000
0000
0000
0000
0000
0002
0000
0000
,
0000
0000
0000
0000
,
0000
0000
1003
0000
0000
1001
0000
0000
;

//---------------dance-single - ----------------
#NOTES:
     dance-single:
     :
     Hard:
     7:
     0.512,0.471,0.266,0.247,0.000: // measure 1
0001
0000
0001
1000
0100
0000
0100
1000
,  // measure 2
0001
0000
1000
1001
0000
0001
1000
0000
,  // measure 3
1000
0001
0100
0000
0001
2002
0000
0000
,  // measure 4
0000
0000
0000
0000
,  // measure 5
3003
0000
1000
0100
0000
1001
0000
0000
,  // measure 6
1000
0000
1000
0001
0010
0100
0000
1000
,  // measure 7
0100
0002
0000
1000
1003
0000
0001
0000
,  // measure 8
0001
1000
0100
0020
0000
0100
0000
0001
,  // measure 9
0000
0130
0000
0100
1000
0001
0000
0000
,  // measure 10
0001
0000
0001
1000
0100
0010
0000
0001
,  // measure 11
0100
1000
0000
0100
0010
0002
0000
0000
,  // measure 12
1003
1100
1100
1001
,  // measure 13
0001
0100
0010
1000
0001
1001
0000
0000
,  // measure 14
1001
0000
0001
1000
0100
0010
0000
0001
,  // measure 15
0100
2000
0000
0001
3001
0000
1000
0000
,  // measure 16
1000
0001
0010
0200
0000
0010
0000
1000
,  // measure 17
0000
0310
0000
0010
0001
1000
0000
0000
,  // measure 18
0001
0100
0001
1000
0100
0010
0000
0001
,  // measure 19
1000
0010
1000
0001
0010
0100
0000
0000
,  // measure 20
1000
0010
0100
0001
0001
1000
0001
0011
,  // measure 21
0000
1010
0000
1010
0000
0000
1002
0000
,  // measure 22
0000
0000
1003
0000
0010
2000
0000
0000
,  // measure 23
0001
0000
3001
1000
0010
2000
0000
0000
,  // measure 24
0000
0000
3001
0000
0100
0002
0000
0000
,  // measure 25
1000
0000
1003
0001
0010
0100
2000
0000
,  // measure 26
0001
0001
0000
0000
0100
0100
0000
0000
,  // measure 27
3001
1000
0000
0020
0000
0200
0000
0000
,  // measure 28
0000
0000
0000
0000
0330
0000
1000
1010
,  // measure 29
0000
0011
0000
0011
0000
0000
1002
0000
,  // measure 30
0000
0000
1003
0000
0010
2000
0000
0000
,  // measure 31
0001
0000
3001
1000
0010
2000
0000
0000
,  // measure 32
0000
0000
3001
0000
0010
0002
0000
0000
,  // measure 33
1000
0000
1003
0001
0010
0100
2000
0000
,  // measure 34
0000
0100
0000
0001
0000
0100
0000
0000
,  // measure 35
3001
1000
0000
0100
0000
1000
0001
0010
,  // measure 36
0100
1000
0001
0100
1000
0100
0001
0101
,  // measure 37
0000
1100
0000
1100
0000
0000
1001
0000
,  // measure 38
0001
0000
1000
0010
1000
0001
0010
0000
,  // measure 39
0010
0000
0010
0001
0100
1000
0100
0000
,  // measure 40
1000
0100
0001
0100
1000
0100
0001
0000
,  // measure 41
1000
0000
0001
0100
0001
1000
0100
0000
,  // measure 42
1000
0100
0001
0000
0100
0001
0010
0000
,  // measure 43
0001
0010
1000
0001
0010
0100
1000
0000
,  // measure 44
0001
0100
1000
0100
0001
0010
0100
0000
,  // measure 45
1001
0000
1000
0100
0010
0001
1000
0000
,  // measure 46
1001
0000
0001
0100
0001
1000
0100
0000
,  // measure 47
0100
0000
0100
1000
0010
0001
0010
0000
,  // measure 48
0001
0010
1000
0010
0001
0010
1000
0000
,  // measure 49
0001
0000
1000
0100
0010
0001
2000
0000
,  // measure 50
0001
3001
0010
0100
1000
0002
0000
0000
,  // measure 51
1000
1003
0100
0010
0001
2000
0000
0000
,  // measure 52
0001
3001
0010
0100
1000
0002
0000
0000
,  // measure 53
1000
2003
0000
0000
3010
1000
0100
0010
,  // measure 54
0001
1000
0100
0010
0001
0000
0110
0000
,  // measure 55
1000
0000
0001
0010
0100
1001
0000
0000
,  // measure 56
1000
0000
1000
0001
0100
0000
0100
0001
,  // measure 57
1000
0000
0001
1001
0000
0000
1000
0100
,  // measure 58
0010
0001
0010
0100
1000
0002
0000
0000
,  // measure 59
1000
0000
1000
0000
1000
0000
1003
0001
,  // measure 60
0010
0100
1000
1010
0000
1001
0000
0000
;

//---------------dance-single - ----------------
#NOTES:
     dance-single:
     :
     Medium:
     5:
     0.372,0.324,0.138,0.168,0.000:
0100
0100
0100
0100
,
0100
0000
0100
1001
0000
0000
0010
0000
,
0001
0000
0010
0000
0000
2200
0000
0000
,
0000
0000
0000
0000
,
3300
0000
1000
0001
0000
1001
0000
0000
,
0001
1000
0001
0010
,
0001
1000
0001
0010
,
0100
1000
0010
0100
,
0001
0000
1000
0001
0100
0001
0000
0000
,
1000
0100
0000
1000
0100
1000
0000
0000
,
0001
0100
0000
0001
0100
0001
0000
0000
,
1000
0100
0010
0001
,
1000
0000
0001
0000
1000
0001
0000
0000
,
1001
0001
0010
0001
,
1000
0010
1000
0001
,
0100
0001
0010
0100
,
1000
0000
0000
0001
0010
0001
0000
0000
,
1000
0010
0000
1000
0010
1000
0000
0000
,
0001
0010
0000
0001
1000
0001
0000
0000
,
1000
0000
0100
0000
0010
0000
0001
1000
,
0000
0001
0000
0001
0000
0000
2000
0000
,
0000
0000
3001
0000
0100
0002
0000
0000
,
0000
0000
0000
1003
0100
2000
0000
0000
,
0000
0000
3001
0000
0100
0020
0000
0000
,
0000
0000
0000
1030
0001
1000
0000
0000
,
0001
0100
0000
0000
0010
1000
0000
0000
,
0001
0010
0000
0001
0000
2000
0000
0000
,
0000
0000
0000
0000
0000
0000
3001
1000
,
0000
0001
0000
1001
0000
0000
0200
0000
,
0000
0000
0301
0000
0100
0002
0000
0000
,
0000
0000
0000
1003
0100
2000
0000
0000
,
0000
0000
3010
0000
1000
0020
0000
0000
,
0000
0000
0000
1030
0001
2000
0000
0000
,
3001
0100
0000
0001
0000
0100
0000
0000
,
0010
1000
0000
0010
0000
1000
0000
0001
,
1000
0000
0100
0000
0010
0000
0001
1000
,
0000
0001
0000
1001
0000
0000
1000
0000
,
1000
0000
1000
0001
0010
0200
0000
0000
,
0000
0000
1300
0000
0001
2000
0000
0000
,
3001
0100
0000
0001
0000
0100
0000
0000
,
0000
0000
0001
1000
0001
1000
0001
0000
,
1000
0001
0100
1000
,
0100
0000
0001
0000
1000
0001
1000
0000
,
0001
0100
0000
0001
0000
1000
0000
0000
,
0000
1001
1000
1001
,
0001
0000
0001
1000
0100
0020
0000
0000
,
0000
0000
0031
0000
1000
0020
0000
0000
,
1030
0001
0000
0010
0000
0100
0000
0000
,
0000
1000
0001
1000
0001
1000
0100
0000
,
1000
0001
0000
0010
0000
0100
0000
0000
,
1000
0001
0000
0010
0000
0100
0000
0000
,
1000
0001
0000
0010
0000
0100
0000
0000
,
1000
0002
0000
0000
1003
0000
1001
0000
,
0100
0010
0001
1001
,
0000
0000
0101
0000
0000
1100
0000
0000
,
0100
0100
0100
0100
,
0100
0000
0100
1001
0000
0000
0010
0000
,
0100
0000
1000
0100
0001
0100
0000
0000
,
0010
0000
0010
0000
0010
0000
0010
1000
,
0010
1000
0001
0001
0000
1001
0000
0000
;

//---------------dance-single - ----------------
#NOTES:
     dance-single:
     :
     Beginner:
     1:
     0.079,0.118,0.059,0.000,0.000:
0001
0000
0000
1000
,
0000
0000
0000
0001
,
0000
0000
0000
0000
0000
1000
0000
0000
,
0000
0000
0000
0000
,
0000
1001
0000
0000
,
0001
0000
0000
0000
,
0000
0000
0000
0000
,
1000
0000
0000
0000
,
0000
0000
0000
0000
,
0100
0000
0000
0000
,
0000
0000
0000
0000
,
1000
0000
0000
0000
,
0001
0000
0000
0000
,
0001
0000
0000
0000
,
0000
0000
0000
1000
,
0000
0000
0000
0000
,
0000
0000
0000
0000
,
0001
0000
0000
0000
,
0100
0000
0000
0000
,
0001
0000
0000
1001
,
0000
0000
0000
0010
,
0000
0000
0000
0000
,
0000
0000
0000
0010
,
0000
0000
0000
0000
,
0000
0000
0000
0100
,
0000
0000
0000
0000
,
0000
0000
0000
0100
,
0000
0000
0000
0110
,
0000
0000
0000
0001
,
0000
0000
0000
0000
,
0000
0000
0000
0001
,
0000
0000
0000
0000
,
0000
0000
0000
1000
,
0000
0000
0000
0000
,
0000
0000
0000
1000
,
0000
0000
0000
1001
,
0000
0000
0000
0001
,
0000
0000
0000
1000
,
0000
0000
0000
0001
,
0000
0000
0000
1000
,
0000
0000
0000
0010
,
0000
0000
0000
0100
,
0000
0000
0000
0010
,
0000
0000
0000
0100
,
0000
0000
0000
0110
,
0000
0000
0000
0000
,
0000
0001
0000
0000
,
1000
0000
0000
0001
,
0000
0000
0000
1000
,
0000
0000
0000
0001
,
0000
0000
0000
1000
,
0000
0000
0000
0001
,
0000
0000
0000
0100
,
0000
0000
0000
0010
,
0000
0000
0100
0000
0000
0010
0000
0000
,
0000
0000
0000
0000
,
0000
0000
0000
0110
0000
0000
0000
0000
,
0000
0000
0000
0000
0000
1000
0000
0000
,
0000
0000
0000
0000
,
0000
0000
0001
0000
0000
1000
0000
0000
;
