#TITLE:流星☆ハニー;
#SUBTITLE:Perforation Mix;
#ARTIST:新谷あきら Rmx by good-cool;
#TITLETRANSLIT:RYUUSEI HONEY;
#SUBTITLETRANSLIT:;
#ARTISTTRANSLIT:AKIRA SHINTANI Rmx by good-cool;
#CREDIT:DMAxel;
#BANNER:RYUUSEI HONEY Perforation Mix.png;
#BACKGROUND:RYUUSEI HONEY Perforation Mix-bg.png;
#LYRICSPATH:RYUUSEI HONEY Perforation Mix.lrc;
#CDTITLE:pop'n music.png;
#MUSIC:RYUUSEI HONEY Perforation Mix.mp3;
#OFFSET:-0.420;
#SAMPLESTART:9.294;
#SAMPLELENGTH:12.000;
#SELECTABLE:YES;
#BPMS:0.000=147.950;
#STOPS:;
#BGCHANGES:;

//---------------dance-single - ----------------
#NOTES:
     dance-single:
     :
     Easy:
     4:
     0.314,0.447,0.298,0.108,0.000: // measure 1
0000
0000
0000
0000
,  // measure 2
0000
0000
0000
0000
,  // measure 3
0010
0010
0010
0010
,  // measure 4
0100
0100
0100
0000
,  // measure 5
0001
0001
1000
1000
,  // measure 6
0101
0000
0000
0000
,  // measure 7
0001
0001
0001
1000
,  // measure 8
0010
0010
0010
1000
,  // measure 9
0100
0100
1000
0100
,  // measure 10
0001
0001
0001
0000
,  // measure 11
2000
0000
3020
0000
,  // measure 12
2030
0000
0000
3001
,  // measure 13
0200
0000
0301
0100
,  // measure 14
1000
1000
0001
0001
,  // measure 15
0000
1001
0000
0010
,  // measure 16
0001
0010
0100
0010
,  // measure 17
0100
0010
0100
1000
,  // measure 18
0100
1000
0001
0001
,  // measure 19
0000
1001
0000
0100
,  // measure 20
1000
0100
1000
0100
,  // measure 21
0010
0100
0010
0100
,  // measure 22
0010
0001
1000
1000
,  // measure 23
0000
1001
0000
0010
,  // measure 24
0001
0010
0001
0010
,  // measure 25
0100
0010
0100
0010
,  // measure 26
0100
1000
0001
0001
,  // measure 27
0000
1001
0000
0100
,  // measure 28
1000
0100
1000
0100
,  // measure 29
0010
0100
0010
0100
,  // measure 30
0010
0001
1000
1000
,  // measure 31
1001
0001
0001
0011
,  // measure 32
1001
1000
1000
1100
,  // measure 33
1001
0001
0001
0001
,  // measure 34
0011
1000
0100
0000
,  // measure 35
2000
0000
3002
0000
,  // measure 36
0023
0000
0000
0031
,  // measure 37
2000
0000
3020
0000
,  // measure 38
0130
0000
0110
0110
,  // measure 39
1001
1100
0000
1001
,  // measure 40
0010
0001
0010
0100
,  // measure 41
1001
0011
0000
1001
,  // measure 42
0100
1000
0010
0000
,  // measure 43
1001
0110
0000
0110
,  // measure 44
0001
0010
0100
1000
,  // measure 45
1001
0110
0000
0110
,  // measure 46
1000
0000
0000
0000
,  // measure 47
1000
0100
0010
0001
,  // measure 48
1000
0100
0010
0001
,  // measure 49
0010
1000
0010
0001
,  // measure 50
0010
1000
0010
0001
,  // measure 51
0010
0100
1000
0001
,  // measure 52
0010
0100
1000
0001
,  // measure 53
0100
1000
0100
0001
,  // measure 54
0100
1000
0010
0001
,  // measure 55
2002
0000
0000
0000
,  // measure 56
0000
0000
0000
0000
,  // measure 57
0000
0000
0000
0000
,  // measure 58
3003
0000
0000
0000
,  // measure 59
1100
0000
0000
0000
,  // measure 60
0101
0000
0000
0000
,  // measure 61
0101
0101
1100
1100
,  // measure 62
1001
0110
1001
0000
,  // measure 63
0010
0001
0100
0010
,  // measure 64
0100
0001
0010
0001
,  // measure 65
0100
1000
0010
1000
,  // measure 66
0100
1000
0001
0001
,  // measure 67
0100
0001
0010
0001
,  // measure 68
0100
0010
1000
0100
,  // measure 69
1000
0100
0010
0001
,  // measure 70
0010
1000
0100
0001
,  // measure 71
0220
0000
0000
0000
,  // measure 72
0000
0000
0000
0000
,  // measure 73
0330
0000
0000
0000
;

//---------------dance-single - ----------------
#NOTES:
     dance-single:
     :
     Medium:
     6:
     0.414,0.477,0.314,0.050,0.000: // measure 1
0000
0000
0000
0000
,  // measure 2
0000
0000
0000
0000
,  // measure 3
0010
1000
0010
0000
0010
0100
0010
0000
,  // measure 4
0010
1000
0010
0000
0010
0100
0001
0000
,  // measure 5
0100
0001
0100
0000
0100
0010
0100
0000
,  // measure 6
0110
0110
0000
0000
,  // measure 7
1001
0000
1000
0000
1000
0000
1000
0100
,  // measure 8
0001
0001
0001
0100
,  // measure 9
1000
0000
1000
0000
1000
0010
0001
0010
,  // measure 10
1000
0001
1001
0000
,  // measure 11
0010
0001
0010
0000
0010
0100
0010
0000
,  // measure 12
0010
0001
0010
0000
0100
0000
1000
0000
,  // measure 13
0100
1000
0100
0000
0100
0010
0100
0000
,  // measure 14
0100
1000
0100
0000
0010
0000
0001
0000
,  // measure 15
0000
1001
0000
0010
,  // measure 16
0010
0100
0010
0000
1000
0000
1000
0000
,  // measure 17
0001
0010
0001
1000
,  // measure 18
0010
0000
1000
0000
0010
0100
0001
0000
,  // measure 19
0000
1001
0000
0010
,  // measure 20
0010
0001
0010
0000
0001
0000
0001
0000
,  // measure 21
1000
0100
1000
0001
,  // measure 22
0100
0000
0001
0000
0100
0010
1000
0000
,  // measure 23
0000
1001
0000
0100
,  // measure 24
0100
1000
0100
0000
1000
0000
1000
0000
,  // measure 25
0001
0100
0001
1000
,  // measure 26
0100
0000
1000
0000
0010
0100
0001
0000
,  // measure 27
0000
1001
0000
0010
,  // measure 28
0010
0001
0010
0000
0001
0000
0001
0000
,  // measure 29
1000
0010
1000
0001
,  // measure 30
0100
0010
0100
0000
0001
1000
0001
0000
,  // measure 31
1001
1001
1000
0100
,  // measure 32
1001
0001
0001
0010
,  // measure 33
1001
1000
1000
0100
,  // measure 34
1001
0001
1001
0000
,  // measure 35
0100
0001
0100
0000
0010
0100
0010
0000
,  // measure 36
1000
0001
1000
0000
1000
0000
1000
0000
,  // measure 37
0010
1000
0010
0000
0100
0010
0100
0000
,  // measure 38
1001
0000
0000
0000
0100
0100
0100
0000
,  // measure 39
1001
0011
1001
0011
,  // measure 40
0100
1000
0100
0010
,  // measure 41
1001
1100
1001
1100
,  // measure 42
0010
0001
0100
0000
,  // measure 43
1001
0000
1000
0100
0000
1000
0001
0000
,  // measure 44
1100
0010
0001
0100
,  // measure 45
1001
0000
0001
0010
0000
0000
1001
0000
,  // measure 46
0022
0000
0000
0033
,  // measure 47
0001
1000
0001
0000
0001
0010
0001
0000
,  // measure 48
1000
0001
1000
0000
1000
0100
1000
0000
,  // measure 49
0010
0100
0010
0000
0010
1000
0010
0000
,  // measure 50
0100
0010
0100
0000
0100
0001
0100
0000
,  // measure 51
0001
0010
0001
0000
0001
1000
0001
0000
,  // measure 52
1000
0100
1000
0000
1000
0001
1000
0000
,  // measure 53
0010
0100
0010
0100
0010
0100
0010
0000
,  // measure 54
1000
0001
1000
0001
1000
0001
1000
0000
,  // measure 55
2002
0000
0000
0000
,  // measure 56
0000
0000
0000
0000
,  // measure 57
0000
0000
0000
0000
,  // measure 58
3003
0000
0000
0000
,  // measure 59
0011
0010
0010
0010
,  // measure 60
1010
1000
1000
1000
,  // measure 61
1000
0001
1000
0001
1000
0001
1000
0001
,  // measure 62
0100
0100
0100
0000
1001
0000
0000
0000
,  // measure 63
0100
0001
1000
0000
1010
0000
0010
0100
,  // measure 64
0010
0000
1000
0001
1000
0000
1000
0000
,  // measure 65
0010
0100
0001
0000
0101
0000
0100
0010
,  // measure 66
0100
0000
0001
1000
0001
0000
0001
0000
,  // measure 67
0010
0100
1000
0000
1001
0000
0010
0100
,  // measure 68
0010
0000
1000
0001
1000
0000
1000
0000
,  // measure 69
0100
0010
0001
0000
1001
0000
0100
0010
,  // measure 70
0100
0000
0001
1000
0001
0000
0011
0000
,  // measure 71
2002
0000
0000
0000
,  // measure 72
0000
0000
0000
0000
,  // measure 73
3003
0000
0000
0000
;

//---------------dance-single - ----------------
#NOTES:
     dance-single:
     :
     Hard:
     8:
     0.526,0.506,0.298,0.149,0.008:
0000
0000
0000
0000
,
0000
0000
0000
0000
,
1000
0100
0010
0001
0010
0100
0010
0001
,
0100
0010
1000
0001
0010
0000
1010
0000
,
0001
0010
0100
1000
0100
0010
0100
1000
,
0010
0100
0010
0000
2002
0000
0000
0000
0000
0000
0000
0000
3003
0000
0000
0000
,
0001
0100
0001
0000
0001
1000
0001
0100
,
1000
0010
1000
0000
1000
0001
1000
0100
,
0001
0010
0001
0000
0001
1000
0001
0010
,
1000
0001
1000
0010
1000
0001
1000
0000
,
1001
0000
0101
0000
1001
0000
0001
0010
,
1000
0000
1001
0000
1100
0000
1000
0010
,
0001
1000
0001
0000
0001
0010
0001
1000
,
0010
1010
1001
0011
,
0000
0000
1002
0000
0000
0000
1000
1003
,
0100
0010
0100
1000
0001
0000
0001
0000
,
0100
0010
0100
0000
0001
0100
0010
0000
,
1000
0100
0010
0100
1000
0000
0100
0010
,
0001
0000
2001
0000
0000
0000
0001
3001
,
0010
0100
0010
0001
1000
0000
1000
0000
,
0010
0100
0010
0000
0100
0010
1000
0000
,
0001
0010
0100
0010
0001
0000
0010
0100
,
1000
0000
1002
0000
0000
0000
1000
1003
,
0100
0010
0100
1000
0001
0000
0001
0000
,
0100
0010
0100
0000
0010
1000
0001
0000
,
1000
0100
0010
0100
1000
0000
0100
0010
,
0001
0000
2001
0000
0000
0000
0001
3001
,
0010
0100
0010
0001
1000
0000
1000
0000
,
0010
0100
0010
0000
0100
0001
1000
0000
,
0100
0010
0001
1000
0001
0000
1001
0000
,
0001
1000
0001
0000
0001
0010
0001
0010
,
1000
0001
1000
0000
1000
0100
1000
0100
,
0001
1000
0001
0000
0001
0010
0100
1000
,
0001
0010
0001
0000
0001
1000
0001
0000
,
2001
0010
3020
0100
,
0230
0000
0001
0000
0301
0000
0010
0100
,
2000
0000
0001
0000
3001
0010
0100
1000
,
1001
0000
0000
0000
1000
1000
1000
1000
,
1001
1100
1001
1100
,
0100
0010
0001
1000
0001
0001
0001
0000
,
1001
0011
1001
0011
,
0010
0100
1000
0001
1000
1000
1000
0000
,
1001
0000
1000
0001
0000
1000
0001
0000
,
0010
0100
1000
0001
1000
1000
1000
0000
,
1001
0000
0000
0000
0001
0000
1000
0000
0000
0001
0000
0000
1000
0000
0000
0000
,
2002
0000
0000
3003
,
0100
0010
0001
1000
0001
0010
1000
0000
,
0001
0010
1000
0010
0100
0010
1000
0000
,
0100
0010
0001
1000
0001
1000
0001
0000
,
0010
0100
1000
0001
1000
0001
1000
0000
,
0010
0100
0001
1000
0001
0010
1000
0000
,
0001
0010
1000
0010
0100
0010
1000
0000
,
0100
0010
0001
1000
0001
1000
0001
0000
,
0010
0100
1000
0001
1000
0001
1000
0010
,
0220
0000
0000
0000
,
0000
0000
0000
0330
,
2002
0000
0000
0000
,
0000
0000
0000
3003
,
0101
0100
0001
1000
,
1010
0010
1000
0001
,
1000
0001
1000
0001
1000
0001
0010
0100
,
1000
1000
1000
1000
1001
0000
0000
0000
,
0010
1000
0010
1000
0001
0010
0001
0010
,
0100
1000
0100
0010
0001
1000
0001
0000
,
0100
0001
0100
0001
1000
0100
1000
0100
,
0010
0001
0010
0100
1000
0001
1000
0000
,
0100
1000
0010
0100
0001
0010
0001
0010
,
0100
1000
0100
0001
0010
0100
1000
0000
,
0010
0100
0001
1000
1000
0100
0010
0001
,
0100
0001
1000
0000
1100
0000
1001
0000
,
0022
0000
0000
0000
,
0000
0000
0000
0000
,
0033
0000
0000
0000
;

//---------------dance-single - ----------------
#NOTES:
     dance-single:
     :
     Challenge:
     9:
     0.616,0.655,0.546,0.083,0.116:
0000
0000
0000
0000
,
0000
0000
0000
0000
,
0100
0010
0001
1000
0100
0001
0010
0100
,
1000
0001
0010
0100
1000
1000
1001
0000
,
0010
0100
1000
0001
0100
1000
0100
0010
,
0001
1000
0001
0000
0220
0000
0000
0000
0000
0000
0000
0000
0330
0000
0000
0000
,
0101
0000
0110
0000
0101
0100
0001
0100
,
1100
0000
0110
0000
1100
0100
1000
0010
,
0011
0000
0110
0000
0011
0010
0001
1000
,
1010
0000
0110
0000
1010
0010
0100
0000
,
1001
0000
0101
0000
1001
0000
0101
0100
,
1000
0000
1010
0000
1001
0000
1010
0010
,
0001
1000
0001
0000
0011
0010
1000
0001
,
1000
0001
1000
0000
0110
0000
0000
0000
0001
1000
0001
0000
0110
0000
0000
0000
,
1000
0000
1001
0000
0000
0000
0001
0001
,
0010
0100
1000
0010
1000
0100
1000
0001
,
0100
0010
0100
0001
1000
0100
1000
0001
,
1000
0000
0100
0000
0010
0000
0100
0000
1000
0000
0010
0000
0100
0000
0010
0100
,
0010
0000
1001
0000
0000
0000
1000
1000
,
0100
0010
0001
0100
0001
0010
0001
1000
,
0010
0100
0010
1000
0001
0010
0001
1000
,
0001
0000
0010
0000
0100
0000
0010
0000
0001
0000
0100
0000
0010
0000
0100
0010
,
0100
0000
1001
0000
0000
0000
0001
0001
,
0010
0100
1000
0010
1000
0100
1000
0001
,
0010
0100
0010
0001
1000
0010
1000
0001
,
1000
0000
0010
0000
0100
0000
0010
0000
1000
0000
0010
0000
0100
0000
0010
0100
,
0010
0000
1001
0000
0000
0000
1000
1000
,
0100
0010
0001
0100
0001
0010
0001
1000
,
0100
0010
0100
1000
0001
0010
0001
0100
,
0001
0000
0001
0000
1000
0100
0000
1000
0100
1000
0100
0000
1001
0000
0000
0000
,
0101
0000
1100
0000
0101
0000
0100
1000
,
0100
0010
0001
1000
0100
1000
0010
0000
,
1010
0000
0011
0000
1010
0010
0001
0010
,
0100
1000
0001
0010
0001
1000
0001
0000
,
0011
1010
0011
1010
,
1001
0000
1100
0000
1001
0000
1000
0001
,
0100
0000
0000
0000
1001
0000
0000
0000
0010
0001
0010
0001
0010
0001
0010
0000
,
1001
0000
0000
0000
1000
1000
1000
1000
,
1100
0000
0101
0100
1001
0000
1100
0000
,
0100
0010
0100
0001
1000
1000
0100
0000
,
0011
0000
1010
0010
1001
0000
0011
0000
,
0010
0000
0100
0000
0010
0000
1000
0000
0001
0010
0001
0010
0001
0000
0000
0000
,
1001
0000
0101
0100
0000
0100
1100
0000
,
0100
0010
0100
0001
1000
1000
0100
0000
,
1001
0000
0000
0000
1010
0000
0010
0000
0000
0110
0000
0000
0011
0000
0000
0000
,
2002
0000
0000
3003
,
0100
0010
0100
0001
1000
0100
0001
1000
,
0001
0100
1000
0010
1000
0010
1000
0001
,
1000
0100
0001
0100
1000
0001
1000
0001
,
1000
0100
0001
0100
1000
0001
1000
0000
,
0010
0100
0010
1000
0001
0010
1000
0001
,
1000
0010
0001
0100
0001
0100
0001
1000
,
0001
0010
1000
0010
0001
1000
0001
1000
,
0001
0010
1000
0010
0001
0010
0100
1000
,
2002
0000
0000
0000
,
0000
0000
0000
0003
,
0020
0000
0000
0000
,
0000
0000
0000
3030
,
0011
0000
0010
1000
0010
0000
1000
0000
,
1100
0000
0100
0001
0100
0000
0001
0000
,
1001
0001
1000
1000
0001
0001
0010
0100
,
1000
0010
1000
0010
1000
0010
1000
0010
1000
0000
0000
0000
0000
0000
0000
0000
,
0010
0000
1000
0000
0100
0000
1000
0000
0010
0000
0100
0010
0100
0000
0001
0000
,
1000
0100
1000
0000
0100
0000
0010
0000
0001
0000
1000
0000
0001
0000
0000
0000
,
0100
0000
0001
0000
0010
0000
0001
0000
0100
0010
0100
0000
0001
0000
1000
0000
,
0002
0000
0000
0000
0013
0000
0100
0000
1000
0010
1000
0000
1001
0000
0000
0000
,
0100
0010
0001
0010
0100
1000
0001
1000
,
0001
0010
0001
0000
0100
0000
0001
0000
1000
0000
1000
0000
1000
0000
0000
0000
,
0010
0100
0010
0100
0010
0000
1000
0000
1000
0000
0100
0000
0010
0000
0001
0000
,
0100
0010
0100
0000
0001
0000
1000
0000
0010
0100
0010
0000
1000
0000
0001
0000
,
0022
0000
0000
0000
,
0000
0000
0000
0000
,
0033
0000
0000
0000
;

//---------------dance-single - ----------------
#NOTES:
     dance-single:
     :
     Beginner:
     1:
     0.057,0.116,0.025,0.000,0.000: // measure 1
0000
0000
0000
0000
,  // measure 2
0000
0000
0000
0000
,  // measure 3
1000
0000
0000
0000
,  // measure 4
0000
0000
0000
0000
,  // measure 5
1000
0000
0000
0000
,  // measure 6
0000
0000
0000
0000
,  // measure 7
0001
0000
0000
0000
,  // measure 8
0001
0000
0000
0000
,  // measure 9
0001
0000
0000
0000
,  // measure 10
0000
0000
0000
0000
,  // measure 11
1000
0000
0000
0000
,  // measure 12
1000
0000
0000
0000
,  // measure 13
1000
0000
0000
0000
,  // measure 14
0000
0000
0000
0000
,  // measure 15
0000
0010
0000
0000
,  // measure 16
0000
0000
0000
0000
,  // measure 17
0010
0000
0000
0000
,  // measure 18
0000
0000
0000
0000
,  // measure 19
0000
0100
0000
0000
,  // measure 20
0000
0000
0000
0000
,  // measure 21
0100
0000
0000
0000
,  // measure 22
0000
0000
0000
0000
,  // measure 23
0000
0010
0000
0000
,  // measure 24
0000
0000
0000
0000
,  // measure 25
0010
0000
0000
0000
,  // measure 26
0000
0000
0000
0000
,  // measure 27
0000
0100
0000
0000
,  // measure 28
0000
0000
0000
0000
,  // measure 29
0100
0000
0000
0000
,  // measure 30
0000
0000
0000
0000
,  // measure 31
0001
0000
0000
0000
,  // measure 32
0000
0000
0000
0000
,  // measure 33
1000
0000
0000
0000
,  // measure 34
0000
0000
0000
0000
,  // measure 35
0001
0000
0000
0000
,  // measure 36
0000
0000
0000
0000
,  // measure 37
0001
0000
0000
0000
,  // measure 38
1001
0000
0000
0000
,  // measure 39
1000
0000
0000
0000
,  // measure 40
1000
0000
0000
0000
,  // measure 41
0100
0000
0000
0000
,  // measure 42
0100
0000
0000
0000
,  // measure 43
0010
0000
0000
0000
,  // measure 44
0010
0000
0000
0000
,  // measure 45
0001
0000
0000
0000
,  // measure 46
0001
0000
0000
0000
,  // measure 47
1000
0000
0000
0000
,  // measure 48
0000
0000
0000
0000
,  // measure 49
0001
0000
0000
0000
,  // measure 50
0000
0000
0000
0000
,  // measure 51
1000
0000
0000
0000
,  // measure 52
0000
0000
0000
0000
,  // measure 53
0001
0000
0000
0000
,  // measure 54
0000
0000
0000
0000
,  // measure 55
1001
0000
0000
0000
,  // measure 56
0000
0000
0000
0000
,  // measure 57
0000
0000
0000
0000
,  // measure 58
0000
0000
0000
0000
,  // measure 59
0001
0000
0000
0000
,  // measure 60
0001
0000
0000
0000
,  // measure 61
0001
0000
0000
0000
,  // measure 62
0001
0000
0000
0000
,  // measure 63
1000
0000
0000
0000
,  // measure 64
0000
0000
0000
0000
,  // measure 65
0001
0000
0000
0000
,  // measure 66
0000
0000
0000
0000
,  // measure 67
1000
0000
0000
0000
,  // measure 68
1000
0000
0000
0000
,  // measure 69
0001
0000
0000
0000
,  // measure 70
0001
0000
0000
0000
,  // measure 71
1001
0000
0000
0000
;
