#TITLE:RIZING YOU UP;
#SUBTITLE:;
#ARTIST:Ryu☆;
#TITLETRANSLIT:;
#SUBTITLETRANSLIT:;
#ARTISTTRANSLIT:Ryu*;
#CREDIT:DMAxel;
#BANNER:RIZING YOU UP.png;
#BACKGROUND:RIZING YOU UP-bg.png;
#LYRICSPATH:;
#CDTITLE:beatmaniaIIDX.png;
#MUSIC:RIZING YOU UP.mp3;
#OFFSET:-6.980;
#SAMPLESTART:33.538;
#SAMPLELENGTH:12.000;
#SELECTABLE:YES;
#BPMS:0.000=177.000;
#STOPS:;
#BGCHANGES:;

//---------------dance-single - ----------------
#NOTES:
     dance-single:
     :
     Easy:
     3:
     0.222,0.368,0.249,0.086,0.000: // measure 1
1001
0010
0001
0010
,  // measure 2
0100
1000
0100
1000
,  // measure 3
1001
0000
0000
0000
,  // measure 4
1001
0000
0000
0000
,  // measure 5
2000
0000
0000
0000
,  // measure 6
0000
3000
0000
0000
,  // measure 7
0002
0000
0000
0000
,  // measure 8
0000
0000
0003
0000
,  // measure 9
0200
0000
0000
0000
,  // measure 10
0000
0000
0300
0000
,  // measure 11
0020
0000
0000
0000
,  // measure 12
0000
0000
0030
0000
,  // measure 13
0110
0000
1000
0000
,  // measure 14
0001
0000
1000
0000
,  // measure 15
0010
0000
0100
0000
,  // measure 16
0010
0000
0100
0000
,  // measure 17
0001
0000
0001
0000
,  // measure 18
1001
0000
1000
0000
,  // measure 19
1001
0000
0000
0000
,  // measure 20
0110
0000
0000
0000
,  // measure 21
1001
0000
0001
0000
,  // measure 22
0010
0001
0010
0100
,  // measure 23
1000
0000
0010
0000
,  // measure 24
1000
0100
1000
0010
,  // measure 25
0100
0000
0100
0000
,  // measure 26
0010
1000
0100
1000
,  // measure 27
0010
0000
0010
0000
,  // measure 28
1000
0000
0001
0000
,  // measure 29
1001
0010
0001
0010
,  // measure 30
0001
1000
1000
1000
,  // measure 31
0010
0100
0010
1000
,  // measure 32
0001
1000
0001
0001
,  // measure 33
0001
1000
0001
0010
,  // measure 34
0001
1000
0010
1000
,  // measure 35
1001
0000
0000
0000
,  // measure 36
1000
0000
0000
0000
,  // measure 37
1001
0000
0010
0000
,  // measure 38
0001
1000
0001
1000
,  // measure 39
0001
0000
0001
0000
,  // measure 40
0010
0000
0100
0000
,  // measure 41
1001
0000
1000
0000
,  // measure 42
1000
0001
1000
0001
,  // measure 43
0110
0000
0000
0000
,  // measure 44
1001
0000
0000
0000
,  // measure 45
2000
0000
0000
0000
,  // measure 46
0000
0000
3000
0000
,  // measure 47
0002
0000
0000
0000
,  // measure 48
0000
0000
0003
0000
,  // measure 49
0200
0000
0000
0000
,  // measure 50
0000
0000
0300
0000
,  // measure 51
0020
0000
0000
0000
,  // measure 52
0000
0000
0030
0000
,  // measure 53
1000
0000
0010
0000
,  // measure 54
1000
0000
0001
0000
,  // measure 55
0100
0000
0001
0000
,  // measure 56
0100
0000
0001
0000
,  // measure 57
1001
0000
0000
0000
,  // measure 58
0110
0000
0000
0000
,  // measure 59
1001
0000
0000
0000
,  // measure 60
1000
0000
0000
0000
,  // measure 61
0001
0000
0000
0000
,  // measure 62
1001
0000
0010
0000
,  // measure 63
0011
0000
0010
0000
,  // measure 64
1001
0000
0100
0000
,  // measure 65
1100
0000
0100
0000
,  // measure 66
1001
0000
0100
0000
,  // measure 67
0101
0000
0100
0000
,  // measure 68
1001
0000
0010
0000
,  // measure 69
1010
0000
0000
0000
,  // measure 70
1001
0000
0010
0000
,  // measure 71
0001
0000
0010
0000
,  // measure 72
0100
0000
1000
0000
,  // measure 73
0010
0000
0100
0000
,  // measure 74
1001
0000
0100
0000
,  // measure 75
0010
0000
0001
1000
,  // measure 76
0010
0000
0000
0000
,  // measure 77
0110
0000
0000
0000
,  // measure 78
2002
0000
0000
0000
,  // measure 79
3003
0000
0000
0000
;

//---------------dance-single - ----------------
#NOTES:
     dance-single:
     :
     Medium:
     7:
     0.481,0.569,0.412,0.180,0.000: // measure 1
1000
0001
0000
0100
0000
0001
0010
0100
,  // measure 2
0000
1000
0000
0010
0000
1000
0100
0010
,  // measure 3
0001
1000
0000
0001
0000
1000
0000
0002
,  // measure 4
2000
0000
0000
3003
,  // measure 5
0101
0000
1000
0100
0000
0010
0100
1000
,  // measure 6
0002
0000
0100
0000
,  // measure 7
0103
0000
0001
0010
,  // measure 8
0100
1000
0001
1000
,  // measure 9
0001
1000
0100
0001
,  // measure 10
0100
0000
1000
0000
0010
0000
0100
0010
,  // measure 11
0100
0000
0001
0000
1000
0000
0100
0010
,  // measure 12
0000
0001
0000
1000
0000
0000
0000
0000
,  // measure 13
0001
0100
0001
0100
0001
0100
0001
0000
,  // measure 14
0001
1000
0001
1000
0001
1000
0001
0000
,  // measure 15
1000
0010
1000
0010
1000
0010
1000
0000
,  // measure 16
0010
0100
0010
0100
0010
0100
0010
0000
,  // measure 17
1000
0100
0010
0001
1000
0010
0100
0001
,  // measure 18
0010
0100
1000
0010
0100
0001
1000
0000
,  // measure 19
1001
1001
1001
1001
,  // measure 20
0220
0000
0000
0330
,  // measure 21
1000
0000
1000
0010
0000
0100
0000
0001
,  // measure 22
0000
0001
1000
0000
1100
0000
1001
0000
,  // measure 23
0001
0000
0001
0100
0000
0010
1000
0100
,  // measure 24
0000
1000
0001
0010
0100
0000
0110
0000
,  // measure 25
1001
0000
0001
0100
0000
0010
0000
1000
,  // measure 26
0000
1000
0001
0000
0011
0000
1001
0000
,  // measure 27
1000
0000
1000
0010
0000
0100
0001
0010
,  // measure 28
0000
0001
1000
0010
0000
0000
0000
0000
,  // measure 29
1001
0000
1000
0001
0000
0010
0000
0001
,  // measure 30
0000
1000
0100
0010
0100
0000
0110
0000
,  // measure 31
1001
0000
0001
1000
0000
0100
1000
0010
,  // measure 32
0000
0100
0001
0010
0100
0000
0110
0000
,  // measure 33
1001
0000
0010
1000
0000
0100
0000
1000
,  // measure 34
0000
0001
0010
0100
0010
0000
0110
0000
,  // measure 35
1000
0001
0000
0100
0000
0001
0000
0200
,  // measure 36
0020
0000
0000
0330
,  // measure 37
1001
0100
1000
0100
,  // measure 38
0001
0100
0010
0100
,  // measure 39
0001
0000
1000
0100
0000
1000
0000
0001
,  // measure 40
0000
0100
0000
0001
1000
0000
1001
0000
,  // measure 41
1001
0010
0001
0010
,  // measure 42
1000
0010
0100
0010
,  // measure 43
1000
0001
0000
0001
0000
0001
0000
0001
,  // measure 44
2000
0000
0000
0000
,  // measure 45
3020
0000
0000
0000
,  // measure 46
0230
0000
0010
0000
,  // measure 47
0320
0000
1030
0000
,  // measure 48
0100
0000
0010
0000
,  // measure 49
0002
0000
1000
0000
,  // measure 50
2003
0000
3020
0000
,  // measure 51
0230
0000
0301
0000
,  // measure 52
0010
0000
0100
0000
,  // measure 53
1001
1000
1000
1000
,  // measure 54
0010
0010
0010
0010
,  // measure 55
0100
0100
0100
0100
,  // measure 56
0001
0001
0001
0001
,  // measure 57
1001
0010
0100
1000
,  // measure 58
1001
0100
0010
0001
,  // measure 59
1001
0100
1001
0100
,  // measure 60
2002
0000
0000
3003
,  // measure 61
1001
0000
0000
0000
,  // measure 62
1001
1100
0001
1100
,  // measure 63
0001
0011
1000
0011
,  // measure 64
1001
1010
0001
1010
,  // measure 65
1000
0101
1000
0101
,  // measure 66
1001
0110
1000
0110
,  // measure 67
0001
0110
1000
0110
,  // measure 68
1001
0110
1000
0110
,  // measure 69
0001
0100
0000
0000
,  // measure 70
1001
0000
0010
1000
0010
0000
0010
1000
,  // measure 71
0010
0000
0100
0001
0100
0000
0100
0001
,  // measure 72
1000
0000
0100
1000
0100
0000
0100
1000
,  // measure 73
0100
0000
0010
0001
0010
0000
0010
0001
,  // measure 74
1000
0000
0010
1000
0100
0000
0010
0001
,  // measure 75
0100
0000
0010
1000
0100
0000
0010
0001
,  // measure 76
0010
0100
0000
1000
0000
0001
0000
2000
,  // measure 77
0002
0000
0000
0000
3003
0100
0010
0001
,  // measure 78
0220
0000
0000
0000
,  // measure 79
0330
0000
0000
0000
;

//---------------dance-single - ----------------
#NOTES:
     dance-single:
     :
     Beginner:
     2:
     0.093,0.165,0.060,0.000,0.000: // measure 1
1000
0000
0000
0000
,  // measure 2
0001
0000
0000
0000
,  // measure 3
1000
0000
0000
0000
,  // measure 4
0000
0000
0000
0000
,  // measure 5
0001
0000
0000
0000
,  // measure 6
0000
0000
0000
0000
,  // measure 7
0000
0000
0000
0000
,  // measure 8
0000
0000
0000
0000
,  // measure 9
0010
0000
0000
0000
,  // measure 10
0000
0000
0000
0000
,  // measure 11
0000
0000
0000
0000
,  // measure 12
0000
0000
0000
0000
,  // measure 13
0100
0000
0000
0000
,  // measure 14
0100
0000
0000
0000
,  // measure 15
1000
0000
0000
0000
,  // measure 16
1000
0000
0000
0000
,  // measure 17
1001
0000
0000
0000
,  // measure 18
0001
0000
0000
0000
,  // measure 19
1001
0000
0000
0000
,  // measure 20
1000
0000
0000
0000
,  // measure 21
0001
0000
0000
0000
,  // measure 22
0000
0000
0000
0000
,  // measure 23
1000
0000
0000
0000
,  // measure 24
0000
0000
0000
0000
,  // measure 25
0010
0000
0000
0000
,  // measure 26
0000
0000
0000
0000
,  // measure 27
0100
0000
0000
0000
,  // measure 28
0000
0000
0000
0000
,  // measure 29
0001
0000
0000
0000
,  // measure 30
0001
0000
0000
0000
,  // measure 31
1000
0000
0000
0000
,  // measure 32
1000
0000
0000
0000
,  // measure 33
0001
0000
0000
0000
,  // measure 34
0001
0000
0000
0000
,  // measure 35
1000
0000
0000
0000
,  // measure 36
0000
0000
0000
0000
,  // measure 37
1001
0000
1000
0000
,  // measure 38
1000
0000
0000
0000
,  // measure 39
0001
0000
0000
0000
,  // measure 40
0000
0000
0000
0000
,  // measure 41
1001
0000
0001
0000
,  // measure 42
0001
0000
0000
0000
,  // measure 43
1000
0000
0000
0000
,  // measure 44
0010
0000
0000
0000
,  // measure 45
0010
0000
0000
0000
,  // measure 46
0000
0000
0000
0000
,  // measure 47
0100
0000
0000
0000
,  // measure 48
0000
0000
0000
0000
,  // measure 49
0010
0000
0000
0000
,  // measure 50
0000
0000
0000
0000
,  // measure 51
1000
0000
0000
0000
,  // measure 52
0000
0000
0000
0000
,  // measure 53
0001
0000
0000
0000
,  // measure 54
0001
0000
0000
0000
,  // measure 55
0001
0000
0000
0000
,  // measure 56
1000
0000
0000
0000
,  // measure 57
1000
0000
0000
0000
,  // measure 58
1000
0000
0000
0000
,  // measure 59
1000
0000
0000
0000
,  // measure 60
1001
0000
0000
0000
,  // measure 61
0000
0000
0000
0000
,  // measure 62
0001
0000
0001
0000
,  // measure 63
0001
0000
0000
0000
,  // measure 64
1000
0000
1000
0000
,  // measure 65
1000
0000
0000
0000
,  // measure 66
0001
0000
0001
0000
,  // measure 67
0001
0000
0000
0000
,  // measure 68
1000
0000
1000
0000
,  // measure 69
1000
0000
0000
0000
,  // measure 70
0010
0000
0010
0000
,  // measure 71
0010
0000
0000
0000
,  // measure 72
0100
0000
0100
0000
,  // measure 73
0100
0000
0000
0000
,  // measure 74
0010
0000
0010
0000
,  // measure 75
0010
0000
0000
0000
,  // measure 76
0110
0000
0000
0000
,  // measure 77
1000
0000
0000
0000
,  // measure 78
1001
0000
0000
0000
;

//---------------dance-single - ----------------
#NOTES:
     dance-single:
     :
     Hard:
     8:
     0.592,0.603,0.215,0.146,0.116: // measure 1
0001
0100
0010
1000
0100
0010
0001
0100
,  // measure 2
1000
0100
0010
0001
0100
0010
1000
0100
,  // measure 3
0001
0100
0000
0010
0000
1000
0000
0001
,  // measure 4
2002
0000
0000
3003
,  // measure 5
1000
0100
0010
0001
0000
0100
0001
1000
,  // measure 6
0020
0000
0000
1000
1000
0000
0000
0100
,  // measure 7
0130
0000
1000
0010
,  // measure 8
0100
0001
0100
1000
,  // measure 9
0001
0100
0010
1000
0000
0010
1000
0001
,  // measure 10
0200
0000
0000
0001
0001
0000
0000
0010
,  // measure 11
0310
0000
0000
0000
0010
0100
0010
1000
,  // measure 12
0000
0001
0010
0001
0000
1000
0010
0100
,  // measure 13
0001
0010
0001
0010
0001
0010
0100
1000
,  // measure 14
0010
0100
0010
0100
0010
1000
0100
0010
,  // measure 15
0001
1000
0001
1000
0001
0100
0010
1000
,  // measure 16
0100
0010
0100
0010
0100
1000
0001
0010
,  // measure 17
0100
1000
0100
0001
0100
1000
0100
0010
,  // measure 18
0001
0010
1000
0010
0001
0100
0010
1000
,  // measure 19
1001
1001
1001
1001
,  // measure 20
0110
0000
0000
0000
0000
0001
0010
0100
,  // measure 21
1000
0001
0100
0001
0000
0100
0000
1000
,  // measure 22
0000
0100
0010
0001
0100
0000
1001
0000
,  // measure 23
0001
1000
0100
1000
0000
0100
0001
0100
,  // measure 24
0000
1000
0100
0010
0001
0000
1001
0000
,  // measure 25
1000
0010
0100
0001
0000
0100
0000
0001
,  // measure 26
1000
0100
0010
0100
1000
0000
1001
0000
,  // measure 27
0001
0100
0010
1000
0000
0100
0001
0100
,  // measure 28
0000
1000
0100
0010
0000
0001
0000
0001
,  // measure 29
1000
0100
0010
0001
0000
0100
1000
0100
,  // measure 30
0000
0001
0100
0010
1000
0000
1001
0000
,  // measure 31
1000
0100
0010
0001
0000
0100
0001
1000
,  // measure 32
0000
0100
0010
0001
1000
0000
1001
0000
,  // measure 33
0001
0010
0100
1000
0000
0010
1000
0001
,  // measure 34
0000
0010
0100
1000
0001
0000
1001
0000
,  // measure 35
0100
0001
0000
1000
0000
0100
0000
0010
,  // measure 36
0220
0000
0000
0330
,  // measure 37
1001
0000
0100
0000
1100
0000
0001
0100
,  // measure 38
0010
0000
1000
0100
0001
0000
0100
0001
,  // measure 39
0100
1000
0100
0020
0000
1000
0000
1000
,  // measure 40
0000
0100
0000
0130
0001
0001
1000
1000
,  // measure 41
1001
0000
0010
0000
0011
0000
1000
0010
,  // measure 42
0100
0000
0001
0100
1000
0000
0100
1000
,  // measure 43
0100
0001
0000
0100
0000
0010
0000
1000
,  // measure 44
2002
0000
0000
3003
,  // measure 45
0010
1000
0010
0100
0000
0010
0100
0001
,  // measure 46
0020
0000
0000
0001
0001
0000
0000
0100
,  // measure 47
0230
0000
0310
1000
,  // measure 48
0100
0010
0001
1000
,  // measure 49
0010
1000
0010
0100
0000
0010
0100
0001
,  // measure 50
0020
0000
0000
0001
0001
0000
0000
0100
,  // measure 51
0230
0000
0000
0000
0310
0000
1000
0010
,  // measure 52
0000
0100
0001
1000
0000
0100
1000
0001
,  // measure 53
0100
0001
0100
0001
1000
0100
0010
0001
,  // measure 54
1000
0100
1000
0100
1000
0001
0010
0100
,  // measure 55
1000
0001
0010
0001
0010
0001
1000
0100
,  // measure 56
0010
0100
0010
0100
0010
0100
1000
0001
,  // measure 57
0010
0100
0010
0100
1000
0010
0100
0001
,  // measure 58
1000
0100
0010
0100
0010
0100
1000
0010
,  // measure 59
0110
1001
0110
1001
,  // measure 60
0220
0000
0000
0330
,  // measure 61
1001
0000
0000
0000
0000
0001
0010
0100
,  // measure 62
1000
0000
0000
1000
0000
0000
0001
0000
0100
0000
0000
0100
0000
0000
0010
0000
,  // measure 63
1000
0000
0000
1000
0000
0000
0001
0000
0100
0000
0000
0010
0000
0000
0100
0000
,  // measure 64
0001
0000
0000
0001
0000
0000
1000
0000
0010
0000
0000
0010
0000
0000
0100
0000
,  // measure 65
0001
0000
0000
0001
0000
0000
1000
0000
0010
0000
0000
0100
0000
0000
0010
0000
,  // measure 66
1000
0000
0000
1000
0000
0000
0001
0000
0010
0000
0000
0010
0000
0000
0100
0000
,  // measure 67
1000
0000
0000
1000
0000
0000
0001
0000
0100
0000
0000
0010
0000
0000
1000
0000
,  // measure 68
0001
0000
0000
0001
0000
0000
0100
0000
0010
0000
0000
0010
0000
0000
1000
0000
,  // measure 69
0001
0000
0000
0010
0000
0000
0100
0000
0000
0000
1000
0000
0100
0000
0010
0000
,  // measure 70
0001
0000
0000
1000
0000
0000
0010
0000
1000
0000
0000
0001
0000
0000
0010
0000
,  // measure 71
0001
0000
0000
0100
0000
0000
0001
0000
0010
0000
0000
0100
0000
0000
1000
0000
,  // measure 72
0100
0000
0000
0001
0000
0000
0100
0000
1000
0000
0000
0001
0000
0000
0010
0000
,  // measure 73
1000
0000
0000
0010
0000
0000
0001
0000
1000
0000
0000
1000
0000
0000
0010
0000
,  // measure 74
0100
0000
0000
0001
0000
0000
0010
0000
1000
0000
0000
0010
0000
0000
0001
0000
,  // measure 75
0100
0000
0000
1000
0000
0000
0100
0000
0001
0000
0000
0100
0000
0000
0010
0000
,  // measure 76
1000
0001
0000
0100
0000
0010
0000
1000
,  // measure 77
0001
0100
0001
0100
0001
1000
0100
0010
,  // measure 78
0220
0000
0000
0000
,  // measure 79
0330
0000
0000
0000
;
