#TITLE:リンゴロジック;
#SUBTITLE:;
#ARTIST:Dormir;
#TITLETRANSLIT:RINGO LOGIC;
#SUBTITLETRANSLIT:;
#ARTISTTRANSLIT:;
#CREDIT:DMAxel;
#BANNER:RINGO LOGIC.png;
#BACKGROUND:RINGO LOGIC-bg.png;
#LYRICSPATH:RINGO LOGIC.lrc;
#CDTITLE:pop'n music.png;
#MUSIC:RINGO LOGIC.mp3;
#OFFSET:-6.400;
#SAMPLESTART:69.345;
#SAMPLELENGTH:12.000;
#SELECTABLE:YES;
#BPMS:0.000=120.000;
#STOPS:;
#BGCHANGES:;

//---------------dance-single - ----------------
#NOTES:
     dance-single:
     :
     Easy:
     3:
     0.195,0.206,0.096,0.230,0.034:
1000
0000
0000
0001
0000
0000
1001
0000
,
0000
0000
0000
0000
0010
0000
0000
0010
,
0000
0000
0100
0000
0000
0100
0000
0000
,
0010
0000
0000
0010
0000
0000
2000
0000
,
0000
3001
0000
0000
1000
0000
0000
1000
,
0000
0000
0001
0000
0000
0001
0000
0000
,
1000
0000
0000
1000
0000
0000
0020
0000
,
0000
0130
0000
0000
0020
0000
0000
0000
,
0000
0230
0000
0000
,
0320
0000
0000
2030
,
0000
0000
3002
0000
,
0000
0203
0000
0000
,
0320
0000
0000
2030
,
0000
0000
0000
0000
3001
0000
0000
0100
,
0000
0000
0001
0000
0000
0100
0000
0000
,
0010
0000
0000
1000
0000
0000
0100
0000
,
0000
0010
0000
0000
1001
0000
0000
1000
,
0000
0000
1001
0000
0000
0001
0000
0000
,
1001
0000
0000
1000
0000
0000
1001
0000
,
0000
0001
0000
0000
0200
0000
0000
0302
,
0000
0000
2003
0000
0000
0002
0000
3000
,
0023
0000
0000
0032
0000
0000
2003
0000
,
0000
3002
0000
0000
1003
0000
0000
1000
,
0000
0000
0001
0000
0000
0001
0000
0000
,
1000
0000
0000
1000
0000
0000
0001
0000
,
0000
0001
0000
0000
0100
0000
0000
0010
,
0000
0000
0100
0000
0000
0100
0000
0000
,
0100
0000
0000
0000
0000
0000
0000
0010
,
0000
0100
0000
0000
,
0110
0000
0000
1001
,
0000
0000
2002
0000
,
3003
0000
0000
0000
1000
0000
0000
0001
,
0000
0000
1000
0000
0000
1000
0000
0000
,
0001
0000
0000
1000
0000
0000
1000
0000
,
0000
0001
0000
0000
0001
0000
0000
1000
,
0000
0000
0001
0000
0000
0001
0000
0000
,
0100
0000
0000
0010
0000
0000
0100
0000
,
0000
0100
0000
0000
0020
0000
0000
0000
,
0000
0230
0000
0000
,
0320
0000
0000
2030
,
0000
0000
0000
0000
3001
0000
0000
0100
,
0000
0000
0001
0000
0000
1000
0000
0000
,
0100
0000
0000
0010
0000
0000
0001
0000
,
0000
1000
0000
0000
0100
0000
0000
0010
,
0000
0000
0000
0000
0001
0000
0000
0000
0000
0000
0000
0000
0000
1000
0000
0000
,
0000
0000
0000
0001
0000
0000
0000
0000
0000
1000
0000
0000
0000
0000
0000
0010
,
0000
0000
0000
0000
0000
0100
0000
0000
0000
0000
0000
0001
0000
0000
0000
0000
,
0000
0110
0000
0000
0000
0000
0000
0000
0000
0000
1001
0000
0000
0000
0000
0000
;

//---------------dance-single - ----------------
#NOTES:
     dance-single:
     :
     Medium:
     6:
     0.347,0.320,0.106,0.221,0.298:
0001
0000
0000
0100
0000
0000
0010
0000
0000
1000
0000
0000
0002
0000
0000
0000
,
0000
0000
0000
1003
0000
0000
0000
0000
0010
0000
0000
1000
0000
0000
0010
0000
,
0000
0000
0000
0000
0100
0000
0000
0001
0000
0000
0100
0000
0000
0000
0000
0000
,
0010
0000
0000
1000
0000
0000
0010
0000
0000
0000
0000
0000
0100
0000
0000
0001
,
0000
0000
0010
0000
0000
0000
0000
0000
0100
0000
0000
1000
0000
0000
0100
0000
,
0000
0000
0000
0000
0010
0000
0000
0001
0000
0000
0010
0000
0000
0000
0000
0000
,
0100
0000
0000
1000
0000
0000
0100
0000
0000
0000
0000
0000
0010
0000
0000
0001
,
0000
0100
0000
0000
0020
0000
0000
1000
,
1030
0000
0002
0000
0000
0100
0103
0000
,
0001
0000
0000
1000
0000
0000
0010
0000
0000
0000
0000
0000
1000
0000
0000
0001
,
0000
0100
0000
0000
0002
0000
0000
0010
,
0013
0000
0200
0000
0000
1000
1300
0000
,
1000
0000
0000
0001
0000
0000
0100
0000
0000
0000
0000
0000
0001
0000
0000
1000
,
0000
0010
0000
0000
1000
0001
1000
0010
,
0010
0000
0100
0001
1000
0100
0100
0000
,
1000
0000
0001
0000
1000
0000
0010
0000
0010
0000
0000
0000
0101
0000
0000
0001
,
0000
0000
1000
0000
1000
0000
0000
0000
0001
0000
0000
0100
0000
0000
0001
0000
,
0000
0100
0000
0000
0001
0000
0000
1000
0000
0000
0100
0000
0000
1000
0000
0000
,
0100
0000
0000
0010
0000
0000
0100
0000
0000
0010
0000
0000
0001
0000
0000
1000
,
0000
0000
0010
0000
0000
1000
0000
0000
0020
0000
0000
0000
0000
0000
0230
0000
,
0000
0000
0302
0000
0000
1000
1003
0010
,
0200
0000
0000
0320
0000
0000
2030
0000
,
0000
0000
0001
0000
3001
0000
0100
0000
0010
0000
0000
0100
0000
0000
0010
0000
,
0000
0100
0000
0000
1000
0000
0000
0100
0000
0000
1000
0000
0000
0100
0000
0000
,
0010
0000
0000
0001
0000
0000
0010
0000
0000
0001
0000
0000
1000
0000
0000
0010
,
0000
0000
1000
0000
0000
0010
0000
0000
0110
0000
0000
0000
0000
0000
1000
0000
,
0000
0000
0110
0000
0000
0001
0000
0000
,
0100
0000
0000
0001
0000
0000
1000
0000
0000
0000
0000
0000
0000
0000
0100
0000
,
0000
1000
0000
0000
2002
0000
0000
0000
0000
0000
0000
0000
3003
0000
0000
0000
,
0202
0000
0303
2002
,
0000
0000
0000
0000
3003
0000
0000
0000
1010
0000
0000
0000
0000
0000
0000
0010
,
0000
1000
0000
0000
0000
0000
0000
0000
0001
0000
0000
0100
0000
0000
0001
0000
,
1000
0000
0100
0000
1000
0000
0000
0100
0000
0000
1000
0000
0001
0000
0100
0000
,
0001
0000
0000
0010
0000
0000
0001
0000
1000
0000
0010
0000
1000
0000
0000
0010
,
0000
0000
1000
0000
0001
0000
0010
0000
0001
0000
0000
0100
0000
0000
0010
0000
,
0100
0000
0010
0000
1000
0000
0000
0010
0000
0000
0100
0000
0010
0000
0100
0000
,
0001
0000
0000
0100
0000
0000
0010
0000
0100
0000
0010
0000
1000
0000
0000
0010
,
0000
0000
0100
0000
0010
0000
0100
0000
0001
0000
0000
0010
0000
0000
0100
0000
,
0000
0000
0000
0000
1000
0000
0000
0100
0000
0000
0010
0000
0000
0000
0000
0000
,
0001
0000
0000
0100
0000
0000
0010
0000
0000
0000
0000
0000
1000
0000
0000
0010
,
0000
0000
0100
0000
0000
0000
0000
0000
0001
0000
0000
0001
0000
0000
0001
0000
,
0010
0000
0100
0000
1000
0000
0000
1000
0000
0000
1000
0000
0100
0000
0010
0000
,
0002
0000
0000
0100
0103
0000
0020
0000
,
0000
1000
1030
0000
2000
0000
0000
0001
,
3001
0000
0000
0000
1001
0000
0000
1000
0000
0000
0001
0000
0000
2001
0000
0000
,
0000
0000
0000
0100
0000
3100
0000
0000
0000
0020
0000
0000
0000
0000
0000
0001
,
0000
0031
0000
0000
0000
0002
0000
0000
0000
0000
0000
1000
0000
1003
0000
0000
,
0000
1001
0000
0000
1000
0000
0000
0001
0000
0000
1001
0000
0000
0000
0000
0000
;

//---------------dance-single - ----------------
#NOTES:
     dance-single:
     :
     Hard:
     8:
     0.469,0.457,0.240,0.211,0.432:
1000
0000
0000
0100
0000
0000
1000
0000
0000
0001
0000
0000
0100
0000
0101
0000
,
0000
0000
0000
1000
0010
0000
0010
0000
2000
0000
0000
3001
0000
0000
0100
0000
,
0001
0000
0100
0000
0002
0000
0000
1003
0000
0000
0010
0000
1000
0000
0010
0000
,
2000
0000
0000
3001
0000
0000
0010
0000
0001
0000
0010
0000
0001
0000
1000
0010
,
0000
1000
0010
0000
0000
0000
0000
0000
2000
0000
0000
3001
0000
0000
0010
0000
,
0001
0000
0010
0000
0002
0000
0000
1003
0000
0000
0100
0000
1000
0000
0100
0000
,
2000
0000
0000
3001
0000
0000
0100
0000
0001
0000
0100
0000
0001
0000
1000
0100
,
0000
1000
0100
0000
0000
0000
0000
0000
2000
0000
0000
0001
0000
0000
0001
0000
,
3001
0000
0000
0000
0002
0000
0000
1000
0000
0000
1000
0000
1003
0000
0000
0000
,
0010
0000
0000
1000
0000
0000
0010
0000
0100
0000
0010
0000
0100
0000
0000
0001
,
0000
0000
0100
0000
0000
0000
0000
0000
0002
0000
0000
1000
0000
0000
1000
0000
,
1003
0000
0000
0000
2000
0000
0000
0001
0000
0000
0001
0000
3001
0000
0000
0000
,
0100
0000
0000
0001
0000
0000
0100
0000
0010
0000
0100
0000
0010
0000
0000
1000
,
0000
0010
0000
0000
1000
0100
0010
0001
,
0101
0000
0001
0010
0100
1000
1010
0000
,
1000
0000
0100
0000
0010
0000
0001
0000
0101
0000
0000
0000
1010
0000
0000
1010
,
0000
0000
0001
0000
1001
0000
0000
0000
1000
0000
0000
0100
0000
1000
0001
0000
,
0000
0100
0000
0001
0100
0000
0000
0001
0000
1000
0100
0000
0000
1000
0000
0000
,
0001
0000
0000
1000
0000
0001
0100
0000
0000
0001
0000
0100
0001
0000
0000
0100
,
0000
0001
1000
0000
0000
0100
0000
0000
2000
0000
0000
0000
0000
0000
3020
0000
,
0000
0000
0230
0000
0000
0301
0010
0100
,
2000
0000
0000
3020
0000
0000
0230
0000
,
0000
0000
0301
0000
0010
0000
0100
0000
1000
0000
0010
1000
0000
0000
0010
0000
,
0000
0100
0000
0000
0001
0000
0100
0001
0000
0000
0100
0000
0000
0010
0000
0000
,
1000
0000
0100
1000
0000
0000
0100
0000
0000
1000
0000
0000
0001
0000
0100
0001
,
0000
0000
0100
0000
0000
0001
0000
0000
1001
0000
0000
0000
0000
0000
0001
0000
,
0000
0000
0110
0000
0000
1000
0000
0000
,
0010
0000
1000
0010
0000
0100
0001
0000
0000
0000
0000
0000
0000
0000
0001
0100
,
0000
0010
0000
0000
2020
0000
0000
0000
0000
0000
0000
0000
3030
0000
0000
0000
,
0022
0000
0033
2002
,
0000
0000
0000
0000
3003
0000
0000
0000
1001
0000
0000
0000
0000
0000
0000
1000
,
0000
1001
0000
0000
0000
0000
0000
0000
1000
0000
0000
0010
0000
1000
0010
0000
,
0100
0000
0001
0000
0001
0000
0000
0100
0000
0001
0100
0000
0010
0000
1000
0000
,
1000
0000
0000
0100
0000
0010
0100
0000
1000
0000
0001
0000
0001
0000
0000
0010
,
0000
0100
0010
0000
0001
0000
1000
0000
1000
0000
0000
0001
0000
1000
0100
0000
,
0010
0000
0100
0000
0100
0000
0000
1000
0000
0001
0010
0000
0100
0000
0010
0000
,
0001
0100
0010
1000
1100
0001
0100
0010
,
1000
0000
0001
0000
0011
0000
1000
0000
0010
0000
1000
0010
0000
1000
0010
0000
,
1000
0000
0001
0000
0010
0000
0001
0010
0000
0001
0010
0000
0001
0000
1000
0000
,
0100
0000
1000
0100
0000
1000
0100
0000
1000
0000
0001
0000
0100
0000
0001
0100
,
0000
0001
0100
0000
0001
0000
1000
0000
0100
0000
0000
1100
0000
0000
0001
0000
,
0010
0000
0100
0000
0010
0000
0000
0011
0000
0000
1000
0000
0100
0000
0010
0000
,
0100
1000
0001
0010
0010
0000
0100
0010
,
0001
1000
1000
0000
0100
1000
0001
0010
,
0010
0000
0000
0000
0011
0000
0000
0011
0000
0000
1010
0000
0000
0100
0000
0001
,
0000
1000
0000
0100
0000
0100
0000
0000
0000
0010
0000
0100
0000
1000
0000
0001
,
0000
0001
0000
0000
0000
0100
0000
0001
0000
1000
0000
0100
0000
0100
0000
0000
,
0000
1100
0000
0000
1100
0000
0000
0101
0000
0000
1001
0000
0000
0000
0000
0000
;

//---------------dance-single - ----------------
#NOTES:
     dance-single:
     :
     Challenge:
     9:
     0.593,0.526,0.355,0.221,0.638: // measure 1
1100
0000
0000
1001
0000
0000
1010
0000
0000
1001
0000
0000
0011
0000
0011
0000
,  // measure 2
0000
0000
0000
0100
1000
0000
1100
0000
0002
0000
0000
0103
0000
0100
0001
0000
,  // measure 3
1000
0000
0100
0000
0020
0000
0000
0130
0000
0100
0010
0000
0100
0000
1000
0000
,  // measure 4
0020
0000
0000
1030
0000
1000
0010
0000
0100
0000
0001
0000
0010
0001
0010
0100
,  // measure 5
0000
1000
0001
0000
0000
0000
0000
0000
2000
0000
0000
3010
0000
0010
1000
0000
,  // measure 6
0001
0000
0010
0000
0200
0000
0000
0310
0000
0010
0100
0000
0010
0000
0001
0000
,  // measure 7
0200
0000
0000
0301
0000
0001
0100
0000
0010
0000
1000
0000
0100
1000
0100
0010
,  // measure 8
0000
0001
1000
0000
0100
0000
0100
0000
1000
0000
0000
0001
0000
0100
0001
0000
,  // measure 9
0001
0000
0000
0000
1000
0000
0000
0001
0000
0100
0001
0000
0001
0000
1000
0000
,  // measure 10
0010
0000
0000
1010
0000
0000
0010
0000
1000
0000
0100
0000
0010
0000
0001
0000
,  // measure 11
0001
0000
1000
0000
0010
0000
0100
0000
0001
0000
0000
1000
0000
0010
1000
0000
,  // measure 12
1000
0000
0000
0000
0001
0000
0000
1000
0000
0010
1000
0000
1000
0000
0001
0000
,  // measure 13
0100
0000
0000
0101
0000
0000
0100
0000
0001
0000
0010
0000
0100
0000
1000
0000
,  // measure 14
1000
0000
0001
0000
0100
0000
0010
0000
1000
0000
0100
1000
0100
0010
0001
0000
,  // measure 15
0011
0000
0000
0000
0001
0000
0010
0001
0010
0100
1000
0000
1100
0000
0000
0000
,  // measure 16
1000
0000
0100
1000
0100
0010
0001
0000
0011
0000
0000
0000
1100
0000
0000
1100
,  // measure 17
0000
0001
0100
0000
0101
0000
0000
0000
1000
0000
1000
0100
0000
0100
0001
0000
,  // measure 18
0000
0001
0000
0001
0100
0000
0100
1000
0000
1000
0001
0000
0001
1000
0000
0000
,  // measure 19
0001
0000
0001
0100
0000
0100
1000
0000
0000
1000
0000
1000
0100
0000
0100
0001
,  // measure 20
0000
0001
1000
0000
1000
0001
0000
0000
0100
0000
0000
0001
0000
0000
2000
0000
,  // measure 21
0000
0000
0001
0000
3001
0000
0000
0001
0000
0000
0001
0000
1000
0000
0100
0000
,  // measure 22
0010
0000
0000
0001
0000
0000
2000
0000
0000
0000
0001
0000
3001
0000
0000
0001
,  // measure 23
0000
0000
0001
0000
1000
0000
0100
0000
0010
0000
0001
0100
0000
0000
0010
0000
,  // measure 24
1000
0100
0000
0000
0010
0000
0001
1000
0000
0000
0100
0000
0010
0100
0000
0000
,  // measure 25
1000
0001
1000
0001
0000
0001
0100
0000
0100
1000
0000
1000
0001
1000
0001
1000
,  // measure 26
0000
1000
0100
0000
0100
0001
0000
0000
1001
0000
0000
0000
0000
0000
1000
0000
,  // measure 27
0000
1000
0000
0000
0110
0000
0000
0000
0000
0000
0001
0000
0000
0001
0000
0000
,  // measure 28
1000
0000
1000
0100
0000
0100
0001
0000
0000
2000
0000
0000
3000
0000
0001
0100
,  // measure 29
0000
0101
0000
0000
2200
0000
0000
0000
0000
0000
0000
3300
0000
0001
0000
0000
,  // measure 30
0202
0000
0000
0000
0000
0000
0303
0000
0000
1000
0000
0000
2020
0000
0000
0000
,  // measure 31
0000
0000
0000
3030
0000
0001
0000
0000
0022
0000
0000
0000
0000
0033
0000
1000
,  // measure 32
0000
1010
0000
0000
0000
0000
0000
0000
0002
0000
0000
0013
0000
0010
0001
0000
,  // measure 33
1000
0000
0100
0000
0020
0000
0000
0130
0000
0100
0010
0000
0100
0000
1000
0000
,  // measure 34
0200
0000
0000
1300
0000
1000
0100
0000
0010
0000
0001
0000
0200
0000
0000
0301
,  // measure 35
0000
0001
1000
0000
0100
0000
0010
0000
0200
0000
0000
1300
0000
1000
0001
0000
,  // measure 36
0010
0000
0100
0000
0020
0000
0000
0031
0000
0001
1000
0000
0010
0000
0100
0000
,  // measure 37
0001
0000
0010
0000
0100
0000
1100
0000
1001
0000
1000
0001
1000
0000
0100
0000
,  // measure 38
0010
0000
0011
0000
1001
0000
1000
0000
0001
0000
0100
0001
0000
0001
1000
0000
,  // measure 39
1000
0000
0001
0000
1000
0000
0010
1000
0000
1000
0001
0000
0001
0000
1000
0000
,  // measure 40
0001
0000
0010
0001
0000
0001
1000
0000
1000
0000
0001
0000
1000
0000
0100
1000
,  // measure 41
0000
1000
0001
0000
0010
0000
0100
0000
1100
0000
0000
0101
0000
0000
1001
0000
,  // measure 42
0100
0000
0010
0000
0011
0000
0000
1010
0000
0000
1001
0000
0010
0000
0100
0000
,  // measure 43
1000
0000
0010
1000
0010
0100
0001
0000
0001
0000
0000
0000
0001
0000
0100
0001
,  // measure 44
0100
0010
1000
0000
1000
0000
0000
0000
1000
0000
0010
1000
0100
0010
0001
0000
,  // measure 45
0001
0000
0000
0000
1000
0100
0000
0100
0001
0000
0001
0010
0100
1000
0000
0010
,  // measure 46
1000
0001
0010
0100
0000
0110
0000
0000
0000
0001
0000
0100
0001
1000
0100
0010
,  // measure 47
0000
0110
0000
0000
0000
1000
0000
0010
1000
0001
0100
0010
0000
0110
0000
0000
,  // measure 48
0000
0001
0100
0000
0100
1000
0000
1000
0100
0010
1001
0000
0000
0000
0000
0000
;

//---------------dance-single - ----------------
#NOTES:
     dance-single:
     :
     Beginner:
     2:
     0.097,0.137,0.086,0.000,0.019:
0001
0000
0000
1001
,
0000
0000
1000
0000
,
0000
0001
0000
0000
,
1000
0000
0000
1001
,
0000
0000
0001
0000
,
0000
1000
0000
0000
,
0001
0000
0000
1001
,
0000
0000
0100
0000
,
0000
0100
0000
0000
,
0100
0000
0000
0010
,
0000
0000
0010
0000
,
0000
0010
0000
0000
,
0100
0000
0000
0010
,
0000
0000
0100
0000
,
0000
0001
0000
0000
,
1000
0000
0000
0001
,
0000
0000
0001
0000
,
0000
0000
0000
0000
,
1000
0000
0000
0000
,
0000
0000
0001
0000
,
0000
0001
0000
0000
,
1000
0000
0000
1000
,
0000
0000
0001
0000
,
0000
0100
0000
0000
,
0001
0000
0000
1000
,
0000
0000
0100
0000
,
0000
0100
0000
0000
,
0100
0000
0000
0000
,
0000
0110
0000
0000
,
0110
0000
0000
0110
,
0000
0000
1001
0000
,
0000
0000
0001
0000
,
0000
0001
0000
0000
,
1000
0000
0000
1000
,
0000
0000
0010
0000
,
0000
0100
0000
0000
,
0001
0000
0000
0010
,
0000
0000
0100
0000
,
0000
0100
0000
0000
,
0010
0000
0000
0010
,
0000
0000
0001
0000
,
0000
1000
0000
0000
,
0010
0000
0000
0010
,
0000
0000
0010
0000
,
0000
0000
0000
0000
0110
0000
0000
0000
0000
0000
0000
0000
0000
0001
0000
0000
,
0000
0000
0000
0000
0000
0000
0000
0000
0000
0001
0000
0000
0000
0000
0000
0000
,
0000
0000
0000
0000
0000
1000
0000
0000
0000
0000
0000
0000
0000
0000
0000
0000
,
0000
1000
0000
0000
0000
0000
0000
0000
0000
0000
1001
0000
0000
0000
0000
0000
;
