#TITLE:ラクエン Feat. Chiharu Chonan;
#SUBTITLE:-JAKA respect for K.S.K.Remix;
#ARTIST:Remixed by JAKAZiD;
#TITLETRANSLIT:RAKUEN Feat. Chiharu Chonan;
#SUBTITLETRANSLIT:;
#ARTISTTRANSLIT:;
#CREDIT:DMAxel;
#BANNER:RAKUEN Feat. Chiharu Chonan -JAKA respect for K.S.K.Remix.png;
#BACKGROUND:RAKUEN Feat. Chiharu Chonan -JAKA respect for K.S.K.Remix-bg.png;
#LYRICSPATH:RAKUEN Feat. Chiharu Chonan -JAKA respect for K.S.K.Remix.lrc;
#CDTITLE:Konami original REMIX.png;
#MUSIC:RAKUEN Feat. Chiharu Chonan -JAKA respect for K.S.K.Remix.mp3;
#OFFSET:-12.540;
#SAMPLESTART:78.326;
#SAMPLELENGTH:12.000;
#SELECTABLE:YES;
#BPMS:0.000=175.000,32.000=87.500,95.000=175.000;
#STOPS:94.000=0.686
;
#BGCHANGES:;

//---------------dance-single - ----------------
#NOTES:
     dance-single:
     :
     Easy:
     3:
     0.204,0.275,0.228,0.008,0.000: // measure 1
1000
0000
0100
0000
,  // measure 2
1000
0000
0100
0000
,  // measure 3
0010
0000
0001
0000
,  // measure 4
0010
0000
0001
0000
,  // measure 5
0100
0000
0000
0000
,  // measure 6
0110
0000
0000
0000
,  // measure 7
1001
0000
0001
0000
,  // measure 8
1000
0000
0000
0000
,  // measure 9
1001
0000
0000
0000
,  // measure 10
0010
0000
0000
0000
,  // measure 11
0100
0000
0000
0000
,  // measure 12
0010
0000
0100
0000
,  // measure 13
1001
0000
0000
0000
,  // measure 14
0001
0000
0000
0000
,  // measure 15
1000
0000
0000
0000
,  // measure 16
0001
0000
1000
0000
,  // measure 17
0010
0000
0010
0000
,  // measure 18
0010
0000
0010
0000
,  // measure 19
0100
0000
0100
0000
,  // measure 20
0100
0000
0100
0000
,  // measure 21
0001
1000
0001
0000
,  // measure 22
1000
0001
1000
0000
,  // measure 23
0010
1000
0010
0000
,  // measure 24
0100
0001
0000
1001
,  // measure 25
0000
0001
0000
0001
,  // measure 26
0000
0001
0000
1000
,  // measure 27
0000
1000
0000
1000
,  // measure 28
0000
1000
0000
0001
,  // measure 29
0000
0001
0000
1000
,  // measure 30
0000
1000
0000
1000
,  // measure 31
0001
1000
0001
0000
,  // measure 32
0000
0000
0000
1001
,  // measure 33
0000
0100
0000
1001
,  // measure 34
0000
0100
0000
1100
,  // measure 35
0000
0100
0000
1100
,  // measure 36
0000
0100
0000
1001
,  // measure 37
0000
0010
0000
1001
,  // measure 38
0000
0010
0000
1001
,  // measure 39
0000
0010
0000
0011
,  // measure 40
0000
0010
0000
0001
,  // measure 41
1000
0001
0000
0100
,  // measure 42
0010
0100
0000
0001
,  // measure 43
0010
0100
0000
1000
,  // measure 44
0100
0010
0001
1000
,  // measure 45
0100
1000
0000
0001
,  // measure 46
0010
0001
0000
0100
,  // measure 47
0000
0110
0000
0100
,  // measure 48
0001
1000
0000
1001
,  // measure 49
1000
1001
0000
1001
,  // measure 50
0001
1001
0000
0110
,  // measure 51
0100
0110
0000
0110
,  // measure 52
0010
0100
0001
1001
,  // measure 53
1000
1001
0000
1001
,  // measure 54
0001
1001
0000
0110
,  // measure 55
0100
0110
0000
0110
,  // measure 56
0010
0100
0000
1001
,  // measure 57
0010
0100
1000
0001
,  // measure 58
1000
0001
1000
0100
,  // measure 59
0010
0001
1000
0001
,  // measure 60
0100
0010
0100
0010
,  // measure 61
1000
0010
1000
0001
,  // measure 62
0100
0001
0100
0010
,  // measure 63
1000
0010
0100
0002
,  // measure 64
0000
0000
0000
0003
;

//---------------dance-single - ----------------
#NOTES:
     dance-single:
     :
     Medium:
     6:
     0.351,0.425,0.196,0.212,0.039: // measure 1
0001
1000
0002
0000
,  // measure 2
1003
0001
2000
0000
,  // measure 3
3010
0100
0020
0000
,  // measure 4
0130
0010
0200
0000
,  // measure 5
0301
0000
0000
0000
,  // measure 6
1010
0000
0000
0000
,  // measure 7
1001
0001
1000
0001
,  // measure 8
0220
0000
0000
0330
,  // measure 9
1002
0000
0000
0000
,  // measure 10
0203
0000
0000
0000
,  // measure 11
0320
0000
0000
0000
,  // measure 12
2030
0000
0000
0000
0002
0000
0000
3003
,  // measure 13
2001
0000
0000
0000
,  // measure 14
3020
0000
0000
0000
,  // measure 15
0230
0000
0000
0000
,  // measure 16
0302
0000
0000
0000
2003
0000
0000
3000
,  // measure 17
0020
0000
0000
0000
0000
0100
0000
0000
0230
0000
0000
0000
0000
0001
0000
0000
,  // measure 18
0302
0000
0000
0000
0000
1000
0000
0000
2003
0000
0000
0000
0000
0010
0000
0000
,  // measure 19
3020
0000
0000
0000
0000
0100
0000
0000
0230
0000
0000
0000
0000
0001
0000
0000
,  // measure 20
0302
0000
0000
0000
0000
1000
0000
0000
2003
0000
0000
0000
0000
3001
0000
0000
,  // measure 21
1001
0100
0010
0000
0001
0010
0100
1000
,  // measure 22
0001
0010
0100
0000
1000
0100
0010
0001
,  // measure 23
1001
0000
0100
0000
0010
0000
0001
0000
2001
0000
0000
0000
0000
0001
0000
0000
,  // measure 24
3001
0110
0000
1001
,  // measure 25
0100
1000
0100
1000
,  // measure 26
0100
1000
0100
1001
,  // measure 27
0010
0001
0010
0001
,  // measure 28
0010
0001
0010
1001
,  // measure 29
0010
1000
0010
1001
,  // measure 30
0100
0001
0100
1001
,  // measure 31
1001
0110
0110
0000
,  // measure 32
0000
0000
0000
0000
0000
0000
0001
0100
,  // measure 33
0001
0000
0010
0000
0100
0000
1000
0010
,  // measure 34
0100
0000
0001
1000
0001
0000
1000
0010
,  // measure 35
1000
0000
0100
0000
0010
0000
0001
0100
,  // measure 36
0010
0000
1000
0001
1000
0000
0001
0010
,  // measure 37
0001
0000
0100
0000
0010
0000
1000
0100
,  // measure 38
0010
0000
0100
0010
0100
0000
1000
0100
,  // measure 39
1000
0000
0010
0000
0100
0000
0001
0010
,  // measure 40
0100
0000
0010
0100
0010
0000
0001
1000
,  // measure 41
0001
1000
0001
0000
0010
0000
0100
1000
,  // measure 42
0100
0000
0010
0001
0010
0000
0001
1000
,  // measure 43
0001
1000
0001
0000
0010
0000
0100
1000
,  // measure 44
0100
0000
0010
0001
0010
0000
1001
0000
,  // measure 45
0100
1000
0100
0001
,  // measure 46
0100
1000
0001
0110
,  // measure 47
0000
0000
0000
0000
0110
0000
0000
0000
0000
0000
0000
0000
0100
0000
0000
0010
,  // measure 48
0000
2000
0000
0000
3000
0000
1001
0000
,  // measure 49
0001
0100
0001
0000
0001
0100
0001
0000
,  // measure 50
0001
0100
0010
0000
1000
0100
1000
0000
,  // measure 51
1000
0100
1000
0000
1000
0010
0100
0000
,  // measure 52
0001
0100
1000
1001
,  // measure 53
0001
0010
0001
0000
0001
0010
0001
0000
,  // measure 54
0001
0100
0010
0000
1000
0010
1000
0000
,  // measure 55
1000
0010
1000
0000
1000
0010
0100
0000
,  // measure 56
0001
0000
0100
0000
0000
0000
0001
0100
,  // measure 57
0001
0100
0010
0000
1000
0000
1000
0010
,  // measure 58
1000
0010
0100
0000
0001
0000
0001
0010
,  // measure 59
0001
0010
0100
0000
1000
0000
0100
0000
,  // measure 60
0010
0001
1000
0110
,  // measure 61
0001
0100
0010
0100
0001
0000
0110
0000
,  // measure 62
1000
0010
0100
0010
1000
0000
0110
0000
,  // measure 63
0001
0100
0010
0100
0001
0000
2000
0000
,  // measure 64
0000
0000
0000
3001
;

//---------------dance-single - ----------------
#NOTES:
     dance-single:
     :
     Hard:
     7:
     0.459,0.575,0.235,0.126,0.181: // measure 1
1000
0000
0001
0100
0000
1000
0000
0100
,  // measure 2
0000
0001
0000
1000
0000
0010
0100
0010
,  // measure 3
1000
0000
0001
0100
0000
1000
0000
0100
,  // measure 4
0000
0001
0000
1000
0001
0000
0010
0000
,  // measure 5
0022
0000
0000
0033
,  // measure 6
2200
0000
0000
3300
,  // measure 7
1000
0001
1000
0100
0010
0001
1000
0010
,  // measure 8
0200
0000
0000
0300
,  // measure 9
2001
0000
0000
0001
0000
0000
0001
0000
0000
0000
0000
0000
0000
0000
0000
0000
,  // measure 10
3002
0000
0000
1000
0000
0000
1000
0000
0000
0000
0000
0000
0000
0000
0000
0000
,  // measure 11
0203
0000
0000
0010
0000
0000
0010
0000
0000
0000
0000
0000
0000
0000
0000
0000
,  // measure 12
0320
0000
0000
0100
0000
0000
2030
0000
0001
0000
0000
0001
0000
0000
3001
0000
,  // measure 13
1002
0000
0000
1000
0000
0000
1000
0000
0000
0000
0000
0000
0000
0000
0000
0000
,  // measure 14
2003
0000
0000
0001
0000
0000
0001
0000
0000
0000
0000
0000
0000
0000
0000
0000
,  // measure 15
3020
0000
0000
0100
0000
0000
0100
0000
0000
0000
0000
0000
0000
0000
0000
0000
,  // measure 16
0230
0000
0000
0010
0000
0000
0010
0000
0302
0000
0000
1000
0000
0000
1003
0000
,  // measure 17
1100
0000
0100
0000
0000
1001
0000
0000
0011
0000
0010
0000
0000
1001
0000
0000
,  // measure 18
1010
0000
0010
0000
0000
1001
0000
0000
0101
0000
0100
0000
0000
1001
0000
0000
,  // measure 19
1100
0000
0100
0000
0000
1001
0000
0000
0011
0000
0010
0000
0000
1001
0000
0000
,  // measure 20
1010
0000
0010
0000
0000
1001
0000
0000
0101
0000
0100
0000
0000
1001
0000
0000
,  // measure 21
1001
0000
0010
0000
0100
1000
0100
0000
0001
0000
0100
0000
1000
0001
1000
0000
,  // measure 22
0100
0000
0010
0000
0001
0010
0001
0000
0100
0000
1000
0000
0100
0001
0100
0000
,  // measure 23
1001
0000
0010
0000
1000
0010
1000
0000
1001
0000
0100
0000
0001
0100
0001
0000
,  // measure 24
1001
1000
1001
0001
0000
0000
1000
0100
,  // measure 25
0010
0000
0001
0000
0010
0100
0010
0000
,  // measure 26
0001
0100
1000
0000
1000
0100
0001
0010
,  // measure 27
0100
0000
1000
0000
0100
0010
0100
0000
,  // measure 28
1000
0100
0001
0000
0001
0100
1000
0100
,  // measure 29
0010
0000
0001
0000
0010
0100
0010
0000
,  // measure 30
0001
0100
1000
0000
1000
0100
0001
0010
,  // measure 31
0100
1000
0001
0010
0100
1000
0000
0000
,  // measure 32
0000
0000
0000
0000
1001
0000
1000
0100
,  // measure 33
0001
0000
0000
0100
0000
0000
1000
0000
0001
0000
0000
0001
0000
0000
0100
0000
,  // measure 34
0010
0100
0000
0001
1000
0001
1000
0100
,  // measure 35
0001
0000
0000
0100
0000
0000
1000
0000
0001
0000
0000
0001
0000
0000
0100
0000
,  // measure 36
0001
0010
0000
0100
1000
0010
0100
0010
,  // measure 37
1000
0000
0000
1000
0000
0000
0001
0000
0100
0000
0000
1000
0000
0000
0100
0000
,  // measure 38
0001
1000
0000
0010
0100
0001
0100
0010
,  // measure 39
1000
0000
0000
1000
0000
0000
0001
0000
0100
0000
0000
1000
0000
0000
0100
0000
,  // measure 40
0001
1000
0000
0010
0100
0001
1000
0100
,  // measure 41
0010
0000
0000
0001
0000
0000
1000
0000
0100
0000
0000
1000
0000
0000
0001
0000
,  // measure 42
0010
0000
0000
0001
0000
0000
1000
0000
0100
0000
0000
1000
0000
0000
0100
0000
,  // measure 43
0010
0000
0000
0001
0000
0000
1000
0000
0010
0000
0000
1000
0000
0000
0001
0000
,  // measure 44
0100
0000
0000
0001
0000
0000
1000
0000
0010
0000
0000
1000
0000
0000
0001
0000
,  // measure 45
0010
0000
0000
0100
0000
0000
1000
0000
0001
0000
0000
0100
0000
0000
0001
0000
,  // measure 46
1000
0000
0000
0010
0000
0000
0100
0000
0010
0000
0000
0000
0110
0000
0000
0000
,  // measure 47
0000
0000
0000
0000
0110
0000
0000
0000
0000
0000
0000
0000
0110
0000
0000
0110
,  // measure 48
0000
0000
0001
1000
0001
0000
0000
1000
0000
0000
0001
0000
0010
0000
0100
0000
,  // measure 49
1000
0100
0001
0000
0100
1000
0001
0000
,  // measure 50
1000
0100
0001
0000
0100
1000
0001
0000
,  // measure 51
1000
0100
0001
0000
0100
1000
0001
0010
,  // measure 52
0100
0010
0001
1000
0010
0100
0010
1000
,  // measure 53
0001
0100
1000
0000
0100
0001
1000
0000
,  // measure 54
0001
0100
1000
0000
0100
0001
1000
0000
,  // measure 55
0001
0100
1000
0000
0100
0001
1000
0100
,  // measure 56
0010
0100
1000
0000
0000
0000
0001
1000
,  // measure 57
0001
0100
1000
0100
0001
0000
1000
0100
,  // measure 58
0001
0100
1000
0001
1000
0000
0001
1000
,  // measure 59
0001
0010
1000
0010
0001
0000
1000
0100
,  // measure 60
0001
0100
1000
0100
0010
0100
1000
0000
,  // measure 61
0100
0001
0100
1000
0010
0100
0001
0000
,  // measure 62
0100
1000
0100
0001
0100
0010
1000
0000
,  // measure 63
0100
0001
0100
1000
0100
0010
0002
0000
,  // measure 64
0000
0000
0000
1003
;

//---------------dance-single - ----------------
#NOTES:
     dance-single:
     :
     Challenge:
     9:
     0.572,0.675,0.078,0.181,0.518:
0001
0000
0100
0000
0001
0000
0000
0000
1000
0000
0000
0100
0000
0000
0010
0000
,
0000
0000
0100
0000
1000
0000
0001
0000
1000
0000
0000
0100
0000
0000
0010
0000
,
0001
0000
1000
0000
0100
0000
1000
0000
0001
0000
0000
0010
0000
0000
0100
0000
,
0000
0000
0010
0000
0001
0000
1000
0000
0001
0000
0000
0010
0000
0000
0100
0000
,
0110
0010
0010
0010
,
1001
1000
1000
1000
,
1001
0100
0010
0001
0100
1000
0100
0010
,
2000
0000
0000
3000
,
0001
0010
0001
0010
0100
0000
1000
0100
0000
1000
0000
0100
0000
0010
0000
0001
,
0000
1000
0000
0010
0000
0100
0000
0200
0000
0000
0001
0000
0000
0301
0000
0000
,
0100
0000
0010
0100
0000
0001
0000
2000
0000
0000
3010
0100
0000
0001
0000
0100
,
0020
0000
0000
1000
0000
0000
1030
0000
0002
0000
0000
0100
0000
0000
0103
0000
,
0001
0100
0001
0100
0010
0000
1000
0010
0000
0100
0000
0010
0000
1000
0100
0010
,
0001
0000
0100
0010
0000
1000
0000
0002
0000
0000
1000
0000
0000
1003
0000
0000
,
0020
0000
0000
0000
0000
0000
0100
0000
0000
0000
0000
0000
0130
0000
0000
0000
0000
0000
0000
0000
0000
0000
0000
0000
0000
0000
0001
0000
0000
0001
0000
0000
,
1000
0010
0000
0100
0000
0001
0000
0010
0000
0000
0100
0010
0000
0001
0000
1000
,
0001
0010
0100
1000
0001
0100
0000
0001
1000
0001
0000
0100
0000
0010
0100
0010
,
1000
0100
0010
0001
1000
0010
0000
1000
0001
1000
0000
0010
0000
0100
0010
0100
,
0001
0000
1000
0000
0001
0100
0000
0001
0100
0000
0001
0000
1000
0100
0000
1000
,
0200
0000
0010
0000
0000
0310
0000
0001
1000
0001
0000
0010
0000
0100
0010
0000
,
0001
0010
0100
1000
0001
0100
0000
0001
0100
0001
0000
1000
0000
0100
0010
0100
,
1000
0100
0010
0001
1000
0010
0000
0100
0010
0100
0000
0001
0000
1000
0000
0010
,
0120
0000
1000
0000
1030
0100
0010
0001
0200
0000
0001
0000
0301
0010
0100
1000
,
0001
0100
0110
1000
0000
0000
0001
0100
,
0010
0000
0000
1000
0000
0000
0100
0000
1000
0000
0000
0100
0000
0000
1000
0000
,
0100
0000
0000
0001
0000
0000
0100
0000
1000
0000
0000
0001
0000
0000
0100
0000
,
0010
0000
0000
0100
0000
0000
0010
0000
0100
0000
0000
0001
0000
0000
0010
0000
,
0100
0000
0000
1000
0000
0000
0010
0000
0100
0000
0000
0001
0000
0000
0100
0000
,
0001
0000
0000
1000
0000
0000
0010
0000
1000
0000
0000
0001
0000
0000
0100
0000
,
0001
0000
0000
1000
0000
0000
0010
0000
1000
0000
0000
0000
1001
0000
0100
0000
,
0010
0001
1000
0100
0010
0001
0200
0000
,
0320
0000
0230
0000
0310
0000
1000
0010
,
0100
0000
0001
0100
0000
0000
0010
0000
0100
0000
0001
0100
0000
0000
0001
0000
,
0200
0000
0000
0301
0000
0000
1000
0000
0200
0000
0000
1300
0000
0000
0001
0000
,
0100
0000
0010
0100
0000
0000
0001
0000
0100
0000
0010
0100
0000
0000
0001
0000
,
0020
0000
0000
0031
0000
0000
1000
0000
0020
0000
0000
1030
0000
0000
0010
0000
,
0100
0000
0010
1000
0000
0000
0010
0000
0100
0000
0010
1000
0000
0000
0001
0000
,
2000
0000
0000
3100
0000
0000
1000
0000
0002
0000
0000
0103
0000
0000
0001
0000
,
1000
0000
0100
1000
0000
0000
0001
0000
1000
0000
0100
1000
0000
0000
0001
0000
,
2000
0000
0000
3010
0000
0000
1000
0000
0002
0000
0000
0013
0000
0000
0001
0000
,
1000
0000
0100
0010
0000
0000
0001
0000
1000
0000
0100
0010
0000
0000
0001
0000
,
0100
0000
0001
1000
0000
0000
1000
0000
0010
0000
1000
0001
0000
0000
0010
0000
,
0100
0000
1000
0001
0000
0000
0010
0000
0100
0000
1000
0001
0000
0000
0100
0000
,
0010
0000
1000
0100
0000
0000
0010
0000
0001
0000
0100
0010
0000
0000
1000
0000
,
0100
0000
0010
0100
0000
0000
1000
0000
0001
0000
0010
0100
0000
0000
0010
0000
,
0001
0000
1000
0010
0000
0000
0100
0000
0001
0000
1000
0001
1000
0000
0000
0000
,
0000
0000
0000
0000
1100
0000
0000
0000
0000
0000
0000
0000
0011
0000
0000
1001
,
0000
0000
1000
0001
1000
0000
0000
1001
0000
0000
0001
0000
0100
0000
0010
0000
,
1000
0100
0001
0100
1000
0100
0001
0100
,
1000
0010
0001
0010
1000
0010
0001
0010
,
1000
0100
0001
0100
1000
0100
0001
0100
,
1000
0100
0010
0001
1000
0010
0100
0010
,
1000
0010
0001
0010
1000
0010
0001
0010
,
1000
0100
0001
0100
1000
0100
0001
0100
,
1000
0010
0001
0010
1000
0010
0001
0010
,
1000
0010
0200
0000
0000
0000
0301
0100
,
1000
0100
0001
0010
1000
0010
0001
0100
,
1000
0100
0001
0010
1000
0010
0001
0100
,
1000
0100
0001
0010
1000
0010
0001
0010
,
0100
1000
0001
0100
0010
1000
0001
0010
,
1000
0010
0001
0100
1000
0100
0001
0010
,
1000
0010
0001
0100
1000
0100
0001
0010
,
1000
0010
0001
0100
1000
0100
0001
0100
,
0000
0020
0000
0000
1000
0000
1030
0000
;

//---------------dance-single - ----------------
#NOTES:
     dance-single:
     :
     Beginner:
     1:
     0.084,0.148,0.055,0.000,0.000: // measure 1
1000
0000
0000
0000
,  // measure 2
0001
0000
0000
0000
,  // measure 3
1000
0000
0000
0000
,  // measure 4
0001
0000
0000
0000
,  // measure 5
1001
0000
0000
0000
,  // measure 6
0110
0000
0000
0000
,  // measure 7
1001
0000
1000
0000
,  // measure 8
1001
0000
0000
0000
,  // measure 9
0001
0000
0000
0000
,  // measure 10
0010
0000
0000
0000
,  // measure 11
0100
0000
0000
0000
,  // measure 12
1000
0000
0000
0000
,  // measure 13
0001
0000
0000
0000
,  // measure 14
1000
0000
0000
0000
,  // measure 15
0001
0000
0000
0000
,  // measure 16
1000
0000
0001
0000
,  // measure 17
1000
0000
0000
0000
,  // measure 18
1000
0000
0000
0000
,  // measure 19
0001
0000
0000
0000
,  // measure 20
0001
0000
0000
0000
,  // measure 21
0100
0000
0000
0000
,  // measure 22
0010
0000
0000
0000
,  // measure 23
1000
0000
0001
0000
,  // measure 24
1000
0000
0000
0001
,  // measure 25
0000
0000
0000
0001
,  // measure 26
0000
0000
0000
1000
,  // measure 27
0000
0000
0000
1000
,  // measure 28
0000
0000
0000
0001
,  // measure 29
0000
0000
0000
0001
,  // measure 30
0000
0000
0000
1000
,  // measure 31
0000
0001
0000
1000
,  // measure 32
0000
0000
0000
1001
,  // measure 33
0000
0000
0000
0001
,  // measure 34
0000
0000
0000
1000
,  // measure 35
0000
0000
0000
0001
,  // measure 36
0000
0000
0000
0010
,  // measure 37
0000
0000
0000
0100
,  // measure 38
0000
0000
0000
0010
,  // measure 39
0000
0000
0000
0100
,  // measure 40
0000
0000
0000
1000
,  // measure 41
0000
0000
0000
0001
,  // measure 42
0000
0000
0000
1000
,  // measure 43
0000
0000
0000
0001
,  // measure 44
0000
0000
0000
0100
,  // measure 45
0000
0000
0000
0010
,  // measure 46
0000
0000
0000
0100
,  // measure 47
0000
0000
0000
0100
,  // measure 48
0000
0000
0000
1001
,  // measure 49
0000
0000
0000
0001
,  // measure 50
0000
0000
0000
0010
,  // measure 51
0000
0000
0000
0100
,  // measure 52
0000
0000
0000
1000
,  // measure 53
0000
0000
0000
0100
,  // measure 54
0000
0000
0000
0010
,  // measure 55
0000
0000
0000
0001
,  // measure 56
0000
0000
0000
1001
,  // measure 57
0000
0000
0000
0100
,  // measure 58
0000
0000
0000
0010
,  // measure 59
0000
0000
0000
0001
,  // measure 60
0000
0000
0000
0010
,  // measure 61
0000
0000
0000
0100
,  // measure 62
0000
0000
0000
1000
,  // measure 63
0000
0000
0000
0001
;
