#TITLE:Quick Master;
#SUBTITLE:-Naked Trance Mix-;
#ARTIST:SADA;
#TITLETRANSLIT:;
#SUBTITLETRANSLIT:;
#ARTISTTRANSLIT:;
#CREDIT:DMAxel;
#BANNER:Quick Master -Naked Trance Mix-.png;
#BACKGROUND:Quick Master -Naked Trance Mix--bg.png;
#LYRICSPATH:;
#CDTITLE:Pop'n Music.png;
#MUSIC:Quick Master -Naked Trance Mix-.mp3;
#OFFSET:0.000;
#SAMPLESTART:26.862;
#SAMPLELENGTH:12.000;
#SELECTABLE:YES;
#BPMS:0.000=145.200,29.000=72.600,33.000=145.200;
#STOPS:197.000=1.240
;
#BGCHANGES:;

//---------------dance-single - ----------------
#NOTES:
     dance-single:
     :
     Easy:
     2:
     0.156,0.196,0.199,0.000,0.000:
0000
0000
0000
0000
,
0000
0000
0000
0000
,
0000
0000
0000
0000
,
0000
0000
0000
0000
,
0000
0100
0000
1000
,
0000
0010
0000
1000
,
0000
0001
0000
0000
,
0000
0000
0100
0010
0100
0010
0000
0000
,
0000
1001
0000
0000
,
0000
0100
0000
0000
,
0000
1000
0000
0000
,
0000
0001
0000
0000
,
0000
0010
0000
0000
,
0000
1001
0000
0000
,
0000
0100
0000
0000
,
0000
0010
0000
0010
,
0000
0100
0000
0100
,
0000
0001
0000
1000
,
0000
0001
0000
1000
,
0000
0010
0000
0010
,
0000
0100
0100
0100
,
0000
0001
0000
0010
,
0000
0001
0000
1000
,
0000
1001
0000
0000
,
0000
0100
0000
0000
,
0000
1000
0000
1100
,
0000
0011
0000
1100
,
0000
0001
0000
0000
,
0000
0010
0000
0000
,
0000
0011
0000
1100
,
0000
0101
0000
1010
,
0000
1001
0000
0000
,
0000
0010
0000
0000
,
0000
0100
0000
0100
,
0000
0010
0000
0010
,
0000
1000
0000
1000
,
0000
0001
0000
0001
,
0000
1000
0000
0001
,
0000
0100
0000
0010
,
0000
0100
0000
0001
,
0000
0011
0000
1100
,
0000
1001
0000
0000
,
0000
0100
0000
1000
,
0000
0010
0000
0000
,
0000
0100
0000
0001
,
0000
0011
0000
0000
,
0000
1100
0000
1000
,
0000
1001
0000
0010
,
0000
0100
0000
0001
,
0000
1001
1000
0000
,
0000
0000
0100
0000
,
0000
0000
1000
0000
,
0000
0000
0010
0000
,
0000
0000
0100
0000
,
0001
0000
0010
0000
,
0100
0000
1001
0000
,
0100
0000
1001
0000
,
0000
0000
0010
0000
,
0100
0000
0001
0000
,
0010
0000
0001
0000
,
1000
0000
0100
0000
,
1000
0000
1001
0000
,
0010
0000
0100
0000
,
0001
0000
1001
0000
,
1000
0000
0100
1000
,
0001
0010
1001
0000
,
0000
0000
0000
0000
,
0000
0000
1001
0000
;

//---------------dance-single - ----------------
#NOTES:
     dance-single:
     :
     Challenge:
     8:
     0.521,0.503,0.406,0.033,0.373: // measure 1
0000
0000
0000
0000
,  // measure 2
0000
0000
0000
0000
,  // measure 3
0000
0000
0000
0000
,  // measure 4
0000
0000
0000
0000
,  // measure 5
0000
0011
0010
1010
,  // measure 6
1000
1001
0001
0101
,  // measure 7
0100
1100
1000
0100
,  // measure 8
0010
0000
0001
0100
0010
1000
0002
0000
,  // measure 9
0003
1001
0000
0011
,  // measure 10
0011
0000
1000
0100
0001
0100
0010
0100
,  // measure 11
0001
0000
0001
0100
1000
0010
0100
0010
,  // measure 12
1000
0000
1000
0010
0001
0100
0010
0100
,  // measure 13
0001
0000
0001
0010
1000
0100
1000
0010
,  // measure 14
0100
0000
0010
0000
1001
0000
0000
0000
0010
0000
0000
0001
0010
0000
0001
0000
,  // measure 15
0100
0000
0000
0000
0010
0000
0000
0000
0100
0000
0000
0010
1000
0000
0100
0000
,  // measure 16
1000
0001
1000
0001
1000
0000
0000
0100
0000
0000
1000
0000
0010
0000
0000
0100
,  // measure 17
0000
0000
0010
0000
1000
0000
0000
0001
0000
0000
0010
0000
0001
0000
0000
0100
,  // measure 18
0000
0000
0010
0000
1000
0000
0000
0100
0000
0000
1000
0000
1001
0000
0000
0010
,  // measure 19
0000
0000
0001
0000
1001
0000
0000
0010
0000
0000
1000
0000
1001
0000
0000
0100
,  // measure 20
0000
0000
0001
0000
1001
0000
0000
0010
0000
0000
0001
0000
0010
0001
0000
0100
,  // measure 21
0001
0000
0010
0000
0001
0000
0100
0010
0000
0000
0010
1000
0000
0000
1000
0010
,  // measure 22
0000
0000
0010
0000
0100
0000
0000
0001
0000
0000
0010
0000
1001
0000
0000
1000
,  // measure 23
0000
0100
1001
0000
0010
0010
1001
0000
,  // measure 24
0100
0000
0100
0000
1001
0000
0000
0010
0000
0000
0100
0000
1000
0000
0000
0100
,  // measure 25
0000
0000
0010
0000
0001
0100
0000
0010
0000
0000
1000
0000
0010
0100
0000
0001
,  // measure 26
0000
0000
0100
0000
0010
1000
0000
0100
0000
0000
1000
0000
0010
0100
0000
0001
,  // measure 27
0000
0000
0010
0000
0001
0010
0000
0100
0000
0000
1000
0000
0100
0010
0000
0001
,  // measure 28
0000
0000
0100
0000
0001
0000
0000
0100
0000
0000
0010
0000
1010
0000
0000
1000
,  // measure 29
0000
0000
0001
0000
0101
0000
0000
1000
0000
0000
0100
0000
1100
0000
0000
0001
,  // measure 30
0000
0000
0010
0000
0011
0000
0000
0100
0000
0000
0010
0000
1010
0000
0000
0101
,  // measure 31
0000
0000
1001
0000
0010
0001
0000
0100
0000
0000
0010
1000
0010
0000
0100
0000
,  // measure 32
0001
0000
1000
0000
1001
0000
0000
0000
0100
0000
0000
0010
1000
0000
0010
0000
,  // measure 33
0100
0000
0000
0000
0001
0000
0000
0100
0001
0000
0100
0000
0020
0000
0000
0000
,  // measure 34
0000
0000
0000
0000
0130
0000
0000
0100
0000
0000
1000
0000
0010
0100
0000
0000
,  // measure 35
0010
0100
0000
0000
0001
0000
0000
0010
0000
0000
0001
0000
0100
0000
0000
0010
,  // measure 36
0000
0000
0100
0000
0010
0000
0000
1000
0000
0000
0010
0000
0100
0010
0000
0000
,  // measure 37
0100
0010
0000
0000
1000
0000
0000
0010
0000
0000
1000
0000
0010
0000
0000
0100
,  // measure 38
0000
0000
0010
0000
0100
0000
0000
0001
0000
0000
0100
0000
0001
1000
0000
0000
,  // measure 39
0001
1000
0000
0000
0010
0000
0000
0100
0000
0000
0010
0000
1000
0000
0000
0100
,  // measure 40
0000
0000
1000
0000
0001
0000
0000
0010
0000
0000
0001
0000
1000
0001
0000
0000
,  // measure 41
1000
0001
0000
0000
0101
0000
0000
0001
0000
0000
0100
0000
1010
0000
0000
0100
,  // measure 42
0000
0000
0010
0000
1001
0000
0000
0010
0000
0000
0001
0000
0100
0010
0000
0000
,  // measure 43
0010
0100
0000
0000
0010
0000
0000
1000
0000
0000
0010
0000
0100
0000
0000
0001
,  // measure 44
0000
0000
0100
0000
0010
0000
0000
0100
0000
0000
0010
0000
0100
0001
0000
0000
,  // measure 45
0001
0100
0000
0000
0010
0000
0000
0100
0000
0000
0010
0000
1000
0000
0000
0100
,  // measure 46
0000
0000
1000
0000
1100
0000
0000
0010
0000
0000
0001
0000
0100
0010
0000
0000
,  // measure 47
0100
0010
0000
0000
0011
0000
0000
0100
0000
0000
1000
0000
0010
0000
0000
0100
,  // measure 48
0000
0000
0001
0000
1000
0001
0000
0010
0000
0000
0001
0000
0100
0000
0000
0010
,  // measure 49
0000
0000
1000
0000
0010
0100
0000
0001
0000
0000
1000
0100
1000
0000
0010
0000
,  // measure 50
0100
0001
1001
0000
0011
0000
0100
0000
,  // measure 51
0010
0000
0100
0000
1001
0000
0001
0010
,  // measure 52
0000
0010
1000
0000
1001
0000
0001
0000
,  // measure 53
1000
0000
0001
0000
1001
0000
1000
0100
,  // measure 54
0000
0010
0000
0001
1001
0000
0010
0000
,  // measure 55
1010
0100
0101
0010
,  // measure 56
0110
0100
1001
0000
,  // measure 57
0011
0000
1000
1000
1001
0000
0000
0000
,  // measure 58
0010
0000
0100
0010
0100
0000
0001
0000
1000
0000
0010
0000
0100
0000
0010
0000
,  // measure 59
1000
0010
0100
0010
1001
0000
0001
0100
,  // measure 60
0000
0010
1000
0000
1001
0100
0010
0100
,  // measure 61
0001
0100
0010
0100
1001
0000
0001
0100
,  // measure 62
0000
0010
0000
1000
1001
0000
0010
0001
,  // measure 63
0010
0100
0000
0000
1000
0000
0100
0000
1000
0010
0000
0000
0100
0000
0001
0000
,  // measure 64
0100
0010
0000
0000
1000
0000
0100
0000
1001
0000
0010
0000
0001
0000
0100
0000
,  // measure 65
0001
0010
1000
0100
1000
0010
1000
0100
,  // measure 66
0001
0010
0001
0100
0022
0000
0000
0000
,  // measure 67
0000
0000
0000
0000
,  // measure 68
0000
0033
1001
0000
;

//---------------dance-single - ----------------
#NOTES:
     dance-single:
     :
     Hard:
     7:
     0.414,0.419,0.340,0.174,0.116:
0000
0000
0000
0000
,
0000
0000
0000
0000
,
0000
0000
0000
0000
,
0000
0000
0000
0000
,
0000
0200
0000
0320
,
0000
2030
0000
3200
,
0000
0320
0000
0000
,
0000
0000
0031
0100
0010
0100
0020
0000
,
0030
1001
0000
2000
,
0000
0000
3001
0010
0001
0000
0010
0000
,
0100
0000
1000
0100
1000
0000
0100
0000
,
0010
0000
0001
0100
0001
0000
0100
0000
,
0010
0000
1000
0010
1000
0000
0010
0100
,
0010
1001
0100
0100
,
0100
0000
0000
0000
1000
0000
0000
0100
0000
0000
0010
0000
0000
0001
0000
0000
,
1000
0001
1000
0000
0100
0000
1000
0010
,
0100
0000
0001
0010
0001
1000
0001
0000
,
0010
0100
1000
0000
0100
0000
2000
0000
,
0010
3020
0100
0230
,
0001
0000
0301
0010
0001
0100
0001
0000
,
0010
0100
1000
0010
1000
0000
0010
0100
,
0010
0000
0100
0001
0100
0000
0020
0000
,
1000
0230
0001
0302
,
1000
0000
0000
0000
1003
0000
0000
0100
0000
0000
1000
0000
0100
0000
0000
1000
,
0000
0000
0000
0000
0001
0000
0000
0010
0000
0000
0001
0000
0010
0000
0000
0001
,
0000
0000
0000
0000
0100
0000
0000
0010
0000
0000
0100
0000
0020
0000
0000
0000
,
1000
2030
0001
3002
,
0100
0000
0000
0000
0103
0000
0000
0010
0000
0000
1000
0000
0100
0000
0000
1000
,
0000
0000
0010
0000
0100
0000
0000
0001
0000
0000
0010
0000
0001
0000
0000
1000
,
0000
0000
0100
0000
1000
0000
0000
0010
0000
0000
0100
0000
0010
0000
0000
1010
,
0000
0000
1000
0000
0100
0000
0000
1000
0000
0000
0010
0000
0100
0000
0000
0001
,
0000
1000
1001
0000
0010
0000
0010
0000
,
0010
0100
0100
0200
,
0000
0310
0100
0001
,
0010
1001
0100
0011
,
0001
1001
1000
0100
,
0010
0011
0100
1010
,
0100
1001
0010
0100
,
0001
1001
0100
1100
,
0010
0011
0100
0010
,
1000
1001
0100
0110
,
0010
0000
0010
0000
1001
0000
0000
0100
0000
0000
1000
0000
0010
0000
0100
0000
,
0010
0000
0000
0000
0100
0000
0000
0001
0000
0000
0100
0000
0010
0000
0000
1000
,
0000
0000
0010
0000
0100
0000
0000
0010
0000
0000
0100
0000
0010
0000
1000
0000
,
0001
0000
0000
0000
0100
0000
0000
0010
0000
0000
0100
0000
0001
0000
0000
0010
,
0000
0000
0001
0000
0011
0000
0000
0100
0000
0000
1000
0000
0010
0000
0100
0000
,
0010
0000
0000
0000
1100
0000
0000
0010
0000
0000
0001
0000
0100
0000
0000
0010
,
0000
0000
1000
0000
1001
0000
0000
0100
0000
0000
1000
0000
0010
0000
0000
0100
,
0000
0000
0001
0000
0100
0000
0000
0010
0000
0000
1000
0000
0100
0000
0000
1000
,
0000
0001
1001
0000
1100
0000
0010
0000
,
0100
0000
0010
0000
0101
0000
0000
1010
,
0000
0110
0001
1000
,
0001
0000
1000
0000
1100
0000
0000
0011
,
0000
1000
0000
0001
1001
0000
0100
0000
,
0101
0010
1010
0100
,
0110
0010
1001
0000
,
1100
0000
0001
0001
1001
0000
0000
0000
,
0011
0000
1100
0000
0001
0100
0010
0000
,
1000
0010
0100
0000
0002
0000
0000
0010
,
0000
0000
0103
0000
1000
0010
0100
0000
,
0001
0100
0010
0000
2000
0000
0000
0100
,
0000
0010
0000
3001
0100
0000
0010
0000
,
1010
1000
1001
0010
,
0101
1000
1001
0100
,
1000
0100
0010
0000
0001
0010
0100
0000
,
1000
0100
0001
0100
0022
0000
0000
0000
,
0000
0000
0000
0000
,
0000
0033
1001
0000
;

//---------------dance-single - ----------------
#NOTES:
     dance-single:
     :
     Beginner:
     1:
     0.095,0.140,0.058,0.000,0.000:
0000
0000
0000
0000
,
0000
0000
0000
0000
,
0000
0000
0000
0000
,
0000
0000
0000
0000
,
0000
1000
0000
0000
,
0000
0001
0000
0000
,
0000
1000
0000
0000
,
0000
0010
0000
0000
,
0000
0000
0000
0000
,
0000
1000
0000
0000
,
0000
0001
0000
0000
,
0000
1000
0000
0000
,
0000
0001
0000
0000
,
0000
1001
0000
0000
,
0000
0000
0000
0000
,
0000
0100
0000
0000
,
0000
0010
0000
0000
,
0000
1000
0000
0001
,
0000
0010
0000
0100
,
0000
1000
0000
0000
,
0000
0001
0000
0000
,
0000
1000
0000
0001
,
0000
0010
0000
0100
,
0000
1000
0000
0000
,
0000
0010
0000
0000
,
0000
0100
0000
0001
,
0000
0100
0000
0010
,
0000
1000
0000
0000
,
0000
0001
0000
0000
,
0000
0100
0000
0001
,
0000
0100
0000
0010
,
0000
1000
0000
0000
,
0000
0000
0000
0000
,
0000
0010
0000
0000
,
0000
0100
0000
0000
,
0000
0010
0000
0000
,
0000
1000
0000
0000
,
0000
0001
0000
0000
,
0000
1000
0000
0000
,
0000
0010
0000
0000
,
0000
1000
0000
0000
,
0000
0001
0000
0000
,
0000
0100
0000
0000
,
0000
0001
0000
0000
,
0000
1000
0000
0000
,
0000
1001
0000
0000
,
0000
1001
0000
0000
,
0000
1001
0000
0010
,
0000
0100
0000
0010
,
0000
1000
0000
0000
,
0000
0000
0001
0000
,
0000
0000
1000
0000
,
0000
0000
0010
0000
,
0000
0000
0100
0000
,
0001
0000
0010
0000
,
0100
0000
1001
0000
,
0000
0000
1001
0000
,
0000
0000
1000
0000
,
0000
0000
0010
0000
,
0000
0000
1000
0000
,
0000
0000
0001
0000
,
0000
0000
0100
0000
,
0000
0000
0001
0000
,
0000
0000
1000
0000
,
0000
0000
0001
0000
,
0100
0000
0010
0000
,
0000
0000
0000
0000
,
0000
0000
1001
0000
;

//---------------dance-single - ----------------
#NOTES:
     dance-single:
     :
     Medium:
     5:
     0.364,0.391,0.290,0.215,0.012:
0000
0000
0000
0000
,
0000
0000
0000
0000
,
0000
0000
0000
0000
,
0000
0000
0000
0000
,
0000
0020
0000
0230
,
0000
0302
0000
0023
,
0000
0230
0000
0000
,
0000
0000
1300
0010
0100
0010
0000
0000
,
0000
1001
0000
0000
,
0000
1000
0100
1000
,
0100
1000
0010
1000
,
0010
0100
0010
0100
,
0010
0100
0001
0100
,
0001
1001
0010
0010
,
0010
0002
0000
0000
,
2003
0000
3010
0000
0100
0000
0010
0100
,
0010
1000
0001
0100
,
0001
1000
0001
0000
1000
0000
0002
0000
,
0000
0203
0000
0320
,
0000
0000
1030
0100
1000
0000
0010
0000
,
0100
0000
0001
0100
0001
0000
0100
0010
,
0100
0000
0010
1000
0010
0000
2000
0000
,
0000
3200
0000
0320
,
0000
0000
0031
0000
0010
0000
0001
0100
,
0000
0010
1000
0000
0100
0000
1000
0010
,
0000
0100
0001
0000
0010
0000
0002
0000
,
0000
0023
0000
0230
,
0000
0000
1300
0000
0010
0000
0100
0010
,
0000
0010
1000
0000
0010
0000
0100
0001
,
0000
0000
0001
0000
0010
0000
0000
0000
0001
0000
0000
0000
0100
0000
0000
0010
,
0000
1001
0000
0001
0100
0000
0010
0100
,
0010
1001
0100
0100
,
0100
0010
0010
0020
,
0000
0130
0010
1000
,
0100
1001
0010
1100
,
1000
1001
0001
0010
,
0100
1100
0010
0101
,
0010
1001
0100
0010
,
1000
1001
0010
0011
,
0100
1100
0010
0100
,
0001
1001
0010
0110
,
0100
0100
1001
0000
0010
0000
0001
0100
,
0010
0000
1000
0000
0010
0000
1000
0010
,
0100
0000
0010
0100
0001
0000
0010
0000
,
0001
0000
0100
0001
0100
0000
0010
1000
,
0010
0000
1001
0000
0010
0000
1000
0100
,
0010
0000
0001
0000
0100
0010
1000
0000
,
0100
0000
0010
0000
1001
0000
0000
0010
0000
0000
0010
0000
0100
0000
0000
0100
,
0000
0100
0001
0000
0011
0000
1100
0000
,
0110
1001
0011
0100
,
0010
0000
0100
0000
0002
0000
0000
1000
,
0000
1000
1003
0010
,
0100
0000
0010
0000
2000
0000
0000
0001
,
0000
0001
0000
0001
3001
0000
0100
0000
,
0020
0000
2030
0000
,
3002
0000
1003
0000
,
0011
1000
1001
0000
,
0010
0000
1001
0000
1000
0010
0100
0000
,
0001
0100
0010
0000
2000
0000
0000
0100
,
0000
0000
3010
0000
0001
0100
0010
0000
,
1000
0010
0100
0000
0002
0000
0000
0010
,
0000
0100
0000
1003
0010
0000
0100
0000
,
0101
0001
1001
0100
,
1010
0000
0001
0000
1001
0000
0010
0001
,
0010
0000
0001
1000
0001
0000
1100
0000
,
0011
0110
2002
0000
,
0000
0000
0000
0000
,
0000
3003
1001
0000
;
