#TITLE:Queen's Paradise;
#SUBTITLE:;
#ARTIST:Nanako;
#TITLETRANSLIT:;
#SUBTITLETRANSLIT:;
#ARTISTTRANSLIT:;
#CREDIT:DMAxel;
#BANNER:Queen's Paradise.png;
#BACKGROUND:Queen's Paradise-bg.png;
#LYRICSPATH:Queen's Paradise.lrc;
#CDTITLE:jubeat.png;
#MUSIC:Queen's Paradise.mp3;
#OFFSET:-6.660;
#SAMPLESTART:12.724;
#SAMPLELENGTH:12.000;
#SELECTABLE:YES;
#BPMS:0.000=157.000;
#STOPS:;
#BGCHANGES:;

//---------------dance-single - ----------------
#NOTES:
     dance-single:
     :
     Easy:
     4:
     0.370,0.479,0.379,0.278,0.000: // measure 1
1000
0001
1000
0001
,  // measure 2
0100
0010
0000
0000
,  // measure 3
0100
0010
0100
0001
,  // measure 4
1000
0000
0000
1001
0000
0000
0000
0000
,  // measure 5
0001
0100
0001
0000
,  // measure 6
1000
0100
1000
0000
,  // measure 7
0010
0100
0010
0000
,  // measure 8
1000
0001
1000
0000
,  // measure 9
0100
1000
0100
0000
,  // measure 10
0010
0001
0010
0000
,  // measure 11
0001
1000
0001
0000
,  // measure 12
1000
0001
1000
0100
,  // measure 13
0020
0000
0001
0031
,  // measure 14
0200
0000
1000
1300
,  // measure 15
0010
0100
0110
0000
,  // measure 16
1000
0001
1001
0000
,  // measure 17
0200
0000
0001
0301
,  // measure 18
0020
0000
1000
1030
,  // measure 19
0100
0010
0001
0001
,  // measure 20
0010
0100
1000
1000
,  // measure 21
1002
0100
0103
0101
,  // measure 22
2001
0100
3100
1100
,  // measure 23
1002
0010
0013
0011
,  // measure 24
2001
0010
3010
1010
,  // measure 25
1002
0100
0103
0101
,  // measure 26
2001
0010
3010
1010
,  // measure 27
1002
0010
0013
0011
,  // measure 28
1001
1000
1100
1100
,  // measure 29
0010
0001
0100
0100
,  // measure 30
0010
1000
0001
0001
,  // measure 31
2000
0001
3001
0000
,  // measure 32
0002
1000
1003
0000
,  // measure 33
0100
1000
0010
0010
,  // measure 34
0100
0001
1000
1000
,  // measure 35
0002
1000
1003
0010
,  // measure 36
2000
0001
3001
1001
,  // measure 37
2001
0100
3100
1100
,  // measure 38
1002
0010
0013
0011
,  // measure 39
2001
0010
3010
1010
,  // measure 40
1002
0100
0103
0101
,  // measure 41
2100
0001
3001
1001
,  // measure 42
0012
1000
1003
1001
,  // measure 43
0110
0000
0000
0000
1000
0000
0000
1001
,  // measure 44
0000
0000
0000
0000
,  // measure 45
1001
0000
0110
0000
,  // measure 46
0010
0100
0010
1000
,  // measure 47
1001
0000
0110
0000
,  // measure 48
0100
0010
0100
0001
,  // measure 49
2000
0000
3001
0000
,  // measure 50
0100
0010
0100
0001
,  // measure 51
2000
0000
3001
0000
,  // measure 52
1001
0000
0110
0000
,  // measure 53
1001
0000
1001
0000
,  // measure 54
1000
0010
0100
0001
,  // measure 55
0100
0001
0010
0100
,  // measure 56
2000
0000
3020
0000
,  // measure 57
0230
0000
0302
0000
,  // measure 58
1003
0100
0010
0001
,  // measure 59
1000
0000
0010
0100
,  // measure 60
0002
0000
0203
0000
,  // measure 61
0320
0000
1030
0100
,  // measure 62
0010
0001
0010
0000
,  // measure 63
0100
1000
0100
0000
,  // measure 64
1000
0001
1000
0000
,  // measure 65
0100
0010
0001
1000
,  // measure 66
0010
0100
0010
0000
,  // measure 67
0110
0000
1001
0000
,  // measure 68
1000
0100
0010
0001
,  // measure 69
0100
0010
0100
0001
,  // measure 70
2000
0000
0000
0000
3020
0000
0000
0200
,  // measure 71
0000
0000
0000
0000
,  // measure 72
0330
0000
0000
0000
;

//---------------dance-single - ----------------
#NOTES:
     dance-single:
     :
     Medium:
     6:
     0.466,0.419,0.337,0.244,0.000: // measure 1
0001
1000
0002
0000
1000
0000
1003
0000
,  // measure 2
0010
0100
0020
0000
0100
0000
0130
0000
,  // measure 3
1000
0001
2000
0000
0001
0000
3001
0000
,  // measure 4
0110
0000
0000
0110
0000
0000
0000
0000
,  // measure 5
2000
0000
3001
0100
0001
0000
1000
0010
,  // measure 6
1000
0001
1000
0010
,  // measure 7
0200
0301
0002
1003
,  // measure 8
2000
3010
0020
0130
,  // measure 9
0002
0000
1003
0010
1000
0000
0001
0100
,  // measure 10
0001
1000
0010
0100
,  // measure 11
0020
1030
2000
3001
,  // measure 12
0002
0000
0103
0000
0100
0010
0100
0010
,  // measure 13
0100
0001
1000
1000
,  // measure 14
0010
0100
0001
0001
,  // measure 15
0101
0000
0100
0000
0110
0000
0000
0010
,  // measure 16
1000
0000
0010
1000
0001
0000
0001
0000
,  // measure 17
0100
0001
1000
1000
,  // measure 18
0010
0100
0001
0001
,  // measure 19
0020
0031
0002
1003
,  // measure 20
2000
0000
3100
0000
1000
0001
1000
0000
,  // measure 21
1001
0000
0000
1001
0000
1000
0001
0000
,  // measure 22
0110
0000
0000
0110
0000
0100
0010
0000
,  // measure 23
1001
0000
0000
1001
0000
0001
1000
0000
,  // measure 24
0110
0000
0000
0110
0000
0010
0100
0000
,  // measure 25
0101
0000
0000
0101
0000
0001
1000
0000
,  // measure 26
1010
0000
0000
1010
0000
1000
0001
0000
,  // measure 27
0110
0000
0000
0110
0000
0100
0010
0000
,  // measure 28
0000
1000
0001
0000
0100
0000
0100
0010
,  // measure 29
0100
0001
1000
1000
,  // measure 30
0010
0100
0001
0001
,  // measure 31
0101
0000
0100
0000
0110
0000
0000
0010
,  // measure 32
1000
0000
0010
1000
0001
0000
0001
0000
,  // measure 33
0100
0010
1000
1000
,  // measure 34
0010
0100
0001
0001
,  // measure 35
0200
0301
0002
1003
,  // measure 36
2000
0000
3010
0000
0010
0100
0010
0000
,  // measure 37
0110
0000
0000
0110
0000
0100
0010
0000
,  // measure 38
1001
0000
0000
1001
0000
0001
1000
0000
,  // measure 39
0110
0000
0000
0110
0000
0010
0100
0000
,  // measure 40
1001
0000
0000
1001
0000
1000
0001
0000
,  // measure 41
0011
0000
0000
0011
0000
0001
1000
0000
,  // measure 42
1100
0000
0000
1100
0000
1000
0001
0000
,  // measure 43
0110
0000
0000
0010
0100
0000
0001
1000
,  // measure 44
0000
0100
0100
0100
,  // measure 45
0100
0000
1001
0000
0100
0010
0100
0000
,  // measure 46
0001
0100
0001
1000
0000
0100
1000
0100
,  // measure 47
0010
1001
0100
0010
,  // measure 48
0001
0000
0100
0010
0100
0010
0100
0000
,  // measure 49
0100
0000
1001
0000
0010
0100
0010
0000
,  // measure 50
1000
0010
1000
0001
0000
0010
0001
0010
,  // measure 51
0200
1000
2300
0001
,  // measure 52
3002
0000
0203
0000
,  // measure 53
1300
0000
0000
1001
0000
0000
0000
0000
,  // measure 54
0001
0100
0001
0000
1000
0010
1000
0000
,  // measure 55
0010
0100
0010
0000
1000
0000
0110
0000
,  // measure 56
0001
0010
0001
0000
1000
0100
1000
0000
,  // measure 57
0010
0100
0010
0000
1000
0001
1000
0000
,  // measure 58
0001
0010
0001
0000
1000
0100
1000
0000
,  // measure 59
0010
0100
0010
0000
1000
0000
0110
0000
,  // measure 60
0001
0100
0001
0000
1000
0010
1000
0000
,  // measure 61
0000
0010
0100
0000
0001
1000
0001
1000
,  // measure 62
0001
0010
0100
0000
2000
0000
0010
0000
,  // measure 63
3020
0100
0100
0130
,  // measure 64
1000
0100
0010
0000
0002
0000
0100
0000
,  // measure 65
0203
0010
0010
0310
,  // measure 66
2000
0000
0000
0001
0000
3001
0000
0000
,  // measure 67
0100
0100
0010
0010
,  // measure 68
0001
0010
0100
0000
1000
0100
0010
0000
,  // measure 69
0001
1000
0001
0000
0100
0000
0100
0000
,  // measure 70
1001
0000
1000
0100
0010
0000
0002
2000
,  // measure 71
0000
0000
0000
0000
,  // measure 72
3003
0000
0000
0000
;

//---------------dance-single - ----------------
#NOTES:
     dance-single:
     :
     Hard:
     8:
     0.567,0.539,0.346,0.236,0.152: // measure 1
1000
0100
0010
0000
0010
0000
0010
0000
,  // measure 2
0001
0010
0100
0000
0100
0000
0100
0000
,  // measure 3
1000
0001
0100
0000
0100
0000
0100
0000
,  // measure 4
1001
0000
0000
1001
0000
0000
1002
0000
0000
0000
0000
0000
1003
0000
0000
0000
,  // measure 5
1000
0100
0001
0000
0100
1000
0001
0100
,  // measure 6
0001
0000
1000
0100
2000
0000
3100
0000
,  // measure 7
0002
0000
0103
1000
0010
0000
0100
0001
,  // measure 8
2000
0100
3100
1001
,  // measure 9
0001
0100
1000
0000
0100
0001
1000
0010
,  // measure 10
1000
0000
0001
0010
0002
0000
0013
0000
,  // measure 11
2000
0000
3010
0001
0100
0000
0010
1000
,  // measure 12
0002
0000
1003
0000
0001
0010
0100
1000
,  // measure 13
0001
0001
0200
0000
0010
0000
0310
0000
,  // measure 14
1000
1000
0020
0000
0100
0000
0130
0000
,  // measure 15
1001
0000
0101
0000
1100
0000
0000
0001
,  // measure 16
1000
0000
0010
0100
0001
0000
1001
0000
,  // measure 17
1000
1000
0020
0000
0100
0000
0130
0000
,  // measure 18
0001
0001
0200
0000
0010
0000
0310
0000
,  // measure 19
1001
1100
0101
1001
,  // measure 20
0001
0101
1100
1001
,  // measure 21
0100
0000
0000
0100
0000
0000
0100
0000
0000
0000
0001
0000
1000
0000
0000
0000
,  // measure 22
0010
0000
0000
0010
0000
0000
0010
0000
0000
0000
1000
0000
0001
0000
0000
0000
,  // measure 23
0100
0000
0000
0100
0000
0000
0100
0000
0000
0000
0001
0000
1000
0000
0000
0000
,  // measure 24
0010
0000
0000
0010
0000
0000
0010
0000
0000
0000
1000
0000
0001
0000
0000
0000
,  // measure 25
0100
0000
0000
0001
0000
0000
0200
0000
0000
0000
0010
0000
0310
0000
0000
0000
,  // measure 26
0010
0000
0000
1000
0000
0000
0020
0000
0000
0000
0100
0000
0130
0000
0000
0000
,  // measure 27
0010
0000
0000
0100
0000
0000
0002
0000
0000
0000
1000
0000
1003
0000
0000
0000
,  // measure 28
0000
0000
1000
0000
0001
0000
0000
0000
0100
0010
0000
0100
0010
0000
1000
0000
,  // measure 29
0001
0001
0100
0000
0010
0100
0010
0000
,  // measure 30
1000
1000
0010
0000
0100
0010
0100
0000
,  // measure 31
0001
0100
1000
0000
0101
0000
0000
1000
,  // measure 32
0001
0000
0100
0010
1000
0000
1001
0000
,  // measure 33
1000
1000
0010
0000
0100
0010
0100
0000
,  // measure 34
0001
0001
0100
0000
0010
0100
0010
0000
,  // measure 35
1000
0100
0001
0000
1100
0000
1001
0000
,  // measure 36
1000
1100
0101
1001
,  // measure 37
0100
0000
0000
0101
0000
0000
0200
0000
0000
0000
0001
0000
0301
0000
0000
0000
,  // measure 38
0010
0000
0000
1010
0000
0000
0020
0000
0000
0000
1000
0000
1030
0000
0000
0000
,  // measure 39
0010
0000
0000
0011
0000
0000
0020
0000
0000
0000
0100
0000
0130
0000
0000
0000
,  // measure 40
0100
0000
0000
1100
0000
0000
0200
0000
0000
0000
0010
0000
0310
0000
0000
0000
,  // measure 41
0001
0000
0000
1001
0000
0000
0200
0000
0000
0000
1000
0000
1300
0000
0000
0000
,  // measure 42
1000
0000
0000
1001
0000
0000
0020
0000
0000
0000
0001
0000
0031
0000
0000
0000
,  // measure 43
0100
0000
0000
1000
0000
0000
0001
0100
0001
0000
0000
0000
1000
0000
0002
0000
,  // measure 44
0000
0100
0100
0103
,  // measure 45
1001
0000
0020
1000
1030
0100
0010
0000
,  // measure 46
0001
0010
0100
0010
0001
1000
0100
1000
,  // measure 47
1001
0000
0200
0001
0301
0010
0100
0000
,  // measure 48
1000
0100
0010
0100
1000
0001
0100
0001
,  // measure 49
1001
0000
0020
1000
1030
0100
0010
0001
,  // measure 50
1000
0100
0001
0100
0000
1000
0001
0010
,  // measure 51
0100
1100
0001
0101
,  // measure 52
1000
0000
1000
0000
1000
0100
0001
0000
0001
0000
0001
0100
,  // measure 53
1000
0000
0000
1001
0000
0000
2001
0000
0000
0000
0000
0000
3001
0000
0000
0000
,  // measure 54
1000
0000
0000
0001
0100
0000
0010
0000
0100
0000
0001
0000
0010
0000
0100
0000
,  // measure 55
0010
0000
0000
0001
0100
0000
0010
0000
0100
0000
0001
0000
1000
0000
0000
0000
,  // measure 56
0001
0100
1000
0000
0100
0001
1000
0000
,  // measure 57
0001
0100
1000
0000
0100
0001
1000
0000
,  // measure 58
0001
0000
0000
1000
0010
0000
0100
0000
0010
0000
1000
0000
0100
0000
0010
0000
,  // measure 59
0100
0000
0000
1000
0010
0000
0100
0000
0010
0000
1000
0000
0001
0000
0000
0000
,  // measure 60
1000
0100
0001
0000
0100
1000
0001
0000
,  // measure 61
0000
0000
1000
0000
0001
0000
0000
0000
1000
0001
1000
0001
1000
0000
0000
0000
,  // measure 62
1001
0000
0000
0001
0100
0000
0010
0000
0100
0000
0001
0000
0010
0000
0000
0000
,  // measure 63
0100
1000
0100
0001
0100
1000
0001
0100
,  // measure 64
0001
0000
0000
1000
0010
0000
0100
0000
0010
0000
1000
0000
0100
0000
0000
0000
,  // measure 65
0010
0001
0100
1000
0100
0001
1000
0010
,  // measure 66
0200
0000
0001
0301
0000
1001
0000
0000
,  // measure 67
0110
0110
1001
1001
,  // measure 68
0001
0000
0000
1000
0010
0000
0100
0000
0010
0000
1000
0000
0100
0000
0010
0000
,  // measure 69
0100
0000
0000
1000
0010
0000
0100
0000
0010
0000
1000
0000
0100
0000
0010
0000
,  // measure 70
0001
0000
0000
1000
0010
0000
0100
0000
0010
0000
1000
0000
0002
0000
0200
0000
,  // measure 71
0000
0000
0000
0000
,  // measure 72
0303
0000
0000
0000
;

//---------------dance-single - ----------------
#NOTES:
     dance-single:
     :
     Beginner:
     2:
     0.084,0.147,0.034,0.000,0.000: // measure 1
1000
0000
0000
0000
,  // measure 2
1000
0000
0000
0000
,  // measure 3
1000
0000
0000
0000
,  // measure 4
1001
0000
0000
0000
,  // measure 5
0001
0000
0000
0000
,  // measure 6
0010
0000
0000
0000
,  // measure 7
0001
0000
0000
0000
,  // measure 8
0010
0000
0000
0000
,  // measure 9
0001
0000
0000
0000
,  // measure 10
1000
0000
0000
0000
,  // measure 11
0001
0000
0000
0000
,  // measure 12
1000
0000
0000
0000
,  // measure 13
0100
0000
0000
0000
,  // measure 14
0000
0000
0000
0000
,  // measure 15
0100
0000
0000
0000
,  // measure 16
0000
0000
0000
0000
,  // measure 17
0010
0000
0000
0000
,  // measure 18
0000
0000
0000
0000
,  // measure 19
0010
0000
0000
0000
,  // measure 20
0000
0000
0000
0000
,  // measure 21
0001
0000
0000
0000
,  // measure 22
1000
0000
0000
0000
,  // measure 23
0001
0000
0000
0000
,  // measure 24
1000
0000
0000
0000
,  // measure 25
0001
0000
0000
0000
,  // measure 26
1000
0000
0000
0000
,  // measure 27
0001
0000
0000
0000
,  // measure 28
1000
0000
0000
0000
,  // measure 29
0010
0000
0000
0000
,  // measure 30
0000
0000
0000
0000
,  // measure 31
0010
0000
0000
0000
,  // measure 32
0000
0000
0000
0000
,  // measure 33
0010
0000
0000
0000
,  // measure 34
0000
0000
0000
0000
,  // measure 35
0010
0000
0000
0000
,  // measure 36
0000
0000
0000
0000
,  // measure 37
1000
0000
0000
0000
,  // measure 38
0001
0000
0000
0000
,  // measure 39
1000
0000
0000
0000
,  // measure 40
0001
0000
0000
0000
,  // measure 41
1000
0000
0000
0000
,  // measure 42
0001
0000
0000
0000
,  // measure 43
1000
0000
0000
0000
,  // measure 44
0000
0000
0000
0000
,  // measure 45
1001
0000
0000
0000
,  // measure 46
0001
0000
0000
0000
,  // measure 47
1000
0000
0000
0000
,  // measure 48
0001
0000
0000
0000
,  // measure 49
0100
0000
0000
0000
,  // measure 50
0010
0000
0000
0000
,  // measure 51
0100
0000
0000
0000
,  // measure 52
0110
0000
0000
0000
,  // measure 53
1001
0000
0000
0000
,  // measure 54
0001
0000
1000
0000
,  // measure 55
0001
0000
0000
0000
,  // measure 56
1000
0000
0001
0000
,  // measure 57
1000
0000
0000
0000
,  // measure 58
0001
0000
1000
0000
,  // measure 59
0001
0000
0000
0000
,  // measure 60
1000
0000
0001
0000
,  // measure 61
1000
0000
0000
0000
,  // measure 62
0010
0000
0000
0000
,  // measure 63
0000
0000
0000
0000
,  // measure 64
0010
0000
0000
0000
,  // measure 65
0000
0000
0000
0000
,  // measure 66
0100
0000
0000
0000
,  // measure 67
0010
0000
0000
0000
,  // measure 68
1000
0000
0001
0000
,  // measure 69
1000
0000
0000
0000
,  // measure 70
0001
0000
0000
0000
1000
0000
0000
0001
;
