#TITLE:QUANTUM TELEPORTATION;
#SUBTITLE:;
#ARTIST:L.E.D.;
#TITLETRANSLIT:;
#SUBTITLETRANSLIT:;
#ARTISTTRANSLIT:;
#CREDIT:DMAxel;
#BANNER:QUANTUM TELEPORTATION.png;
#BACKGROUND:QUANTUM TELEPORTATION-bg.png;
#LYRICSPATH:;
#CDTITLE:beatmaniaIIDX.png;
#MUSIC:QUANTUM TELEPORTATION.mp3;
#OFFSET:-6.675;
#SAMPLESTART:12.974;
#SAMPLELENGTH:12.000;
#SELECTABLE:YES;
#BPMS:0.000=152.000;
#STOPS:;
#BGCHANGES:-16.000=QUANTUM TELEPORTATION.avi=1.000=1=1=0,
99999=-nosongbg-=1.000=0=0=0 // don't automatically add -songbackground-
;

//---------------dance-single - ----------------
#NOTES:
     dance-single:
     :
     Easy:
     3:
     0.232,0.297,0.054,0.155,0.000:
0001
0000
0000
0000
,
0000
0000
0000
0000
,
1000
0000
0000
0000
,
0002
0000
0000
0000
,
1003
0000
0100
0000
,
0010
0000
0001
0000
,
1000
0000
0001
0000
,
1000
0000
0001
0000
,
1001
0000
0001
0000
,
1000
0000
0010
0000
,
0200
0000
0010
0000
,
0320
0000
0000
0000
,
1030
0001
1000
0000
,
0001
1000
0001
0000
,
0100
0010
0100
0000
,
0010
0100
0010
0000
,
1000
0100
1000
0000
,
0001
0010
0001
0000
,
0100
0010
0100
0000
,
0020
0000
0230
0000
,
0310
0000
0010
0000
,
0010
0000
0010
0000
,
0100
0000
0100
0000
,
0100
0000
0110
0000
,
1000
0100
1000
0000
,
0100
0010
0100
0000
,
0010
0001
0010
0000
,
2002
0000
0000
3003
,
0001
0000
1000
0000
,
0010
0000
0100
0000
,
0001
0000
0010
0000
,
0100
0000
1000
0000
,
0001
1000
0001
0000
,
0100
0010
0100
0000
,
0001
1000
0001
0000
,
2002
0000
0000
3003
,
0100
0001
0010
0001
,
0000
1000
0100
1000
,
0000
0010
0100
0010
,
0000
1000
0100
1000
,
0000
0001
0010
0001
,
0000
0100
0010
0100
,
0000
0001
0100
0001
,
0000
1000
0010
1000
,
0002
0000
0000
0000
,
2003
0000
0000
0000
,
3002
0000
0000
0000
,
0203
0000
0000
0000
,
0320
0000
0000
0000
,
0230
0000
0000
0000
,
0320
0000
0000
0000
,
0230
0000
0010
0310
,
1001
0000
0001
1000
,
0100
1000
0010
0100
,
0001
0100
0001
1000
,
0010
1000
0001
0010
,
1001
0000
1000
0001
,
0010
0001
0100
0010
,
1000
0010
1000
0001
,
0010
0001
2000
0000
,
3001
0010
0100
0010
,
0001
1000
0100
0010
,
0100
1000
0001
0010
,
0100
1000
0100
0010
,
0001
1000
0010
0100
,
0010
1000
0001
0100
,
0010
0100
0001
1000
,
0010
0010
0100
0100
,
0110
0000
0000
0000
,
0010
0000
0000
0000
,
0010
0000
0000
0000
,
0010
0000
0000
0000
,
0100
0000
0000
0000
,
0100
0000
0000
0000
,
0100
0000
0000
0000
,
0200
0000
0020
0000
,
0000
0000
0330
0000
;

//---------------dance-single - ----------------
#NOTES:
     dance-single:
     :
     Hard:
     8:
     0.550,0.649,0.140,0.279,0.159:
1000
1000
0001
0001
,
1000
1000
0001
0001
,
0100
0100
0010
0010
,
2002
0000
0000
3003
,
0001
0010
0100
0010
0001
1000
0001
0000
,
1000
0100
0010
0100
1000
0001
1000
0000
,
0001
0100
0010
0100
0001
1000
0001
0000
,
1000
0010
0100
0010
1000
0001
1000
0000
,
0001
0010
0001
1000
0100
1000
0001
0000
,
1000
0100
1000
0001
0010
0001
1000
0000
,
0010
0100
0010
1000
0001
1000
0001
0000
,
0200
0000
0000
0010
0000
0010
0000
0010
0000
0000
0310
0000
0000
0000
0000
0000
,
1000
0100
0001
0100
1000
0100
0010
0001
,
1000
0100
0001
0100
1000
0100
0010
0001
,
0010
1000
0010
0001
0010
0100
1000
0001
,
0010
1000
0010
0001
0010
0100
1000
0000
,
0100
0010
0010
0000
0001
0100
0100
0000
,
0010
1000
1000
0000
0010
0100
0100
0000
,
0001
0010
0100
1000
0100
0001
0100
1000
,
0001
0010
0100
1000
0010
0001
0010
1000
,
0020
0000
0000
0100
0000
0130
0000
0000
0200
0000
0000
0010
0000
0310
0000
0000
,
2000
0000
0000
0001
0000
3001
0000
0000
0002
0000
0000
1000
0000
1003
0000
0000
,
0020
0000
0000
0100
0000
0130
0000
0000
0200
0000
0000
0010
0000
0310
0000
0000
,
2000
0000
0000
0001
0000
3001
0000
0000
0002
0000
0000
1000
0000
1003
0000
0000
,
0001
0010
0100
0010
0001
0100
0010
0010
,
1000
0100
0010
0100
1000
0001
0100
0100
,
0001
0010
0100
1000
0100
0001
0100
1000
,
0002
0000
0000
0000
1000
1000
1003
0000
,
0001
0100
1000
0100
0001
1000
0100
0010
,
0100
1000
0001
0010
1000
0010
0001
0000
,
1000
0100
0010
0100
1000
0100
0001
0100
,
1000
0001
0010
0100
0010
0001
1000
0000
,
0001
0010
1000
0010
0100
1000
0001
0000
,
1000
0100
0001
0100
0010
0001
1000
0000
,
0001
0100
1000
0100
0010
1000
0001
0000
,
1000
0010
0001
0010
0100
0001
1000
0000
,
2001
0000
0000
0001
0000
0000
0001
0000
0000
0001
0000
0000
3001
0000
0000
0000
,
0120
0000
0000
0100
0000
0000
0100
0000
0000
0100
0000
0000
0130
0000
0000
0000
,
0001
0000
0000
0010
0000
0000
0001
0000
0000
0010
0000
0000
0001
0000
0000
0000
,
1000
0000
0000
0100
0000
0000
1000
0000
0000
0100
0000
0000
1000
0000
0000
0000
,
0001
0010
0001
1000
0100
0010
0001
0000
,
1000
0100
1000
0001
0010
0100
1000
0000
,
1001
0000
0010
0100
0010
0100
0001
0000
,
1001
0000
0100
0010
0100
0010
1000
0000
,
2002
0000
0000
3003
,
0022
0000
0000
0033
,
2200
0000
0000
3300
,
2002
0000
0000
3003
,
1000
0100
1000
0010
,
0001
0010
0001
0100
,
1000
0100
1000
0100
,
0010
0001
1100
1001
,
0010
0100
0010
0000
1000
0010
0100
0001
,
1000
0001
1000
0000
0001
0010
0001
0100
,
0010
1000
0010
0000
0100
0010
0100
0001
,
1000
0010
1000
0000
0010
0100
0001
0100
,
0010
1000
0001
0000
1000
0010
0100
0001
,
1000
0010
1000
0000
0001
0100
0010
1000
,
0100
1000
0001
0000
1000
0010
0100
0001
,
0010
0001
1000
0000
0011
0000
1100
0000
,
0001
0000
1000
0100
1000
0000
0010
0100
0010
0000
0100
0000
0001
0000
0100
0000
,
0001
0000
1000
0010
1000
0000
0010
0100
0010
0000
0100
0000
0001
0000
1000
0000
,
0010
0000
0100
0001
0100
0000
0010
0100
0010
0000
1000
0000
0010
0000
1000
0000
,
0001
0000
1000
0100
1000
0000
0001
0010
0001
0000
1000
0000
0010
0000
0100
0000
,
0001
0000
0100
0010
0100
0000
0010
1000
0010
0000
0100
0000
0010
0000
1000
0001
,
1000
0000
0001
1000
0001
0000
0100
0000
0010
0000
0100
0000
0010
0000
1000
0100
,
1000
0000
0001
0010
0001
0000
0100
0000
0010
0000
0100
0000
0001
0000
0010
0000
,
0100
0010
0001
1000
0100
0010
0001
0000
,
2200
0000
0000
3300
,
0022
0000
0000
0033
,
2020
0000
0000
3030
,
0202
0000
0000
0303
,
0020
0000
0000
0030
,
0020
0000
0000
0030
,
0200
0000
0000
0300
,
0200
0000
0000
0300
2002
0000
0000
0000
,
3003
0000
0000
0000
;

//---------------dance-single - ----------------
#NOTES:
     dance-single:
     :
     Challenge:
     9:
     0.664,0.683,0.062,0.233,0.694: // measure 1
0001
0010
0001
0000
0001
0010
0001
0000
,  // measure 2
1000
0100
1000
0000
1000
0100
1000
0000
,  // measure 3
0010
0100
0010
0000
0010
0100
0010
0000
,  // measure 4
2000
0000
0000
0001
0000
3001
0000
0000
0002
0000
0000
1000
0000
1003
0000
0000
,  // measure 5
0010
0100
0010
1000
0100
0010
0100
0000
,  // measure 6
1000
0001
0010
0100
0010
0001
0100
0000
,  // measure 7
0001
1000
0100
0010
0100
1000
0010
0000
,  // measure 8
0100
0010
0100
0001
0010
0100
0010
0001
,  // measure 9
1000
0000
0010
0100
0000
0010
0000
0000
1000
0000
0010
0100
0000
0010
0000
0000
,  // measure 10
0100
0000
0001
0010
0000
0001
0000
0000
0100
0000
0001
0010
0000
0001
0000
0000
,  // measure 11
0100
0000
0010
1000
0000
0010
0000
0000
0100
0000
0010
1000
0000
0010
0000
0000
,  // measure 12
0100
0001
0000
0010
0000
0100
0000
1000
0000
0000
0001
1000
0001
1000
0000
0000
,  // measure 13
0001
1000
0000
0100
0000
0010
0000
0100
0000
0000
1000
0001
1000
0001
0000
0000
,  // measure 14
1000
0001
0000
0010
0000
0100
0000
0010
0000
0000
0001
1000
0001
1000
0000
0000
,  // measure 15
0001
1000
0000
0100
0000
0010
0000
0100
0000
0000
1000
0001
1000
0001
0000
0000
,  // measure 16
1000
0001
0000
0010
0000
0100
0000
0010
0000
0000
0001
1000
0001
1000
0000
0000
,  // measure 17
0100
1000
0000
0001
0000
0100
0000
0001
0100
0001
0000
1000
0000
0100
0000
1000
,  // measure 18
0100
1000
0000
0010
0000
0100
0000
0001
0010
0001
0000
0100
0000
0010
0000
1000
,  // measure 19
0010
1000
0000
0010
0000
0100
0000
0001
1000
0001
0000
0010
0000
0100
0000
1000
,  // measure 20
0001
1000
0000
0100
0000
0010
0000
0001
1000
0001
0000
1000
0000
0100
0000
0010
,  // measure 21
0002
0000
0000
0100
0000
0100
0000
0000
0203
0000
0000
0010
0000
0010
0000
0000
,  // measure 22
0320
0000
0000
1000
0000
1000
0000
0000
2030
0000
0000
0001
0000
0001
0000
0000
,  // measure 23
3002
0000
0000
0010
0000
0010
0000
0000
0023
0000
0000
0100
0000
0100
0000
0000
,  // measure 24
0230
0000
0000
1000
0000
1000
0000
0000
1300
0000
0001
1000
0000
0001
0000
0000
,  // measure 25
0010
0100
1000
0010
0100
0010
1000
0100
,  // measure 26
0010
0001
0100
0010
0100
0001
0100
1000
,  // measure 27
0100
0000
0001
0100
0000
0010
0000
0000
1000
0000
0010
0100
0000
0001
0000
0000
,  // measure 28
2000
0000
0000
0000
0001
0001
3001
0000
,  // measure 29
1000
0000
0100
1000
0100
0000
1000
0000
0001
0000
0010
0000
0100
0000
0010
0000
,  // measure 30
0001
0000
0010
0001
0010
0000
0001
0000
1000
0000
0100
0000
0010
0000
0100
0000
,  // measure 31
1000
0000
0010
1000
0010
0000
0100
0000
0001
0000
0010
0000
0100
0000
0010
0000
,  // measure 32
0001
0000
0100
0001
0100
0000
0010
0000
1000
0000
0100
0000
0010
0000
0100
0000
,  // measure 33
1000
0000
0001
1000
0001
0000
0100
0001
0100
0000
0010
0000
1000
0000
0100
0000
,  // measure 34
0010
0000
0001
1000
0001
0000
1000
0100
1000
0100
1000
0000
0100
0000
0010
0000
,  // measure 35
0001
0000
0100
0010
0100
0000
0001
0100
0001
0100
0001
0000
0010
0000
0100
0000
,  // measure 36
1000
0000
0010
0100
0010
0000
0100
0001
0100
0000
0001
1000
0000
1000
0001
0000
,  // measure 37
0200
0000
0000
0010
0000
0000
0001
0000
0000
0010
0000
0000
0301
0000
1000
0000
,  // measure 38
0020
0000
0000
0100
0000
0000
1000
0000
0000
0100
0000
0000
1030
0000
0001
0000
,  // measure 39
0200
0000
0000
0010
0000
0000
0001
0000
0000
0010
0000
0000
0301
0000
1000
0000
,  // measure 40
0020
0000
0000
0100
0000
0000
1000
0000
0000
0100
0000
0000
1030
0000
0001
1000
,  // measure 41
0002
0000
0000
0100
0000
0000
1000
0000
0000
0100
0000
0000
1003
0000
0010
0000
,  // measure 42
2000
0000
0000
0100
0000
0000
0001
0000
0000
0100
0000
0000
3001
0000
0100
0000
,  // measure 43
0001
0000
0010
0100
0010
0000
0001
1000
0001
1000
0001
0000
0010
0000
0100
0000
,  // measure 44
1000
0000
0100
0010
0000
0100
0000
1000
0001
0000
1000
0001
0000
0001
1000
0000
,  // measure 45
0020
0000
0000
0000
0000
0000
0000
0000
0000
0000
1000
0000
0000
1030
0000
0000
,  // measure 46
0200
0000
0000
0000
0000
0000
0000
0000
0000
0000
0001
0000
0000
0301
0000
0000
,  // measure 47
2000
0000
0000
0000
0000
3100
0010
0001
,  // measure 48
0200
0000
0000
0000
0000
0301
0010
0100
,  // measure 49
2000
0000
3001
0000
0001
1000
0001
0000
,  // measure 50
0200
0000
0301
0000
0100
0001
1000
0000
,  // measure 51
0020
0000
1030
0000
0010
1000
0001
0000
,  // measure 52
0200
0000
0000
0000
0310
0000
0000
0000
0100
0000
0001
1000
0000
1000
0001
0000
,  // measure 53
1000
0000
0010
0000
0100
0000
0010
0000
1000
0000
0001
0000
0010
0100
0000
0010
,  // measure 54
0100
0000
1000
0000
0001
0000
0000
0000
0001
0000
1000
0000
0100
0010
0000
0100
,  // measure 55
0010
0001
0100
0010
0100
0001
1000
0100
,  // measure 56
0010
0001
1000
0000
1000
0001
0010
0100
,  // measure 57
1000
0010
0100
0010
1000
0001
0010
0100
,  // measure 58
0010
0001
1000
0000
0001
1000
0100
0010
,  // measure 59
0001
0100
0010
0100
0001
1000
0100
0010
,  // measure 60
0100
0000
1000
0001
0000
0010
0000
0001
1000
0000
0001
1000
0000
1000
0001
0000
,  // measure 61
0100
0000
0001
0100
0001
0000
1000
0100
1000
0000
0100
0000
0010
0000
0100
0000
,  // measure 62
1000
0000
0001
0010
0001
0000
1000
0010
1000
0000
0100
0000
0010
0000
0001
0000
,  // measure 63
1000
0000
0010
0100
0010
0000
1000
0100
1000
0000
0001
0000
0010
0000
0100
0000
,  // measure 64
1000
0000
0001
0010
0001
0000
0100
0010
0100
0010
1000
0100
1000
0000
0001
0000
,  // measure 65
0100
0001
0100
0001
0100
0000
0010
0000
1000
0000
0001
0000
0010
0000
0100
0000
,  // measure 66
1000
0010
1000
0010
1000
0000
0001
0000
0100
0000
0010
0000
1000
0000
0001
0010
,  // measure 67
0001
0000
0010
0100
1000
0000
0001
0100
0001
0100
0001
1000
0100
0000
0010
0000
,  // measure 68
0001
0000
1000
0010
0000
0100
0000
0001
1000
0000
0001
1000
0000
1000
0001
0000
,  // measure 69
0200
0000
0000
0000
0000
0000
0000
0000
0000
0000
0001
0000
0000
0301
0000
0000
,  // measure 70
1200
0000
0000
0000
0000
0000
0000
0000
0000
0000
1000
0000
0000
1300
0000
0000
,  // measure 71
0021
0000
0000
0000
0000
0000
0000
0000
0000
0000
0001
0000
0000
0031
0000
0000
,  // measure 72
1020
0000
0000
0000
0000
0000
0000
0000
0000
0000
1000
0000
0000
1030
0000
0000
,  // measure 73
1001
0000
0000
0000
0000
0000
0000
0000
0000
0000
1000
0000
0000
0001
0000
0000
,  // measure 74
0110
0000
0000
0000
0000
0000
0000
0000
0000
0000
0010
0000
0000
0100
0000
0000
,  // measure 75
1001
0000
0000
0000
0000
0000
0000
0000
0000
0000
0001
0000
0000
1000
0000
0000
,  // measure 76
0110
0000
2002
0000
,  // measure 77
0000
0000
3003
0000
;

//---------------dance-single - ----------------
#NOTES:
     dance-single:
     :
     Medium:
     6:
     0.390,0.475,0.062,0.093,0.047:
2000
0000
0000
0000
,
3002
0000
0000
0000
,
1003
0000
0001
0000
,
0200
0000
0000
0000
,
0310
0100
0010
0100
,
0001
0010
0001
0010
,
0100
1000
0100
1000
,
0010
1000
0010
1000
,
0001
0100
0001
0100
,
0010
0100
0010
1000
,
0010
1000
0001
0100
,
0002
0000
0000
0000
,
1003
0000
0000
0100
0000
1000
0000
0100
0000
0000
0000
0000
1000
0000
0000
0000
,
0001
0000
0000
0010
0000
0001
0000
0010
0000
0000
0000
0000
0001
0000
0000
0000
,
1000
0000
0000
0010
0000
1000
0000
0010
0000
0000
0000
0000
1000
0000
0000
0000
,
0001
0000
0000
0100
0000
0001
0000
0100
0000
0000
0000
0000
0001
0000
0000
0000
,
0100
0010
1000
0000
0010
0100
0001
0000
,
0100
0010
0100
0000
0001
1000
0001
0000
,
1000
0100
0010
0000
0001
0010
0100
0000
,
1000
0010
0100
0001
1000
0000
1000
0000
,
0001
0000
1000
0000
,
0001
0000
0100
0000
,
0010
0000
0100
0000
,
0020
0000
1030
1001
,
0010
0100
0001
0010
0001
0010
0001
0000
,
0100
0010
1000
0100
1000
0100
1000
0000
,
0010
0100
0001
0100
0010
1000
0010
0100
,
0002
0000
1003
0000
,
1000
0100
1000
0010
1000
0001
1000
0000
,
0001
0010
0001
0100
0001
1000
0001
0000
,
1000
0001
1000
0010
1000
0100
1000
0000
,
0001
1000
0001
0100
0001
0010
0001
0000
,
1000
0100
1000
0010
1000
0001
1000
0000
,
0001
0100
0001
0010
0001
1000
0001
0000
,
1000
0100
1000
0010
0100
0001
0010
0000
,
0001
0010
0001
0100
0010
1000
0100
0000
,
1001
0000
0001
0000
0001
0000
0001
0100
,
1000
0000
1000
0000
1000
0000
1000
0100
,
0001
0000
0001
0000
0001
0000
0001
0010
,
1000
0000
1000
0000
1000
0000
1000
0010
,
0001
0000
0001
0000
0001
0000
0001
0010
,
0100
0000
0100
0000
0100
0000
0100
1000
,
0010
0000
0010
0000
0010
0000
0010
0100
,
0001
1001
1000
1001
,
0110
0000
0000
0000
,
0100
0000
0000
0000
,
0100
0000
0000
0000
,
0010
0000
0000
0000
,
0010
0100
0010
0100
,
0001
0010
0001
0010
,
0100
1000
0100
1000
,
0001
1000
0001
0000
,
1001
0000
0000
0000
1000
0100
0010
0001
,
1000
0000
1000
0000
0001
0010
0100
1000
,
0001
0000
0001
0000
0100
0010
0100
0010
,
1000
0000
1000
0000
0010
0100
0010
0100
,
0001
0000
0001
0000
1000
0010
0100
0001
,
1000
0000
1000
0000
0001
0100
0010
1000
,
0001
0000
0001
0000
0100
0010
0100
0010
,
1000
0100
1000
0000
0001
0100
0001
0000
,
1001
0000
1000
0000
0100
0001
0100
1000
,
0001
0000
0001
0000
0100
1000
0100
0001
,
1000
0000
1000
0000
0010
0001
0010
1000
,
0001
0000
0001
0000
0100
1000
0100
0001
,
1000
0010
1000
0000
0001
0010
0100
1000
,
0001
0100
0001
0000
1000
0100
0010
0001
,
1000
0100
1000
0000
0001
0010
0100
1000
,
0001
0010
0001
0000
1000
0010
1000
0000
,
2001
0000
0000
0000
,
3002
0000
0000
0000
0000
0000
0000
0003
,
2000
0000
0000
0000
,
3002
0000
0000
0000
,
1003
0000
0000
0000
,
0001
0000
0000
0000
,
0100
0000
0000
0000
,
0200
0000
0020
0000
,
0000
0000
0330
0000
;

//---------------dance-single - ----------------
#NOTES:
     dance-single:
     :
     Beginner:
     1:
     0.070,0.117,0.062,0.000,0.000:
1000
0000
0000
0000
,
0000
0000
0000
0000
,
0001
0000
0000
0000
,
1000
0000
0000
0000
,
0010
0000
0000
0000
,
0000
0000
0000
0000
,
0100
0000
0000
0000
,
0000
0000
0000
0000
,
0010
0000
0000
0000
,
0000
0000
0000
0000
,
1000
0000
0000
0000
,
0001
0000
0000
0000
,
1001
0000
0000
0000
,
0100
0000
0000
0000
,
0010
0000
0000
0000
,
0100
0000
0000
0000
,
0001
0000
0000
0000
,
1000
0000
0000
0000
,
0001
0000
0000
0000
,
1000
0000
0000
0000
,
1001
0000
0000
0000
,
0000
0000
0000
0000
,
0000
0000
0000
0000
,
0100
0000
0010
0000
,
0100
0000
0000
0000
,
0100
0000
0000
0000
,
0100
0000
0000
0000
,
1001
0000
0000
0000
,
1000
0000
0000
0000
,
0000
0000
0000
0000
,
0001
0000
0000
0000
,
0000
0000
0000
0000
,
1000
0000
0000
0000
,
0000
0000
0000
0000
,
0010
0000
0000
0000
,
0000
0000
0000
0000
,
0100
0000
0000
0000
,
0010
0000
0000
0000
,
0100
0000
0000
0000
,
0001
0000
0000
0000
,
1000
0000
0000
0000
,
0100
0000
0000
0000
,
0010
0000
0000
0000
,
0001
0000
0000
0000
,
1001
0000
0000
0000
,
0000
0000
0000
0000
,
0000
0000
0000
0000
,
0000
0000
0000
0000
,
1000
0000
0000
0000
,
1000
0000
0000
0000
,
0001
0000
0000
0000
,
0001
0000
0000
0000
,
1001
0000
0000
0000
,
0000
0000
0000
0000
,
0100
0000
0000
0000
,
0000
0000
0000
0000
,
0010
0000
0000
0000
,
0000
0000
0000
0000
,
0100
0000
0000
0000
,
0000
0000
0000
0000
,
0001
0000
0000
0000
,
1000
0000
0000
0000
,
0001
0000
0000
0000
,
0100
0000
0000
0000
,
0010
0000
0000
0000
,
1000
0000
0000
0000
,
0001
0000
0000
0000
,
1000
0000
0000
0000
,
1001
0000
0000
0000
,
0000
0000
0000
0000
,
0000
0000
0000
0000
,
0000
0000
0000
0000
,
0110
0000
0000
0000
,
0000
0000
0000
0000
,
0000
0000
0000
0000
,
0000
0000
1001
0000
;
