#TITLE:Poly Months Off;
#SUBTITLE:;
#ARTIST:Perfume×Underworld;
#TITLETRANSLIT:;
#SUBTITLETRANSLIT:;
#ARTISTTRANSLIT:Perfume+Underworld;
#CREDIT:DMAxel;
#BANNER:Poly Months Off.png;
#BACKGROUND:Poly Months Off-bg.png;
#LYRICSPATH:;
#CDTITLE:DMAxel original simfile.png;
#MUSIC:Poly Months Off.MP3;
#OFFSET:-1.620;
#SAMPLESTART:30.044;
#SAMPLELENGTH:12.000;
#SELECTABLE:YES;
#BPMS:0.000=135.000;
#STOPS:;
#BGCHANGES:-0.250=Poly Months Off.avi=1.000=1=1=0,
99999=-nosongbg-=1.000=0=0=0 // don't automatically add -songbackground-
;

//---------------dance-single - ----------------
#NOTES:
     dance-single:
     :
     Easy:
     3:
     0.219,0.268,0.046,0.076,0.000: // measure 1
0000
0000
0000
0000
,  // measure 2
0000
0000
0000
0000
,  // measure 3
0000
0000
0000
0000
,  // measure 4
0000
0000
0000
0000
,  // measure 5
0000
0000
0000
0000
,  // measure 6
0000
0000
0000
0000
,  // measure 7
0000
0000
0000
0000
,  // measure 8
0000
0000
0000
0000
,  // measure 9
0001
1000
0010
0000
,  // measure 10
1000
0001
0100
0000
,  // measure 11
0001
0100
1000
0000
,  // measure 12
0010
1000
0001
1000
,  // measure 13
0100
0010
0001
0000
,  // measure 14
0100
0001
1000
0000
,  // measure 15
0010
1000
0001
0000
,  // measure 16
1000
0100
0001
1000
,  // measure 17
1001
0001
0001
0000
,  // measure 18
1000
0001
0010
0100
,  // measure 19
1000
1000
1000
0000
,  // measure 20
0010
1000
0100
0010
,  // measure 21
0001
0001
0001
0000
,  // measure 22
0100
0001
0010
0100
,  // measure 23
1000
1000
1000
0000
,  // measure 24
0100
1000
0100
0010
,  // measure 25
1001
0001
0001
0001
,  // measure 26
1000
0100
0010
0001
,  // measure 27
1000
1000
1000
1000
,  // measure 28
0001
0010
0100
1000
,  // measure 29
0001
0001
0001
0001
,  // measure 30
1000
0010
0100
0001
,  // measure 31
1000
1000
1000
1000
,  // measure 32
0001
0100
0010
1000
,  // measure 33
1001
0001
2000
0000
,  // measure 34
3001
0010
0002
0000
,  // measure 35
1003
0100
2000
0000
,  // measure 36
3010
0100
0001
1000
,  // measure 37
0100
0001
0020
0000
,  // measure 38
0031
0010
0001
1000
,  // measure 39
0100
1000
0010
0100
,  // measure 40
0010
0220
0000
0330
,  // measure 41
1001
0100
0001
0010
,  // measure 42
1000
0100
0001
0010
,  // measure 43
0100
1000
0001
0010
,  // measure 44
1000
0100
0001
0010
,  // measure 45
1000
0100
0010
0001
,  // measure 46
1000
0100
0001
1000
,  // measure 47
0001
1000
0001
1000
,  // measure 48
0001
1000
0001
1000
,  // measure 49
1001
0000
0000
0000
,  // measure 50
0010
0000
0000
0000
,  // measure 51
0010
0000
0000
0000
,  // measure 52
0010
0000
0000
0000
,  // measure 53
0020
0000
0000
0000
,  // measure 54
0230
0000
0000
0000
,  // measure 55
0320
0000
0000
0000
,  // measure 56
0230
0000
0000
0000
,  // measure 57
0301
1000
0001
0010
,  // measure 58
1000
0001
1000
0100
,  // measure 59
0001
1000
0001
0010
,  // measure 60
1000
0001
1000
0100
,  // measure 61
0001
1000
0001
0100
,  // measure 62
1000
0001
1000
0010
,  // measure 63
0001
1000
0001
0100
,  // measure 64
1000
0001
1000
0010
,  // measure 65
0100
0000
0000
0000
;

//---------------dance-single - ----------------
#NOTES:
     dance-single:
     :
     Medium:
     6:
     0.367,0.365,0.297,0.023,0.030: // measure 1
0000
0000
0000
0000
,  // measure 2
0000
0000
0000
0000
,  // measure 3
0000
0000
0000
0000
,  // measure 4
0000
0000
0000
0000
,  // measure 5
0102
0000
0000
0000
0000
1003
0000
1010
,  // measure 6
0000
0000
0000
0000
0000
0001
0000
0011
,  // measure 7
0000
0000
0000
0000
0000
1000
0000
1001
,  // measure 8
0000
0000
0000
0001
0010
0100
1000
0000
,  // measure 9
1001
0000
0001
0000
0100
0001
0000
1000
,  // measure 10
0001
1000
0001
0000
0100
0001
0000
1001
,  // measure 11
0000
0000
1000
0000
0010
1000
0000
0001
,  // measure 12
1000
0001
1000
0000
0010
1000
0000
1001
,  // measure 13
0000
0010
0001
0100
,  // measure 14
0110
0001
0010
0100
,  // measure 15
1100
1000
0100
0010
,  // measure 16
0011
0001
1001
0000
,  // measure 17
1001
0000
1000
0000
1000
0010
1000
0000
,  // measure 18
0010
0000
1000
0001
0100
0001
0100
0001
,  // measure 19
0100
0010
1000
0001
,  // measure 20
1001
0000
1000
0100
1000
0100
1000
0100
,  // measure 21
1000
0010
0100
0001
,  // measure 22
1000
0001
1000
0001
1000
0001
1000
0001
,  // measure 23
1000
0010
0100
0001
,  // measure 24
0010
0001
0010
0001
0100
0010
0100
0010
,  // measure 25
0100
0001
1000
0010
,  // measure 26
1000
0100
1000
0100
1000
0100
1000
0100
,  // measure 27
1000
0010
0100
0001
,  // measure 28
1000
0010
1000
0010
0100
0010
0100
0010
,  // measure 29
0100
0001
1000
0001
,  // measure 30
0100
0001
0100
0001
0100
0010
0100
0010
,  // measure 31
0100
0001
0010
0100
,  // measure 32
1000
0001
0010
0100
1000
0001
0010
0100
,  // measure 33
1000
0000
1001
0000
0001
0000
0001
0100
,  // measure 34
0001
0000
1001
0000
1000
0000
1000
0010
,  // measure 35
1000
0000
1001
0000
0001
0000
0001
0010
,  // measure 36
0001
0000
1001
0000
1000
0000
1000
0100
,  // measure 37
1000
0000
1001
0000
0001
0000
0001
0010
,  // measure 38
0001
0000
1001
0000
1000
0000
1000
0100
,  // measure 39
1000
0000
1001
0000
0001
0000
0001
0100
,  // measure 40
0010
0220
0000
0330
,  // measure 41
0001
0100
0010
1000
0000
1000
0100
0010
,  // measure 42
0001
0000
0001
0010
0100
1000
0000
1000
,  // measure 43
0010
0100
0001
0000
0001
0010
0100
1000
,  // measure 44
0000
1000
0010
0100
0001
0000
0001
0100
,  // measure 45
0010
1000
0000
1000
0100
0010
0001
0000
,  // measure 46
0001
0010
0100
1000
0000
1000
0010
0100
,  // measure 47
0000
0001
0100
0010
0000
1000
0100
0010
,  // measure 48
0000
0001
0010
0100
0000
1000
0010
0100
,  // measure 49
0110
0000
0000
0000
0000
0000
0000
0000
0000
0000
0001
0000
0000
0001
0000
0000
,  // measure 50
0101
0000
0000
0000
0000
0000
0000
0000
0000
0000
1000
0000
0000
1000
0000
0000
,  // measure 51
1010
0000
0000
0000
0000
0000
0000
0000
0000
0000
0001
0000
0000
0001
0000
0000
,  // measure 52
0011
0000
0000
0000
0000
0000
0000
0000
0000
0000
1000
0000
0000
1000
0000
0000
,  // measure 53
1100
0000
0000
0000
0000
0000
0000
0000
0000
0000
0001
0000
0000
0001
0000
0000
,  // measure 54
1001
0000
0000
0000
0000
0000
0000
0000
0000
0000
1000
0000
0000
1000
0000
0000
,  // measure 55
1001
0000
0000
0000
0000
0000
0000
0000
0000
0000
0010
0000
0000
0010
0000
0000
,  // measure 56
0110
0000
0000
0000
0000
0000
0000
0000
0000
0000
0100
0000
0000
0100
0000
0000
,  // measure 57
0110
0000
1001
0000
1000
0010
0100
0000
,  // measure 58
0001
0000
1001
0000
0001
0100
0010
0000
,  // measure 59
1000
0000
1001
0000
1000
0001
0100
0000
,  // measure 60
0100
0000
0110
0000
0001
1000
0010
0000
,  // measure 61
0010
0000
0110
0000
0100
0001
1000
0000
,  // measure 62
1000
0000
1001
0000
0010
1000
0001
0000
,  // measure 63
0001
0000
1001
0000
1000
0010
0100
0000
,  // measure 64
0101
0000
1001
0000
0001
0010
0100
1000
,  // measure 65
0001
0000
0000
0000
;

//---------------dance-single - ----------------
#NOTES:
     dance-single:
     :
     Hard:
     8:
     0.466,0.463,0.129,0.046,0.190: // measure 1
0000
0000
0000
0000
,  // measure 2
0000
0000
0000
0000
,  // measure 3
0000
0000
0000
0000
,  // measure 4
0000
0000
0000
0000
,  // measure 5
1000
0000
1000
0000
0010
0001
0010
1000
,  // measure 6
0001
0000
0001
0000
0100
1000
0100
0001
,  // measure 7
1000
0000
1000
0000
0100
0001
0100
1000
,  // measure 8
0001
0000
0001
1000
0001
0010
0100
1000
,  // measure 9
0010
1000
0010
0000
0010
1000
0100
0010
,  // measure 10
0001
0000
0000
0000
0101
0000
0000
0000
0010
0000
1000
0000
0000
0101
0000
0000
,  // measure 11
0100
0001
1000
0000
0010
1000
0100
0010
,  // measure 12
0001
0000
0100
0000
0010
0000
0100
0000
0001
0000
1000
0000
0000
0001
0000
0000
,  // measure 13
0100
0001
0100
0000
0100
0001
0010
0100
,  // measure 14
1000
0000
0000
0000
1010
0000
0000
0000
0100
0000
0001
0000
0000
1010
0000
0000
,  // measure 15
0010
1000
0001
0000
0100
0001
0010
0100
,  // measure 16
1000
0010
0100
0010
1000
0001
0010
0000
,  // measure 17
0011
0000
0000
0000
0010
0000
0001
0000
1000
0000
0010
0000
0000
0010
0000
0000
,  // measure 18
0010
1000
0100
0010
0001
0010
1000
1000
,  // measure 19
0100
0000
0000
0000
0100
0000
1000
0000
0001
0000
0010
0000
0000
0010
0000
0000
,  // measure 20
0010
0001
0010
0100
1000
0100
0001
0001
,  // measure 21
0010
0000
0000
0000
0010
0000
0001
0000
1000
0000
0010
0000
0000
0100
0000
0000
,  // measure 22
0010
1000
0100
0010
0001
1000
0100
0001
,  // measure 23
1000
0000
0000
0000
0100
0000
1000
0000
0001
0000
0100
0000
0000
0010
0000
0000
,  // measure 24
0100
0001
0010
0100
1000
0001
0010
1000
,  // measure 25
0001
0000
0000
0000
1000
0000
0100
0000
0001
0000
0010
0000
0100
0000
0000
1000
,  // measure 26
0001
0000
0100
0000
0010
0000
0100
0000
0001
0000
0010
0000
1000
0000
0000
0010
,  // measure 27
0100
0000
0000
0000
0001
0000
0010
0000
1000
0000
0100
0000
0010
0000
0000
0001
,  // measure 28
1000
0000
0010
0000
0100
0000
0010
0000
1000
0000
0100
0000
0001
0000
0000
0100
,  // measure 29
0010
0000
0000
0000
1000
0000
0100
0000
0001
0000
0010
0000
0100
0000
0000
1000
,  // measure 30
0001
0000
0100
0000
0010
0000
0100
0000
0001
0000
0010
0000
0000
0100
0000
0000
,  // measure 31
0010
0000
0000
0000
0001
0000
0010
0000
1000
0000
0100
0000
0000
0010
0000
0000
,  // measure 32
0100
1000
0100
0010
0001
1000
0100
0001
,  // measure 33
1000
0000
0000
0000
0010
0000
0100
0000
0010
0000
1000
0000
0000
1000
0000
0000
,  // measure 34
0100
0000
0000
0000
0010
0000
0001
0000
0010
0000
0100
0000
0000
0100
0000
0000
,  // measure 35
1000
0000
0000
0000
0001
0000
0100
0000
1000
0000
0100
0000
0000
0100
0000
0000
,  // measure 36
0010
0000
0000
0000
1000
0000
0001
0000
0010
0000
0100
0000
0000
0100
0000
0000
,  // measure 37
0210
0000
0000
0000
1300
0000
0100
0000
0010
0000
0001
0000
0000
0001
0000
0000
,  // measure 38
2000
0000
0000
0000
3001
0000
0100
0000
0010
0000
1000
0000
0000
1000
0000
0000
,  // measure 39
0002
0000
0000
0000
0013
0000
0100
0000
1000
0000
0001
0000
0000
1000
0000
0000
,  // measure 40
0001
0010
0100
1000
0100
0001
0100
0010
,  // measure 41
1000
0100
0001
0100
1000
1000
0010
0001
,  // measure 42
0010
1000
0001
0100
1000
0100
0001
0001
,  // measure 43
0010
1000
0010
0001
1000
0100
0001
0100
,  // measure 44
1000
1000
0010
0001
0010
1000
0001
0100
,  // measure 45
1000
0100
0001
0001
0010
1000
0010
0001
,  // measure 46
1000
0100
0001
0100
1000
1000
0100
0010
,  // measure 47
1000
0100
0010
1000
0100
0010
1000
0100
,  // measure 48
0010
1000
0100
0010
1000
0100
0010
0001
,  // measure 49
1002
0000
0000
0000
0000
0000
0000
0000
0000
0000
0100
0000
0000
0100
0000
0000
,  // measure 50
0203
0000
0000
0000
0000
0000
0000
0000
0000
0000
0010
0000
0000
0010
0000
0000
,  // measure 51
0320
0000
0000
0000
0000
0000
0000
0000
1030
0000
0001
0000
0000
0010
0000
0000
,  // measure 52
0001
0000
0010
0000
0100
0000
0000
0000
1000
0000
0001
0000
0000
0010
0000
0000
,  // measure 53
0001
0000
0010
0000
0100
0000
0000
0000
1000
0000
0010
0000
0000
0100
0000
0000
,  // measure 54
0001
0000
0010
0000
0100
0000
0000
0000
1000
0000
0010
0000
0000
0100
0000
0000
,  // measure 55
0001
0000
0010
0000
0100
0000
0001
0000
0010
0000
0100
0000
0000
1000
0000
0000
,  // measure 56
1000
0000
0100
0000
0010
0000
1000
0000
0100
0000
0010
0000
0000
0001
0000
0000
,  // measure 57
0001
0000
0010
0000
1000
0000
0100
0000
0010
0000
0001
0000
0000
0101
0000
0000
,  // measure 58
1000
0000
0000
1000
0010
0000
0000
0010
0100
0000
0001
0000
0000
1001
0000
0000
,  // measure 59
0001
0000
0000
0001
0100
0000
0000
0100
0010
0000
1000
0000
0000
1010
0000
0000
,  // measure 60
1000
0000
0000
1000
0100
0000
0000
0100
0010
0000
0001
0000
0000
0011
0000
0000
,  // measure 61
0001
0000
0000
0001
0010
0000
0000
0010
0100
0000
1000
0000
0000
1100
0000
0000
,  // measure 62
1100
0000
0000
1000
0001
0000
0000
0001
0100
0000
0010
0000
0000
0110
0000
0000
,  // measure 63
0110
0000
0000
0001
1000
0000
0000
1000
0010
0000
0100
0000
0000
0110
0000
0000
,  // measure 64
0110
0000
0000
1000
0001
0000
0000
0001
0100
0000
0010
0000
0100
0000
0001
0000
,  // measure 65
1000
0000
0000
0000
;

//---------------dance-single - ----------------
#NOTES:
     dance-single:
     :
     Beginner:
     1:
     0.073,0.146,0.038,0.000,0.000: // measure 1
0000
0000
0000
0000
,  // measure 2
0000
0000
0000
0000
,  // measure 3
0000
0000
0000
0000
,  // measure 4
0000
0000
0000
0000
,  // measure 5
0000
0000
0000
0000
,  // measure 6
0000
0000
0000
0000
,  // measure 7
0000
0000
0000
0000
,  // measure 8
0000
0000
0000
0000
,  // measure 9
1000
0000
0000
0000
,  // measure 10
0001
0000
0000
0000
,  // measure 11
1000
0000
0000
0000
,  // measure 12
0001
0000
0000
0000
,  // measure 13
0001
0000
0000
0000
,  // measure 14
1000
0000
0000
0000
,  // measure 15
0001
0000
0000
0000
,  // measure 16
1000
0000
0000
0000
,  // measure 17
1000
0000
0000
0000
,  // measure 18
0000
0000
0000
0000
,  // measure 19
0001
0000
0000
0000
,  // measure 20
0000
0000
0000
0000
,  // measure 21
1000
0000
0000
0000
,  // measure 22
0000
0000
0000
0000
,  // measure 23
0001
0000
0000
0000
,  // measure 24
1000
0000
0000
0000
,  // measure 25
1001
0000
0000
0000
,  // measure 26
0010
0000
0000
0000
,  // measure 27
0100
0000
0000
0000
,  // measure 28
0010
0000
0000
0000
,  // measure 29
1000
0000
0000
0000
,  // measure 30
0001
0000
0000
0000
,  // measure 31
1000
0000
0000
0000
,  // measure 32
1000
0000
0000
0000
,  // measure 33
1001
0000
0000
0000
,  // measure 34
0001
0000
0000
0000
,  // measure 35
0010
0000
0000
0000
,  // measure 36
0001
0000
0000
0000
,  // measure 37
1000
0000
0000
0000
,  // measure 38
0100
0000
0000
0000
,  // measure 39
1000
0000
0000
0000
,  // measure 40
0001
0000
0000
0000
,  // measure 41
1001
0000
0000
0000
,  // measure 42
0001
0000
0000
0000
,  // measure 43
1000
0000
0000
0000
,  // measure 44
0001
0000
0000
0000
,  // measure 45
1000
0000
0000
0000
,  // measure 46
0010
0000
0000
0000
,  // measure 47
0100
0000
0000
0000
,  // measure 48
0010
0000
0010
0000
,  // measure 49
0110
0000
0000
0000
,  // measure 50
1000
0000
0000
0000
,  // measure 51
1000
0000
0000
0000
,  // measure 52
1000
0000
0000
0000
,  // measure 53
0001
0000
0000
0000
,  // measure 54
0001
0000
0000
0000
,  // measure 55
0001
0000
0000
0000
,  // measure 56
0001
0000
0000
0000
,  // measure 57
1001
0000
1000
0000
,  // measure 58
0001
0000
0100
0000
,  // measure 59
0010
0000
0100
0000
,  // measure 60
0001
0000
1000
0000
,  // measure 61
0001
0000
1000
0000
,  // measure 62
0100
0000
1000
0000
,  // measure 63
0001
0000
0010
0000
,  // measure 64
0001
0000
0000
0000
,  // measure 65
1000
0000
0000
0000
;
