#TITLE:Polovtsian Dances And Chorus;
#SUBTITLE:(Trance Version);
#ARTIST:Naoto Suzuki feat. Martha;
#TITLETRANSLIT:;
#SUBTITLETRANSLIT:;
#ARTISTTRANSLIT:;
#CREDIT:Kyon;
#BANNER:Polovtsian Dances And Chorus (Trance Version).png;
#BACKGROUND:Polovtsian Dances And Chorus (Trance Version)-bg.png;
#LYRICSPATH:Polovtsian Dances And Chorus (Trance Version).lrc;
#CDTITLE:Konami Original Remix.png;
#MUSIC:Polovtsian Dances And Chorus (Trance Version).mp3;
#OFFSET:-0.180;
#SAMPLESTART:26.476;
#SAMPLELENGTH:12.000;
#SELECTABLE:YES;
#BPMS:0.000=146.000;
#STOPS:;
#BGCHANGES:7.000=Polovtsian Dances And Chorus (Trance Version).AVI=1.000=1=1=1,
99999=-nosongbg-=1.000=0=0=0 // don't automatically add -songbackground-
;

//---------------dance-single - ----------------
#NOTES:
     dance-single:
     :
     Easy:
     4:
     0.237,0.360,0.075,0.159,0.000:
0000
0000
0000
0000
,
0000
0000
0000
0000
,
0000
0000
0000
0000
,
0000
0000
0000
0000
,
0001
0000
0000
0000
,
0100
0000
0000
0000
,
0100
0000
0000
0000
,
0010
0000
0000
0000
,
0010
0000
0000
0000
,
1000
0000
0000
0000
,
1000
0000
0000
0000
,
0001
0000
0000
0000
,
0001
0000
0000
0000
,
0100
0000
0000
0000
,
0100
0000
0000
0000
,
0010
0000
0000
0000
,
0010
0100
0002
0000
,
0000
1003
0010
0100
,
0010
2000
0000
0000
,
0000
3001
0002
0000
,
0103
0100
0020
0000
,
0000
1030
0001
0100
,
0010
0000
1000
0000
,
0001
0000
1000
0000
,
0010
0100
0002
0000
,
0000
1003
0010
0000
,
0100
0020
0000
0000
,
0000
1030
0001
0000
,
0100
0010
2000
0000
,
0000
3001
0100
0010
,
1000
0000
0001
0000
,
0100
0000
0010
0000
,
0100
0001
1000
0010
,
1000
0001
0100
0001
,
0100
0010
0100
0010
,
0100
0010
1000
0010
,
1000
0001
0100
0001
,
0100
0001
0010
0001
,
1000
0100
1000
0010
,
0100
0010
1000
0001
,
1001
0010
0100
0010
,
1000
0010
0100
0001
,
0101
1010
0001
1000
,
0010
0100
0001
0010
,
0011
1100
0001
1000
,
0010
0100
0010
1000
,
0002
0000
0000
0000
,
2003
0000
0000
0000
,
3010
0100
0002
0000
,
0000
1003
0010
0100
,
0010
2000
0000
0000
,
0000
3001
0100
0010
,
1000
0001
1001
0000
,
0000
0100
0010
1000
,
0002
0000
2003
0000
,
3010
0100
0010
1000
,
1001
0010
0200
0000
,
0000
0301
0100
0010
,
2000
0000
0000
0000
,
3001
0100
0010
0100
,
0001
1000
1001
0000
,
0000
0010
0100
0010
,
2000
0000
0000
0000
,
3002
0000
0000
0000
,
1003
0000
0000
0000
;

//---------------dance-single - ----------------
#NOTES:
     dance-single:
     :
     Hard:
     7:
     0.483,0.539,0.244,0.290,0.000:
0000
0000
0000
0000
,
0000
0000
0000
0000
,
0000
0000
0000
0000
,
0000
0000
0000
0000
,
0002
0000
0000
1003
0000
0000
0010
0000
,
0000
0200
0000
0000
0310
0000
1000
0000
,
0001
0100
0001
0000
1000
0000
0010
0000
,
0100
0010
0100
0000
0001
0000
1000
0000
,
0020
0000
0000
2030
0000
0000
3002
0000
,
0000
0203
0000
0000
0310
0000
1000
0000
,
0002
0000
0000
0203
0000
0000
0320
0000
,
0000
2030
0000
0000
3001
0000
0100
0000
,
0002
0000
0000
2003
0000
0000
3020
0000
,
0000
0230
0000
0000
0301
0000
1000
0000
,
0010
1000
0010
0000
0100
0000
0001
0000
,
1000
0001
1000
0000
0010
0000
0100
0000
,
0101
1010
2001
0000
,
0000
0000
3001
0100
0010
1000
0001
0010
,
0100
1000
0002
0000
0000
0000
0000
0000
,
1003
0000
0010
0100
0010
1000
0001
0000
,
0101
1010
2001
0000
,
0000
0000
3001
0100
0010
0100
0001
1000
,
0001
0010
1000
0000
0010
0000
0100
0000
,
0001
0000
0100
0010
0100
0010
1000
0000
,
0011
1100
2001
0000
,
0000
0000
3010
0100
0010
0100
0001
1000
,
0001
0100
0010
1000
,
0001
0000
0100
0010
0100
0010
1000
0001
,
1010
0101
2001
0000
,
0000
0000
3001
0100
0010
0100
0001
1000
,
0001
0010
1000
0000
0001
0000
0100
0000
,
0010
0100
0001
1000
,
0001
0010
0100
1000
0010
0100
0010
0100
,
0001
1000
0010
1000
0010
0100
0010
0100
,
0001
2000
0001
0001
,
3100
0000
0010
0100
0010
1000
0010
0100
,
0002
2003
3020
0230
,
0310
0000
1000
0001
0010
0001
0010
0100
,
1000
0010
0001
0100
0001
0010
1000
0001
,
0100
0001
0010
0001
0010
0100
1000
0000
,
0001
0100
0010
0100
0010
1000
0010
0100
,
0010
0100
0001
1000
0001
1000
0010
0100
,
0001
0010
1000
0100
1000
0010
0001
0100
,
0010
1000
0001
0100
0010
0100
0010
0000
,
1000
0000
0001
0000
0100
0010
0100
0000
,
0001
0000
1000
0100
0010
0001
0100
0010
,
2000
0000
0000
0000
,
3002
0000
0000
0000
,
1003
0110
2001
0000
,
0000
0000
3010
0100
0010
0100
0001
1000
,
0010
0101
1000
1010
,
0001
0000
0100
0001
1000
0010
1000
0100
,
1010
0101
2001
0000
,
0000
0000
3001
0010
0100
1000
0010
1000
,
0001
0010
1000
0000
0010
0000
0100
0000
,
0001
1000
0001
0100
0001
1000
0010
0000
,
1010
0101
2001
0000
,
0000
0000
3001
0010
0100
1000
0001
0100
,
0010
1000
0020
0000
0000
0000
0000
0000
,
1030
0000
0001
0100
0010
0100
0010
1000
,
1010
0101
2001
0000
,
0000
0000
3001
0100
0001
0100
0010
0100
,
0001
0010
0100
1000
0100
0010
0001
0100
,
0010
1000
0010
0100
0001
1000
0010
0100
,
1001
0000
0000
0000
;

//---------------dance-single - ----------------
#NOTES:
     dance-single:
     :
     Challenge:
     8:
     0.599,0.629,0.356,0.150,0.056: // measure 1
0000
0000
0000
0000
,  // measure 2
0000
0000
0000
0000
,  // measure 3
0000
0000
0000
0000
,  // measure 4
0000
0000
0000
0000
,  // measure 5
1001
0100
0010
0100
0010
1000
0001
0100
,  // measure 6
0010
1000
0010
0100
0011
0000
1100
0000
,  // measure 7
0001
0100
0010
0000
1000
0100
0010
0000
,  // measure 8
0001
0010
0100
0000
1000
0010
0100
0000
,  // measure 9
1001
0010
0001
1000
0001
0100
0010
1000
,  // measure 10
0010
0100
0010
1000
0110
0000
1001
0000
,  // measure 11
0011
1000
0100
1000
0010
1000
0001
0100
,  // measure 12
0010
0100
0010
0000
0101
0000
1010
0000
,  // measure 13
0110
1000
0001
1000
0010
0100
0010
1000
,  // measure 14
0010
0100
0010
1000
0011
0000
1100
0000
,  // measure 15
0001
0100
0010
0000
1000
0010
0100
0000
,  // measure 16
0001
0010
0100
0000
1000
0100
0010
0000
,  // measure 17
1010
0101
1002
1000
,  // measure 18
1000
0000
1003
0010
0100
0001
1000
0100
,  // measure 19
0010
0001
2000
0000
3001
0000
0100
0001
,  // measure 20
0100
0000
0010
0100
0001
1000
0010
0000
,  // measure 21
1010
0101
1002
1000
,  // measure 22
1000
0000
1003
0010
0100
0010
1000
0001
,  // measure 23
1000
0100
0001
0000
0100
0010
0100
0000
,  // measure 24
0001
1000
0010
0100
0010
0100
0001
0000
,  // measure 25
1100
0011
1002
1000
,  // measure 26
1000
0000
1003
0010
0100
0010
1000
0001
,  // measure 27
1000
0010
0200
0000
0001
0000
0301
0000
,  // measure 28
1000
0000
0010
0100
0010
0100
0001
1000
,  // measure 29
0101
1010
1002
1000
,  // measure 30
1000
0000
1003
0010
0100
0010
1000
0001
,  // measure 31
1000
0100
0001
0000
1000
0010
0100
0000
,  // measure 32
0001
0100
0010
0000
1000
0001
1000
0000
,  // measure 33
0001
1000
0001
0000
0010
0000
0001
0000
0100
0000
0010
0000
0100
0000
0010
0000
,  // measure 34
1000
0001
1000
0000
0010
0000
0100
0000
0010
0000
1000
0000
0001
0000
0100
0000
,  // measure 35
0001
1000
0001
0000
0200
0000
0000
0000
0010
0000
0000
0000
0010
0000
0000
0000
,  // measure 36
0310
0000
0001
0010
0100
1000
0010
0100
,  // measure 37
0002
2003
3020
0230
,  // measure 38
0301
0000
1000
0010
1000
0010
0100
0001
,  // measure 39
1000
0010
0001
0010
0001
0010
1000
0010
,  // measure 40
1000
0010
0001
1000
0100
0010
0001
0000
,  // measure 41
1000
0001
1000
0000
0010
0000
0100
0000
0010
0000
1000
0000
0010
0000
0100
0000
,  // measure 42
0010
0100
0010
0000
1000
0000
0001
0000
1000
0000
0001
0000
0100
0000
0010
0000
,  // measure 43
1000
0001
1000
0000
0001
0000
0010
0000
0001
0000
0100
0000
1000
0000
0010
0000
,  // measure 44
1000
0100
0001
0100
0010
0100
0001
0000
,  // measure 45
1000
0100
1000
0000
0010
0000
0100
0000
0001
0000
0010
0000
0100
0000
1000
0000
,  // measure 46
0001
1000
0001
0010
0100
1000
0010
0100
,  // measure 47
0001
0010
0001
0000
1000
0100
1000
0000
,  // measure 48
0001
1000
0001
0000
0100
0000
0010
0000
0100
0000
0010
0000
1000
0000
0000
0000
,  // measure 49
1001
0110
1002
1000
,  // measure 50
1000
0000
1003
0010
0100
0010
1000
0001
,  // measure 51
0100
1010
0001
0101
,  // measure 52
1000
0000
0010
1000
0001
0100
0001
0010
,  // measure 53
0101
1010
1002
1000
,  // measure 54
1000
0000
1003
0100
0010
0001
0100
0001
,  // measure 55
1000
0100
0001
0000
0100
0000
0010
0000
,  // measure 56
1000
0001
1000
0010
1000
0001
0100
0000
,  // measure 57
0101
1010
1002
1000
,  // measure 58
1000
0000
1003
0100
0010
0001
1000
0010
,  // measure 59
0100
0001
0200
0000
0001
0000
0001
0000
,  // measure 60
0301
0000
1000
0010
0100
0010
0100
0001
,  // measure 61
0101
1010
1002
1000
,  // measure 62
1000
0000
1003
0010
1000
0010
0100
0010
,  // measure 63
1000
0100
0010
0001
0010
0100
1000
0010
,  // measure 64
0100
0000
0001
0000
0100
0000
0010
0000
1000
0001
1000
0001
1000
0001
1000
0001
,  // measure 65
1000
0000
0000
0000
;

//---------------dance-single - ----------------
#NOTES:
     dance-single:
     :
     Medium:
     6:
     0.380,0.480,0.140,0.197,0.000:
0000
0000
0000
0000
,
0000
0000
0000
0000
,
0000
0000
0000
0000
,
0000
0000
0000
0000
,
1000
0000
0000
0001
0000
0000
0100
0000
,
0000
0010
0000
0000
0100
0000
0001
0000
,
1000
0001
0100
0010
,
0100
0010
1000
0001
,
0100
0000
0000
0001
0000
0000
1000
0000
,
0000
0010
0000
0000
0100
0000
0001
0000
,
1000
0000
0000
0010
0000
0000
0100
0000
,
0000
0001
0000
0000
1000
0000
0010
0000
,
1000
0000
0000
0001
0000
0000
0100
0000
,
0000
0010
0000
0000
1000
0000
0001
0000
,
0100
0010
0100
0001
,
1000
0001
0100
0010
,
1000
0001
1002
0000
,
0000
1003
0001
1000
,
0010
2000
0000
0000
,
3001
0100
0010
1000
,
0001
1000
1002
0000
,
0000
1003
0010
1000
,
0002
1003
0010
0100
,
0010
0100
0001
1000
,
0001
1000
1002
0000
,
0000
0103
0010
1000
,
0001
0100
0001
1000
,
0010
0100
0010
1000
,
0001
1000
1002
0000
,
0000
1003
0010
1000
,
0002
0103
0010
1000
,
0010
0100
0001
1000
,
0001
0010
0100
1000
0010
0100
0010
0100
,
0001
0000
0100
0001
0100
0010
0100
0010
,
1000
0001
1000
0010
,
0100
0000
0010
0000
0100
0001
0100
0010
,
2000
0000
3002
0000
,
0103
0000
0001
0010
0100
1000
0010
0100
,
0010
0100
0001
0000
2000
0000
3001
0000
,
0100
0010
0100
0001
,
1000
0100
0010
0001
0100
0001
0100
0010
,
0100
0000
0001
0010
0100
1000
0010
0100
,
0002
0103
0020
1030
,
0001
1000
0010
0100
,
0001
0000
1000
0000
0010
0100
0010
0000
,
1000
0000
0001
0010
0100
1000
0010
0100
,
0002
0000
0000
0000
,
2003
0000
0000
0000
,
3001
0110
1002
0000
,
0000
0000
0103
0000
0010
0000
1000
0001
,
0100
1010
0001
0101
,
1000
0000
0010
1000
0001
0000
0100
0000
,
0001
1000
1002
0000
,
0000
0000
1003
0010
0100
0000
0001
1000
,
0002
0103
0010
0100
,
0001
0000
1000
0010
1000
0001
0100
0000
,
0101
1010
1002
0000
,
0000
0000
1003
0000
0010
0000
1000
0010
,
0100
0001
0200
0000
0000
0000
0000
0000
,
0301
0000
1000
0010
0100
0010
0100
0001
,
0101
1010
1002
0000
,
0000
0000
1003
0010
1000
0010
0100
0010
,
1000
0100
0010
0001
0010
0100
1000
0010
,
0100
0001
0100
0010
2000
0000
0000
0000
,
3001
0000
0000
0000
;

//---------------dance-single - ----------------
#NOTES:
     dance-single:
     :
     Beginner:
     1:
     0.058,0.120,0.019,0.000,0.000:
0000
0000
0000
0000
,
0000
0000
0000
0000
,
0000
0000
0000
0000
,
0000
0000
0000
0000
,
0000
0000
0000
0000
,
0000
0000
0000
0000
,
0000
0000
0000
0000
,
0000
0000
0000
0000
,
1000
0000
0000
0000
,
0000
0000
0000
0000
,
0100
0000
0000
0000
,
0000
0000
0000
0000
,
1000
0000
0000
0000
,
0000
0000
0000
0000
,
0100
0000
0000
0000
,
0000
0000
0000
0000
,
1000
0000
0000
0000
,
0000
0001
0000
0000
,
0010
0000
0000
0000
,
0000
0001
0000
0000
,
0100
0000
0000
0000
,
0000
0001
0000
0000
,
0100
0000
0000
0000
,
0000
0000
0000
0000
,
0010
0000
0000
0000
,
0000
0100
0000
0000
,
0010
0000
0000
0000
,
0000
0100
0000
0000
,
0010
0000
0000
0000
,
0000
1000
0000
0000
,
0001
0000
0000
0000
,
0000
0000
0000
0000
,
1000
0000
0000
0000
,
0000
0000
0000
0000
,
0001
0000
0000
0000
,
0000
0000
0000
0000
,
1000
0000
0000
0000
,
0000
0000
0000
0000
,
0001
0000
0000
0000
,
0000
0000
0000
0000
,
0100
0000
0000
0000
,
0000
0000
0000
0000
,
0010
0000
0000
0000
,
0000
0000
0000
0000
,
0100
0000
0000
0000
,
0000
0000
0000
0000
,
0010
0000
0000
0000
,
0000
0000
0000
0000
,
1001
0000
0000
0000
,
0000
0001
0000
0000
,
1000
0000
0000
0000
,
0000
0010
0000
0000
,
0100
0000
0000
0000
,
0000
0010
0000
0000
,
1000
0000
0000
0000
,
0000
0000
0000
0000
,
0001
0000
0100
0000
,
0000
0000
0000
0000
,
0001
0000
0000
0000
,
0000
0000
0000
0000
,
1000
0000
0001
0000
,
0000
0000
0000
0000
,
0100
0000
0000
0000
,
0010
0000
0000
0000
,
1001
0000
0000
0000
;
