#TITLE:Pinky Nick;
#SUBTITLE:;
#ARTIST:NICK BOYS;
#TITLETRANSLIT:;
#SUBTITLETRANSLIT:;
#ARTISTTRANSLIT:;
#CREDIT:DMAxel;
#BANNER:Pinky Nick.png;
#BACKGROUND:Pinky Nick-bg.png;
#LYRICSPATH:;
#CDTITLE:ee'mall.png;
#MUSIC:Pinky Nick.mp3;
#OFFSET:-1.640;
#SAMPLESTART:24.363;
#SAMPLELENGTH:12.000;
#SELECTABLE:YES;
#BPMS:0.000=84.500,64.000=169.000,128.000=84.500,160.000=189.000;
#STOPS:;
#BGCHANGES:;

//---------------dance-single - ----------------
#NOTES:
     dance-single:
     :
     Easy:
     3:
     0.255,0.324,0.297,0.045,0.000:
0000
0000
0000
0000
,
0000
0000
0000
0000
,
1010
0000
0101
0000
,
1001
0000
1000
0100
,
1002
0000
1003
0000
,
0020
0000
0130
0010
,
1001
0000
1010
0000
,
0101
0000
0001
0100
,
0110
1001
0001
0010
,
0100
1000
0100
0010
,
0001
0110
1000
0110
,
0001
1001
0110
0110
,
1001
0100
0010
0100
,
0001
1000
0100
0010
,
0001
0010
0100
1000
,
0001
0010
0100
1000
,
0110
0010
0010
0010
,
0010
0010
1001
0000
,
0100
0100
0100
0100
,
0001
1000
0001
0000
,
1000
1000
1000
1000
,
1001
0000
1001
0000
,
1000
0001
1000
0001
,
0100
0010
0100
0010
,
1002
1000
1003
0000
,
2001
0001
3001
0000
,
1001
0010
0100
0010
,
2001
0001
0001
3001
,
0100
0000
0010
0000
,
1000
0001
1000
0001
,
0100
0100
0010
0010
,
1000
0100
0010
0001
,
1001
0100
0010
0010
,
0001
0010
0100
0100
,
1000
0100
0010
0001
,
1001
0010
1000
0100
,
1001
0100
1000
0100
,
0010
0001
0001
0100
,
1001
0010
0001
0010
,
0100
0100
1000
0010
,
1001
0000
0001
0000
,
0110
0000
1000
0000
,
0110
0000
0001
0000
,
1001
0000
1000
0000
,
1001
0010
0001
0010
,
0001
1000
0001
1000
,
0001
1000
0100
1000
,
0100
0010
0001
1000
,
1001
0000
0000
0000
;

//---------------dance-single - ----------------
#NOTES:
     dance-single:
     :
     Hard:
     7:
     0.423,0.476,0.333,0.009,0.113:
0000
0000
0000
0000
,
0000
0000
0000
0000
,
0011
0000
0000
0010
0000
0000
0010
0000
0100
0000
0000
1000
0000
0000
0100
0000
,
0010
0000
0000
0001
0000
0000
1000
0000
0001
1000
0001
1000
0001
1000
0001
0000
,
0110
0000
0000
1000
0000
0000
0100
0000
1000
0000
0000
0100
0000
0000
0010
0000
,
0001
0000
0000
0100
0000
0000
0010
0000
1000
0001
1000
0001
1000
0001
1000
0000
,
0010
0000
0000
0100
0000
0000
0001
0000
0101
0000
0000
0010
0000
0000
1000
0000
,
1010
0000
0000
0100
0000
0000
0001
0000
1000
0001
1000
0001
1000
0001
1000
0000
,
0110
0001
0010
0001
0100
0001
0010
0100
,
1000
0000
0010
0000
0100
0000
0010
0000
1000
0100
1000
0000
0001
0010
0001
0000
,
1001
0010
0100
0000
1001
0100
0010
0000
,
1001
0000
0010
0000
0100
0000
1000
0000
0010
0100
0010
0100
0010
0100
0010
0000
,
1001
0000
0010
0001
0100
0001
0010
0100
,
1000
0000
1000
0000
0010
0000
0100
0000
0001
0010
0001
0000
1000
0100
1000
0000
,
1001
0010
0010
0001
0010
0200
0000
0000
,
1300
0010
0001
0100
0001
0010
1000
1000
,
0010
0100
0010
0000
1000
0000
0010
0100
,
0010
1000
1001
0000
,
0100
0010
0100
0000
0001
0100
0001
0000
,
1000
0010
1000
0010
0100
0001
0100
0000
,
0010
0100
0010
0000
1000
0001
1000
0000
,
0010
0100
0110
1001
,
0100
0001
0100
0000
0001
1000
0001
0000
,
0100
0001
0100
0001
1000
0010
1000
0000
,
0110
0000
0001
0010
1000
0000
0010
0000
,
0110
0000
1000
0100
0001
0000
0100
0000
,
0110
0000
0001
0000
1000
0010
1000
0000
,
0100
1000
0100
1000
0001
0010
0001
0000
,
0100
0000
0001
0100
0000
0100
0001
0000
,
0100
0000
0010
0000
1000
0001
1000
0000
,
0010
1000
0000
1000
0010
0000
0100
0000
,
0001
0010
0001
0010
0100
1000
0100
0000
,
1001
0000
0011
0000
1100
0010
0100
0010
,
1000
0100
0010
0000
0001
0010
0100
0000
,
1001
0000
1100
0000
0011
0100
0010
0100
,
0001
0010
0100
0000
1000
0100
0010
0001
,
0110
0000
1010
0000
0101
0010
0100
0010
,
1000
0100
0010
0000
0001
0010
0100
0000
,
1000
0010
0100
0001
0010
0100
1000
0000
,
0001
0100
0010
1000
0100
0010
0001
1000
,
1001
0000
0000
0010
0000
0000
0011
0000
,
1001
0000
0000
1000
0000
0000
1100
0000
,
1001
0000
0000
0001
0000
0000
0101
0000
,
1001
0000
0000
0010
0000
0000
1010
0000
,
1001
0000
0010
1000
0000
1000
0100
0000
,
1001
0000
0010
0001
0000
0001
0100
0000
,
1001
0000
0010
1000
0000
1000
0100
0000
,
1000
0001
1000
0001
0100
0010
0100
0010
,
1001
0000
0000
0000
;

//---------------dance-single - ----------------
#NOTES:
     dance-single:
     :
     Challenge:
     9:
     0.582,0.649,0.477,0.000,0.419: // measure 1
0000
0000
0000
0000
,  // measure 2
0000
0000
0000
0000
,  // measure 3
1001
0000
0000
1010
0000
0000
1010
0000
1001
0000
0000
0011
0000
0000
0011
0000
,  // measure 4
1001
0000
0000
1100
0000
0000
1100
0000
0010
0001
0010
1000
0010
0001
0010
0100
,  // measure 5
1001
0000
0000
0100
0000
0010
1000
0000
0001
0000
0100
0001
0000
0000
0011
0000
,  // measure 6
0100
1000
0000
0100
0010
0000
0101
0000
0010
1000
0010
0001
0010
1000
0100
0010
,  // measure 7
0001
0000
0000
0010
0000
0001
0100
0000
1001
0000
0000
0100
0010
0000
0101
0000
,  // measure 8
1001
0000
0000
0100
0001
0010
0001
0000
0100
0001
0100
1000
0100
0001
0100
0010
,  // measure 9
1001
0000
0100
0010
1000
0000
0100
0000
1000
0010
0100
0000
0010
0100
0010
0000
,  // measure 10
0100
0001
0010
0000
0001
0000
1001
0000
0100
0001
0100
1000
0100
0001
0100
0010
,  // measure 11
1000
0000
1100
0000
0010
0001
0100
0000
0011
0000
1001
0000
0100
1000
0010
0000
,  // measure 12
0100
0010
0100
0000
0010
0100
0001
0100
0000
0001
0100
1000
0100
0001
0010
0100
,  // measure 13
1001
0000
0011
0000
0100
1000
0100
1000
0010
0000
1001
0000
1100
0000
0010
0001
,  // measure 14
0010
0000
1001
0000
0100
0000
0010
1000
0010
0001
0010
1000
0100
0010
0001
0000
,  // measure 15
0101
0000
0010
0000
0100
0000
0010
1000
0000
0010
1000
0010
0100
0000
0010
0000
,  // measure 16
1010
0000
0100
0001
0000
0001
0100
0010
0100
0000
0010
1000
0000
0000
0110
0000
,  // measure 17
0001
0010
0001
0010
0001
0010
0100
1000
,  // measure 18
0100
0010
0001
1000
0001
0000
1000
0100
,  // measure 19
1000
0100
0010
0001
0100
0010
0100
0000
,  // measure 20
0010
1000
0010
0001
0010
0100
1000
0000
,  // measure 21
0001
0100
0001
0100
0010
1000
0010
0001
,  // measure 22
0010
1000
0100
0010
1001
0000
1001
0000
,  // measure 23
0010
0001
0100
0001
0010
0000
1001
0000
,  // measure 24
0010
0001
0010
1000
0100
0010
0001
0000
,  // measure 25
1001
0000
0000
0100
0000
0000
1000
0000
0010
0000
0000
0000
0100
0000
0001
0000
,  // measure 26
0010
0000
0000
0001
0000
0000
0100
0000
0001
0000
0000
0000
1000
0000
0010
0000
,  // measure 27
1000
0010
0100
0001
0100
1000
0100
0000
,  // measure 28
0010
0001
0010
1000
0100
0010
0001
0100
,  // measure 29
0010
0000
0010
1000
0100
1000
0010
1000
,  // measure 30
0010
0000
0001
0000
0010
0000
0100
0000
1000
0000
0000
1001
0000
0000
0000
0000
,  // measure 31
0010
0100
0001
0100
1000
0010
0100
0000
,  // measure 32
0010
1000
0010
0001
0010
1000
0100
0010
,  // measure 33
1001
0000
1100
0000
1000
0010
0100
0010
0000
0100
0010
0100
0001
0010
0001
0100
,  // measure 34
0000
0010
1000
0010
0100
0000
0001
0000
0100
0010
1000
0000
1001
0000
0010
0001
,  // measure 35
0100
0000
0010
0000
1000
0100
0010
0000
0001
0000
0100
0010
0100
0010
0100
0000
,  // measure 36
1001
0000
0100
0000
0010
0001
0010
0100
1000
0010
0100
0001
0100
0010
0100
0001
,  // measure 37
1010
0000
0100
0000
0001
0100
0001
0100
0010
0000
1000
0100
0000
1000
0010
0000
,  // measure 38
0100
0000
0001
0010
0001
0000
1000
0010
1000
0000
0110
0000
0001
0010
0100
0000
,  // measure 39
1000
0100
1000
0000
0001
0010
0100
0010
0001
0010
0100
0000
1000
0000
0010
0000
,  // measure 40
1000
0100
0010
0100
1000
0000
0100
0000
0010
0001
0100
0000
0010
1000
0100
0000
,  // measure 41
0011
0000
0000
0110
0000
0000
1001
0000
,  // measure 42
1001
0000
0000
1010
0000
0000
0101
0000
,  // measure 43
0011
0000
0000
1100
0000
0000
1001
0000
,  // measure 44
0011
0000
0000
1100
0000
0000
1001
0000
,  // measure 45
1001
0010
0001
0100
0010
0100
0001
0000
,  // measure 46
1000
0100
1000
0010
0100
0010
1000
0000
,  // measure 47
0001
0100
0010
0100
0001
0100
0001
0010
,  // measure 48
0100
1000
0100
0001
0100
1000
0100
0010
,  // measure 49
1001
0000
0000
0000
;

//---------------dance-single - ----------------
#NOTES:
     dance-single:
     :
     Medium:
     5:
     0.299,0.346,0.261,0.018,0.041:
0000
0000
0000
0000
,
0000
0000
0000
0000
,
1001
0000
0000
1000
0000
0000
1000
0000
0001
0000
0000
0001
0000
0000
0001
0000
,
1000
0000
0000
1000
0000
0000
1000
0000
0100
0000
0010
0000
0001
0000
0010
0000
,
1001
0000
0000
0100
0000
0000
0001
0000
0100
0000
0000
0010
0000
0000
1000
0000
,
0010
0000
0000
0100
0000
0000
0001
0000
0010
0000
0100
0000
1000
0000
0100
0000
,
1001
0000
0000
0100
0000
0000
1000
0000
0100
0000
0000
0010
0000
0000
0001
0000
,
0010
0000
0000
0001
0000
0000
1000
0000
0100
0000
0010
0000
0001
0000
0010
0000
,
1001
0100
0001
0100
,
0010
0100
0001
0100
,
0010
0100
0001
0000
0100
0010
1000
0000
,
0100
0000
0010
0000
0001
1000
0001
1000
,
1001
0100
1000
0010
,
1000
0000
0100
0000
1000
0010
0100
0000
,
1002
0000
0000
0100
0103
0000
0000
0000
,
2001
0000
0000
0010
3010
0000
0000
0000
,
1001
0000
0000
0010
0000
0000
0010
0000
,
1001
0000
0000
0100
0000
0000
0100
0000
,
1001
0000
0000
0010
0000
0000
0010
0000
,
0001
0010
0100
1000
,
1001
0000
0000
0010
0000
0000
0010
0000
,
1001
0000
0000
0100
0000
0000
0000
0000
,
1001
0000
0000
0100
0000
0000
0100
0000
,
1000
0100
0010
0001
,
1001
0000
0000
0100
0000
0000
0001
0000
,
0010
0000
0000
0100
0000
0000
1000
0000
,
0001
0010
0100
1000
,
0010
0100
0001
1000
,
1001
0000
0000
1100
0000
0000
0001
0000
,
1001
0000
0000
0011
0000
0000
1000
0000
,
1001
0100
0010
0001
,
0100
0010
0100
0001
,
1001
0000
0100
0000
0010
0001
0010
0000
,
0100
0000
1000
0000
0100
1000
0100
0000
,
1001
0000
0010
0000
0001
0100
0001
0000
,
0110
0000
1000
0010
1000
0010
0100
0010
,
1001
0100
0001
0010
,
0100
1000
0010
0000
0100
0001
0010
0000
,
1001
0000
0100
0000
1000
0100
0010
0000
,
0001
1000
0001
0000
0010
0001
0000
0001
,
1001
0000
0000
1000
0000
0000
0100
0000
,
1001
0000
0000
0001
0000
0000
0010
0000
,
1001
0000
0000
0100
0000
0000
0010
0000
,
1001
0000
0000
0010
0000
0000
0100
0000
,
1001
0001
0010
0100
,
1000
0100
0010
0001
,
1000
0010
0100
0001
,
0100
0000
0010
0000
1000
0001
1000
0001
,
1000
0000
0000
0000
;

//---------------dance-single - ----------------
#NOTES:
     dance-single:
     :
     Beginner:
     2:
     0.100,0.151,0.081,0.000,0.000:
0000
0000
0000
0000
,
0000
0000
0000
0000
,
0001
0000
0000
0000
,
0000
0000
1000
0000
,
0010
0000
0000
0000
,
0100
0000
0010
0000
,
0100
0000
0010
0000
,
1000
0000
0001
0000
,
1001
0000
0001
0000
,
0100
0000
0001
0000
,
1001
0000
1000
0000
,
0010
0000
1000
0000
,
1001
0000
0001
0000
,
0100
0000
0001
0000
,
1001
0000
0010
0000
,
0100
0000
0010
0000
,
1001
0000
0000
0000
,
0010
0000
0000
0000
,
0001
0000
0000
0000
,
1000
0000
0000
0000
,
0100
0000
0000
0000
,
1000
0000
0000
0000
,
0010
0000
0000
0000
,
0100
0000
0000
0000
,
0010
0000
0000
0000
,
0100
0000
0000
0000
,
0001
0000
0000
0000
,
1000
0000
0000
0000
,
0001
0000
0000
0000
,
1000
0000
0000
0000
,
0001
0000
1000
0000
,
0001
0000
0100
0000
,
1001
0000
1000
0000
,
0001
0000
1000
0000
,
0001
0000
0100
0000
,
0010
0000
0100
0000
,
1001
0000
0010
0000
,
0100
0000
0001
0000
,
1001
0000
1000
0000
,
0010
0000
1000
0000
,
0001
0000
0000
0000
,
0100
0000
0000
0000
,
0001
0000
0000
0000
,
1000
0000
0000
0000
,
0100
0000
0000
0000
,
0010
0000
0000
0000
,
0001
0000
0000
0000
,
1000
0000
0001
0000
,
1001
0000
0000
0000
;
