#TITLE:Passion Girl;
#SUBTITLE:;
#ARTIST:近藤葵 from GOLD SEVENTEEN;
#TITLETRANSLIT:;
#SUBTITLETRANSLIT:;
#ARTISTTRANSLIT:AOI KONDO from GOLD SEVENTEEN;
#CREDIT:DMAxel;
#BANNER:Passion Girl.png;
#BACKGROUND:Passion Girl-bg.png;
#LYRICSPATH:Passion Girl.lrc;
#CDTITLE:pop'n music.png;
#MUSIC:Passion Girl.mp3;
#OFFSET:-0.430;
#SAMPLESTART:54.172;
#SAMPLELENGTH:12.000;
#SELECTABLE:YES;
#BPMS:0.000=125.020;
#STOPS:;
#BGCHANGES:;

//---------------dance-single - ----------------
#NOTES:
     dance-single:
     :
     Easy:
     3:
     0.247,0.250,0.143,0.107,0.000:
0000
0000
0000
0000
,
0000
0000
0000
0000
,
0000
0000
0000
0000
,
0000
0000
0000
0000
,
1000
0100
1000
0100
,
1000
0100
0010
0000
,
0001
0010
0001
0010
,
0001
0010
0100
0000
,
1000
0001
1000
0001
,
1000
0100
0010
0000
,
0001
1000
0001
1000
,
0002
0000
0000
0000
,
1003
0100
1000
0000
,
0010
0100
0010
0000
,
1000
0100
0010
0001
,
0010
0100
1000
0100
,
0001
0010
0001
0000
,
0100
0010
0100
0000
,
0001
0010
0100
1000
,
0100
0010
0001
0001
,
1001
1000
1000
0001
,
0001
1000
0100
0010
,
0001
0001
1000
1000
,
0001
0100
0110
0000
,
1001
0001
0001
1000
,
1000
0001
0010
0100
,
2000
0000
0000
3001
,
2002
0000
0000
3003
,
0010
0100
0010
0100
,
0001
0010
0001
1000
,
0100
0010
0001
1000
,
2002
0000
0000
3003
,
0010
0100
0010
0100
,
0010
1000
0010
1000
,
0100
0010
0001
1000
,
0220
0000
0000
0000
0000
0330
0000
0002
,
0000
0000
1000
0000
1003
0000
0000
0010
,
0000
0100
0000
0110
0000
0000
0000
0000
,
0001
1000
0001
1000
,
0100
0010
0001
0000
,
0010
0100
0010
0100
,
1000
0001
0010
0100
,
1001
1000
1000
0000
,
0001
0001
1000
0100
,
0000
1000
0100
0010
,
0002
0000
0000
0000
0000
1003
0000
0000
,
1001
0010
1001
0000
,
1000
0000
0001
0010
,
1001
0100
1001
0000
,
0001
0000
1000
0100
,
1001
0010
1001
0000
,
1000
0000
0001
0010
,
1001
0100
1001
0000
,
0001
1000
0001
0010
,
0200
0000
0000
0020
0000
0000
0000
0000
,
0000
0000
0000
0000
,
0330
0000
0000
0000
;

//---------------dance-single - ----------------
#NOTES:
     dance-single:
     :
     Medium:
     6:
     0.372,0.400,0.366,0.107,0.027:
0000
0000
0000
0000
,
0000
0000
0000
0000
,
0000
0000
0000
0000
,
0000
0000
0000
0000
,
1001
0000
0001
0100
0001
1000
0000
0001
,
0000
1000
0002
0000
0100
0000
0103
0000
,
1001
0000
1000
0010
1000
0001
0000
1000
,
0000
0001
2000
0000
0010
0000
3010
0000
,
1001
0000
0001
0010
0001
1000
0000
0001
,
0000
1000
0002
0000
0100
0000
0103
0000
,
1001
0000
1000
0100
1000
0001
0000
1000
,
0000
0001
2000
0000
0010
0000
3010
0000
,
1001
1000
1000
0010
,
1000
0100
0001
0100
,
1000
0001
0010
0000
0100
1000
0001
0000
,
0100
0001
1000
1000
0001
0001
0010
0100
,
1001
0001
0001
0100
,
0001
0010
1000
0010
,
0001
1000
0100
0000
0010
0001
1000
0000
,
0010
1000
0001
0000
1000
0001
1000
0001
,
1000
1010
0011
0100
,
1000
0011
1010
1001
,
0001
0101
1100
0010
,
0001
1100
0101
0000
,
1001
1010
0110
0001
,
0101
0110
1000
0001
,
0210
0000
0000
0301
,
1001
0000
0000
0000
0000
0000
0000
0000
0000
0000
0100
0000
0000
0100
0000
0000
,
0100
0001
1000
0000
0010
1000
0001
0000
,
0100
0010
0100
0001
0010
0100
1000
0000
,
0010
1000
0001
0000
0100
0001
1000
0000
,
0001
2002
0000
0000
0000
0000
3003
0000
,
0010
1000
0001
0000
0100
0001
1000
0000
,
0010
0100
0010
1000
0100
0010
0001
0000
,
0100
0001
1000
0000
0010
1000
0001
0000
,
1000
1001
0000
0000
1001
0000
0000
0020
,
0000
1030
0001
0000
0001
0000
0000
0101
,
0000
1010
0000
1001
0000
0000
0000
0000
,
0012
1000
1000
1003
,
1000
0100
1000
0001
0010
0000
0010
0000
,
0001
0010
1000
0010
,
0001
1000
0001
0000
1000
0100
0010
0001
,
2000
0001
0001
3001
,
0001
0010
0001
1000
0100
0000
0100
0000
,
1000
0100
0001
0100
,
1000
0000
0010
0000
0200
0000
0000
0000
0000
0000
0301
0000
0000
0001
0000
0000
,
1001
1000
1010
1010
,
0001
1000
0001
0010
,
1000
1001
0001
1000
,
0101
0000
0000
0000
1001
0000
0000
0000
0001
0000
1000
0000
0000
1000
0000
0000
,
1001
0001
0101
0101
,
1000
0001
0010
1000
,
0010
1001
1000
0001
,
1010
0000
0000
0000
1001
0000
0000
0000
1000
0000
0001
0000
0000
0001
0000
0000
,
0001
0000
0000
1000
0000
0100
2000
0000
0000
0000
0000
0000
0000
0000
0000
0000
,
0000
0000
0000
0000
,
3000
0000
0000
0000
;

//---------------dance-single - ----------------
#NOTES:
     dance-single:
     :
     Challenge:
     9:
     0.577,0.625,0.187,0.054,0.397: // measure 1
0000
0000
0000
0000
,  // measure 2
0000
0000
0000
0000
,  // measure 3
0000
0000
0000
0000
,  // measure 4
1001
0000
0000
0000
0000
0000
0000
0000
0000
0001
0000
0010
0000
1000
0000
0000
,  // measure 5
0001
0010
0001
1000
0100
0100
0000
1000
,  // measure 6
0000
0001
0010
2000
0000
0001
0000
3001
,  // measure 7
1000
0100
1000
0001
0010
0010
0000
0001
,  // measure 8
1000
0100
1000
0000
1100
0000
0001
0010
0000
0001
0010
0000
0100
0000
1000
0000
,  // measure 9
0001
0010
0001
1000
0010
0010
0000
1000
,  // measure 10
0000
0001
0010
2000
0000
0001
3001
0000
,  // measure 11
1000
0000
0100
0000
1000
0000
0001
0000
0100
0000
0100
0000
0000
0000
0001
0010
,  // measure 12
0000
0001
0010
0001
0010
0000
0100
1000
0000
0100
1000
0010
0100
0000
0001
1000
,  // measure 13
0001
0010
0100
1000
0010
0100
0010
2000
,  // measure 14
0000
3001
0100
0010
1000
0100
0010
0001
,  // measure 15
1000
0000
0010
0100
0000
0010
0000
1000
0000
0100
0000
0010
0100
0000
1000
0000
,  // measure 16
0001
0000
0100
0010
0000
0100
0000
0001
0000
0010
0000
0100
0010
0000
0001
0000
,  // measure 17
1000
0100
0010
0001
0100
0010
0100
0002
,  // measure 18
0000
1003
0010
0100
0001
1000
0100
0010
,  // measure 19
0001
0000
0100
0010
0000
0100
0000
0001
0000
0010
0000
0100
0010
0000
0001
0000
,  // measure 20
1000
0000
0010
0100
0000
0010
0000
1000
0000
0100
1000
0010
0100
0000
0001
1000
,  // measure 21
0001
0010
0100
0010
0001
1000
0010
0100
,  // measure 22
0010
1000
0001
0010
1000
0010
0001
0100
,  // measure 23
1000
0100
0010
0100
1000
0001
0100
0010
,  // measure 24
1000
0100
1000
0100
1000
0000
0010
0000
0100
0001
0000
1000
0000
0010
1000
0000
,  // measure 25
1000
0100
0010
0100
1000
0001
0100
0010
,  // measure 26
0100
0000
0001
0000
1000
0000
0100
0000
0001
0010
0000
0000
0011
0000
1000
0001
,  // measure 27
1000
0000
0100
0000
0010
0000
0001
0000
1000
0100
1000
0100
0010
0001
0010
0001
,  // measure 28
0010
0100
0000
0000
0000
0000
0000
0000
1000
0100
1000
0000
0000
1010
0000
0000
,  // measure 29
0101
0100
0001
1000
0100
0010
0100
1000
,  // measure 30
0001
0010
1000
0010
0001
1000
0100
1000
,  // measure 31
0001
0000
0010
0000
0100
0000
0010
0000
0001
1000
0010
1000
0010
0100
0001
0000
,  // measure 32
1000
0000
1010
0000
0100
0001
0100
0000
0000
0001
0010
0001
0010
0100
1000
0100
,  // measure 33
1000
0001
0010
0100
0010
0001
1000
0100
,  // measure 34
0001
0100
1000
0001
0010
0001
1000
0100
,  // measure 35
0010
0100
1000
0001
0100
0010
0010
1000
,  // measure 36
0001
0100
0001
0100
0010
1000
0010
1000
0001
0000
0001
0000
0001
0000
1001
0000
,  // measure 37
0000
0000
0001
0000
0100
0000
0010
0000
1000
0000
0010
0100
0010
0000
1001
0000
,  // measure 38
0000
0110
0000
1001
0000
0000
1010
0010
,  // measure 39
1000
0001
0100
0001
1000
0100
0010
0100
,  // measure 40
1000
1000
0001
0010
1000
0010
0001
1000
,  // measure 41
0010
0000
1000
0000
0100
0000
0010
0000
0001
0000
0000
1000
0000
0000
0010
0000
,  // measure 42
1000
0000
0001
0000
0001
0000
1000
0100
0000
1000
0100
1000
0100
0010
0001
0010
,  // measure 43
0001
0100
0010
0100
0001
0001
1000
0001
,  // measure 44
1000
0100
0001
0100
1000
0001
0010
0100
,  // measure 45
1000
0001
0010
0001
0100
0010
1000
0100
,  // measure 46
1000
0001
0000
0010
0000
0100
1000
0000
0000
0000
0011
0000
0000
1100
0000
0000
,  // measure 47
1001
0001
0011
0000
0100
1000
0001
0010
,  // measure 48
0001
0000
1000
0000
0100
0000
1000
0000
0001
0000
0100
0000
0000
0100
0000
0000
,  // measure 49
0001
1000
0000
0000
1100
0000
0000
0000
0010
0000
0001
0000
1000
0000
0100
0000
,  // measure 50
1000
0001
1000
0001
1000
0000
0001
0010
0001
0010
0100
0000
0000
1010
0000
0000
,  // measure 51
1001
1000
1100
0000
0010
0001
1000
0100
,  // measure 52
1000
0000
0001
0000
0010
0000
0001
0000
1000
0000
0010
0000
0000
0010
0000
0000
,  // measure 53
1000
0001
0000
0000
0011
0000
0000
0000
0100
0000
1000
0000
0001
0000
0010
0000
,  // measure 54
0001
1000
0001
1000
0001
0010
0001
0100
0010
1000
0100
0000
0000
0101
0000
0000
,  // measure 55
0010
1000
0000
0001
0000
0200
0020
0000
0000
0000
0000
0000
0000
0000
0000
0000
,  // measure 56
0000
0000
0000
0000
,  // measure 57
0330
0000
0000
0000
;

//---------------dance-single - ----------------
#NOTES:
     dance-single:
     :
     Hard:
     7:
     0.482,0.450,0.509,0.089,0.170:
0000
0000
0000
0000
,
0000
0000
0000
0000
,
0000
0000
0000
0000
,
1001
0000
0000
0000
0000
0000
0000
0000
0000
1000
0000
0010
0000
0100
0000
0000
,
0001
0010
0001
0010
0100
0100
0000
1000
,
0000
0001
0010
0200
0000
0010
0000
0310
,
1000
0100
1000
0100
0010
0010
0000
0001
,
0000
1000
1100
0000
0010
0001
1000
0001
,
1001
0000
0001
0010
0100
1000
0000
0010
,
0000
1000
0010
0200
0000
0001
0301
0000
,
1000
0010
1000
0100
0010
0001
0000
0100
,
0000
0001
0100
0000
0001
0100
0010
1000
,
1001
0000
1000
0100
1000
0010
0100
0000
,
0001
0010
0001
0100
0010
1000
0100
0000
,
1000
0000
0001
0010
0000
0001
0000
0200
0000
0000
0000
0000
0301
0000
0000
0000
,
0001
0000
1000
0100
0000
1000
0000
0020
0000
0000
0000
0000
1030
0000
0000
0000
,
1001
0000
0001
0010
0001
0100
0010
0000
,
1000
0100
1000
0010
0100
0001
0010
0000
,
0001
0000
1000
0100
0000
1000
0000
0020
0000
0000
0000
0000
1030
0000
0000
0000
,
1000
0001
0000
0000
0101
0000
0000
0000
0001
0000
1000
0000
0010
0000
0100
0000
,
0101
0101
1100
1100
,
0011
0110
1100
1001
,
1010
1010
0011
0011
,
1100
0000
0000
0000
0110
0000
0000
0000
0001
0010
0000
0001
0000
1000
0000
0000
,
1001
1100
0101
1100
,
0011
0110
1100
1001
,
0100
0010
1000
1000
0001
0001
0010
0100
,
1000
0001
0000
0000
0000
0000
0000
0000
0100
0010
0100
0000
0000
0110
0000
0000
,
1001
0000
1010
0000
0010
1000
0001
0010
,
0100
0010
0100
1000
0001
0010
1000
0010
,
0001
0000
0110
0000
1001
0100
0010
0001
,
1000
1001
1001
0000
0000
0010
0100
0001
,
1001
0000
0101
0000
0100
0001
1000
0100
,
0010
0100
0010
0001
1000
0100
0001
0100
,
1000
0000
0110
0000
1001
0010
0100
1000
,
0001
1001
0000
0000
1001
0000
0000
1010
,
0000
1000
0010
0100
0001
1000
0000
1100
,
0000
0000
0011
0000
0000
0000
1001
0000
0000
0000
0000
0001
1000
0000
0100
0000
,
1000
0020
1000
0000
1000
0000
1030
0000
,
0001
0010
0100
1000
2000
0000
3001
0000
,
0001
0000
0100
0000
0010
0000
1000
0000
0001
0000
0000
0010
0000
0000
0001
0000
,
1000
1000
0001
0001
1000
0100
0010
0001
,
1001
0000
0001
0010
0001
2000
0000
3001
,
1000
0010
0100
0001
1000
0100
0010
0001
,
1000
0010
0100
0010
0100
0010
0100
0001
,
1000
0000
0000
0010
0000
0100
0010
0000
0000
0000
1001
0000
0000
1001
0000
0000
,
1001
0000
0000
0000
1100
0000
0000
0000
0001
0000
0000
1000
0000
0000
0010
0000
,
0100
0000
0000
0001
0000
0000
0100
0000
0010
0000
1000
0000
0000
1000
0000
0000
,
0001
1000
0000
0000
0011
0000
0000
0000
1000
0000
0000
0001
0000
0000
0100
0000
,
0010
0000
1000
0000
1000
0000
0000
0001
0100
0000
0010
0000
0000
0010
0000
0000
,
1001
0000
0000
0000
0011
0000
0000
0000
1000
0000
0000
0001
0000
0000
0100
0000
,
0010
0000
0000
1000
0000
0000
0010
0000
0100
0000
0001
0000
0000
0001
0000
0000
,
1000
0010
0110
0000
1001
0000
1001
0000
,
0001
0000
0100
0000
0010
0000
1000
0000
0100
0000
0010
0000
0000
0110
0000
0000
,
0001
0010
0000
0100
0000
2000
0002
0000
0000
0000
0000
0000
0000
0000
0000
0000
,
0000
0000
0000
0000
,
3003
0000
0000
0000
;

//---------------dance-single - ----------------
#NOTES:
     dance-single:
     :
     Beginner:
     1:
     0.087,0.145,0.080,0.000,0.000:
0000
0000
0000
0000
,
0000
0000
0000
0000
,
0000
0000
0000
0000
,
0000
0000
0000
0000
,
0001
0000
0000
0000
,
1000
0000
0000
0000
,
0001
0000
0000
0000
,
1000
0000
0000
0000
,
1000
0000
0000
0000
,
0001
0000
0000
0000
,
1000
0000
0000
0000
,
0001
0000
0000
0000
,
1001
0000
0000
0000
,
0000
0000
0000
0000
,
0010
0000
0000
0000
,
0100
0000
0000
0000
,
1001
0000
0000
0000
,
0000
0000
0000
0000
,
0100
0000
0000
0000
,
0010
0000
0000
0000
,
1001
0000
0000
0000
,
0001
0000
0000
0000
,
1000
0000
0000
0000
,
0001
0000
0000
0000
,
1001
0000
0000
0000
,
1000
0000
0000
0000
,
0001
0000
0000
0000
,
1000
0000
0000
0000
,
1001
0000
0000
0000
,
0001
0000
0000
0000
,
1000
0000
0000
0000
,
1000
0000
0000
0000
,
0001
0000
0000
0000
,
0001
0000
0000
0000
,
1000
0000
0000
0000
,
1001
0000
0000
0000
,
0000
0000
0000
0000
,
0000
0000
0000
0000
,
1001
0000
0001
0000
,
1000
0000
0000
0000
,
1000
0000
0001
0000
,
1000
0000
0000
0000
,
0001
0000
1000
0000
,
0001
0000
0000
0000
,
0100
0000
0010
0000
,
0100
0000
0000
0000
,
1001
0000
0001
0000
,
1000
0000
0001
0000
,
0010
0000
0100
0000
,
0010
0000
0100
0000
,
1000
0000
0001
0000
,
1000
0000
0001
0000
,
1000
0000
0100
0000
,
0010
0000
0001
0000
,
1001
0000
0000
0000
;
