#TITLE:PITAゴラス☆KISS;
#SUBTITLE:;
#ARTIST:good-cool ft.バッチ恋トシ;
#TITLETRANSLIT:PITAGORAS☆KISS;
#SUBTITLETRANSLIT:;
#ARTISTTRANSLIT:good-cool ft. BATCH KOI TOSHI;
#CREDIT:DMAxel;
#BANNER:PITAGORAS KISS.png;
#BACKGROUND:PITAGORAS KISS-bg.png;
#LYRICSPATH:PITAGORAS KISS.lrc;
#CDTITLE:pop'n music.png;
#MUSIC:PITAGORAS KISS.mp3;
#OFFSET:-10.160;
#SAMPLESTART:45.801;
#SAMPLELENGTH:12.000;
#SELECTABLE:YES;
#BPMS:0.000=148.000;
#STOPS:;
#BGCHANGES:;

//---------------dance-single - ----------------
#NOTES:
     dance-single:
     :
     Easy:
     4:
     0.285,0.274,0.211,0.093,0.000: // measure 1
1000
0100
1000
0001
,  // measure 2
0010
0010
0010
0010
,  // measure 3
0011
0100
1000
0001
,  // measure 4
0010
0100
1000
0010
,  // measure 5
0100
0100
0001
0001
,  // measure 6
1001
0000
0000
0000
,  // measure 7
1100
0010
0001
0000
,  // measure 8
0100
0010
0100
0000
,  // measure 9
0001
0010
0100
1000
,  // measure 10
0001
0001
1000
1000
,  // measure 11
0011
0100
1000
0000
,  // measure 12
0010
0100
0010
0000
,  // measure 13
1000
0100
0010
0001
,  // measure 14
1000
1000
0002
0000
,  // measure 15
1003
0100
1000
0000
,  // measure 16
0010
0100
0010
1000
,  // measure 17
0100
0010
0001
1000
,  // measure 18
0001
1000
1000
1000
,  // measure 19
1001
0001
0001
0000
,  // measure 20
0100
0010
0100
0001
,  // measure 21
0202
0000
0000
0000
0303
0000
0000
1010
,  // measure 22
0000
0000
0000
1001
0000
0000
0000
0000
,  // measure 23
0010
0100
0000
0001
,  // measure 24
0010
0001
1000
0010
,  // measure 25
1000
0001
0000
0100
,  // measure 26
0001
1000
0000
1100
,  // measure 27
0001
1000
0000
0010
,  // measure 28
0100
0010
1000
0001
,  // measure 29
0010
0000
0001
0000
0010
0000
0000
0001
,  // measure 30
0000
1000
0000
1001
0000
0000
0000
0000
,  // measure 31
1001
0001
0000
0100
,  // measure 32
0001
0100
0001
0010
,  // measure 33
1001
1000
0000
0010
,  // measure 34
1000
1001
0000
0110
,  // measure 35
0001
1001
0000
0001
,  // measure 36
1000
1000
0001
0001
,  // measure 37
2000
0000
0000
0000
0000
3010
0000
0000
,  // measure 38
1000
0000
0000
0000
,  // measure 39
0002
0000
0000
0000
0000
0103
0000
0000
,  // measure 40
0001
0000
1000
0001
,  // measure 41
2001
0000
0000
0000
0000
3100
0000
0000
,  // measure 42
1000
0000
0001
0000
,  // measure 43
2000
0000
0000
0000
0000
3001
0000
0000
,  // measure 44
0001
0010
0100
1000
,  // measure 45
1001
0000
0001
0100
,  // measure 46
0002
0000
0000
0000
,  // measure 47
0003
1000
0100
1000
,  // measure 48
0200
0000
0000
1300
,  // measure 49
0001
0010
0001
1000
,  // measure 50
0100
1000
0010
1000
,  // measure 51
0100
0010
0001
1000
,  // measure 52
1001
0000
0000
0000
,  // measure 53
0001
0100
0001
0100
,  // measure 54
0001
1000
0100
0010
,  // measure 55
0001
1000
0001
1000
,  // measure 56
0100
1000
0100
0010
,  // measure 57
1001
0010
0100
0001
,  // measure 58
0010
0010
0001
0001
,  // measure 59
0010
0100
1000
0001
,  // measure 60
1000
0100
0010
0001
,  // measure 61
0010
1000
0100
0001
,  // measure 62
1001
0000
0000
0110
,  // measure 63
1010
0000
0000
0110
,  // measure 64
0101
0000
0000
0000
0000
0000
0000
2002
,  // measure 65
0000
0000
0000
0000
,  // measure 66
3003
0000
0000
0000
;

//---------------dance-single - ----------------
#NOTES:
     dance-single:
     :
     Medium:
     6:
     0.450,0.411,0.388,0.059,0.000: // measure 1
0101
1000
1100
0001
,  // measure 2
0100
0010
0100
0010
0100
0010
0100
0000
,  // measure 3
0001
0010
0100
0000
0010
0001
1000
0000
,  // measure 4
1000
0100
0010
0000
0100
1000
0001
0000
,  // measure 5
0001
0010
0100
1000
0001
0000
0001
0000
,  // measure 6
1000
1000
0000
0001
0000
1000
1001
0000
,  // measure 7
0101
0100
1001
0000
,  // measure 8
0010
0100
1000
0001
,  // measure 9
1010
0010
1001
0000
,  // measure 10
0100
0101
1100
1001
,  // measure 11
1100
0100
1001
0000
,  // measure 12
0100
0010
0001
1000
,  // measure 13
1010
0010
1001
0000
,  // measure 14
1000
0001
1000
0001
1000
0100
0010
0001
,  // measure 15
1000
0100
1000
0000
0001
0100
0001
0000
,  // measure 16
1000
0100
1000
0000
0001
0100
0001
0000
,  // measure 17
1100
0001
0100
0010
,  // measure 18
1000
0001
1000
0000
0001
0010
0100
1000
,  // measure 19
0001
0010
0001
0000
1000
0010
1000
0000
,  // measure 20
0001
0010
0001
0000
1000
0010
1000
0001
,  // measure 21
0011
0000
1000
0010
0000
1000
0000
1001
,  // measure 22
0000
0011
0000
1001
0000
0000
1001
0000
,  // measure 23
1000
0010
0100
0000
0001
0000
1000
0000
,  // measure 24
0001
0100
0001
0000
0010
0100
1000
0000
,  // measure 25
0001
0100
0010
0000
1000
0000
0001
0000
,  // measure 26
1000
1100
0001
0101
,  // measure 27
1000
0010
0100
0000
0001
0000
1000
0000
,  // measure 28
0001
0100
0001
0000
0010
0100
1000
0000
,  // measure 29
0001
0100
0010
0000
1000
0000
0001
0100
,  // measure 30
0000
0101
0000
1001
0000
0000
1001
0000
,  // measure 31
0001
0100
0010
0000
1000
0000
0001
0000
,  // measure 32
1000
0010
1000
0000
0100
0010
0001
0000
,  // measure 33
1000
0010
0100
0000
0001
0000
1000
0000
,  // measure 34
0001
0101
1000
1100
,  // measure 35
0001
0100
0010
0000
1000
0000
0001
0000
,  // measure 36
0100
0001
0100
0001
1000
0100
1000
0100
,  // measure 37
1000
0000
0002
0000
0000
0103
0000
0000
,  // measure 38
0100
0001
1000
0100
,  // measure 39
0010
0000
0001
0000
0000
1001
0000
0000
,  // measure 40
0010
1000
0001
0010
,  // measure 41
0001
0000
2000
0000
0000
3010
0000
0000
,  // measure 42
0010
1000
0001
0010
,  // measure 43
0100
0000
1000
0000
0000
1001
0000
0000
,  // measure 44
1100
1100
0011
0011
,  // measure 45
1002
0000
0000
0000
1003
0100
0010
0001
,  // measure 46
1000
0000
0001
1000
0010
0000
0010
0000
,  // measure 47
1000
0000
0001
0010
0100
1000
0001
0000
,  // measure 48
0100
0001
0100
0001
1000
0000
1000
0000
,  // measure 49
1001
0000
0001
0000
1000
0100
0010
0001
,  // measure 50
1000
0000
0100
1000
0100
1000
0100
0000
,  // measure 51
0011
0011
1100
1100
,  // measure 52
2002
0000
0000
3003
,  // measure 53
1000
0100
0010
0000
0100
1000
0001
0000
,  // measure 54
0001
0010
0100
0000
0010
0001
1000
0000
,  // measure 55
1000
0100
0001
0000
0100
0001
1000
0000
,  // measure 56
0001
0100
1000
0000
0100
1000
0001
0000
,  // measure 57
0001
0010
1000
0000
0010
1000
0001
0000
,  // measure 58
0100
0001
0100
0001
1000
0100
1000
0000
,  // measure 59
0001
0100
1000
0100
0010
0000
0110
0000
,  // measure 60
1000
0100
0001
0010
0100
0000
0110
0000
,  // measure 61
0001
0100
1000
0100
0010
0000
0110
0000
,  // measure 62
1000
1000
0000
0001
0000
0001
1001
0000
,  // measure 63
0001
0001
0000
1000
0000
1000
1001
0000
,  // measure 64
0001
1000
0000
0010
0000
0100
0001
2002
,  // measure 65
0000
0000
0000
0000
,  // measure 66
3003
0000
0000
0000
;

//---------------dance-single - ----------------
#NOTES:
     dance-single:
     :
     Hard:
     7:
     0.524,0.466,0.329,0.093,0.017: // measure 1
1000
0010
1000
0000
0001
0010
0100
1000
,  // measure 2
0001
0001
0001
0001
1000
0100
0010
0000
,  // measure 3
0001
0010
1000
0100
0010
0001
1000
0000
,  // measure 4
1000
0010
0001
0010
0100
1000
0001
0000
,  // measure 5
1000
0000
0000
0010
0000
0000
0100
0000
0001
0000
0010
0000
0100
0000
1000
0000
,  // measure 6
0001
0100
0000
0101
0000
1000
1001
0000
,  // measure 7
0100
1000
0100
0000
1000
0100
1000
0000
,  // measure 8
0001
0100
0001
0000
0100
0001
0100
0000
,  // measure 9
0001
0010
0001
0000
0010
0001
0010
0000
,  // measure 10
0001
0100
0001
0000
1000
0100
1000
0000
,  // measure 11
0001
0100
0010
0000
1000
0010
0100
0000
,  // measure 12
0001
0010
0100
0000
1000
0100
0010
0000
,  // measure 13
0001
1000
0100
0000
1000
0001
0010
0000
,  // measure 14
0001
0010
0001
0010
0001
1000
0100
0010
,  // measure 15
0001
1000
0010
0000
1000
0010
1000
0010
,  // measure 16
1000
0001
0010
0000
0001
0010
0001
0010
,  // measure 17
0001
1000
0100
0000
1000
0100
1000
0100
,  // measure 18
1000
0001
0100
0000
0001
0010
0100
1000
,  // measure 19
0001
0010
0001
1000
0010
1000
0010
0000
,  // measure 20
1000
0010
1000
0001
0010
0100
1000
0001
,  // measure 21
0101
0000
1000
0001
0000
0101
0000
1100
,  // measure 22
0000
1100
0000
1001
0000
0000
1001
0000
,  // measure 23
1000
0100
0001
0000
0100
0000
0100
0010
,  // measure 24
0100
0001
0010
0000
0100
0010
0001
0000
,  // measure 25
1000
0100
0001
0000
0100
0000
0100
0010
,  // measure 26
0100
1010
0001
1010
,  // measure 27
0001
0010
1000
0000
0010
0000
0010
0100
,  // measure 28
0010
1000
0100
0000
0010
0100
1000
0000
,  // measure 29
0001
0010
1000
0010
0000
0100
0001
1000
,  // measure 30
0000
1001
0000
1001
0000
0000
1001
0000
,  // measure 31
0001
0100
1000
0000
0100
0000
0100
0010
,  // measure 32
0100
1000
0100
0000
0010
0100
1000
0000
,  // measure 33
0001
0100
1000
0000
0100
0000
0100
0010
,  // measure 34
0100
1010
0001
1010
,  // measure 35
1000
0010
0001
0000
0010
0000
0010
0100
,  // measure 36
0010
0001
0010
0100
1000
0001
0010
0100
,  // measure 37
1000
0000
0001
0100
1000
1001
0000
0000
,  // measure 38
0200
0001
0301
0020
,  // measure 39
1000
0000
1030
0000
0001
1001
0000
0000
,  // measure 40
1000
0000
1000
0001
0010
0100
1000
0001
,  // measure 41
0101
0000
1000
0100
0001
1001
0000
0000
,  // measure 42
0020
1000
1030
0200
,  // measure 43
0001
0000
0301
0000
1000
1001
0000
0000
,  // measure 44
0101
0110
1100
1001
,  // measure 45
1200
0000
1300
0001
0010
0100
1000
0001
,  // measure 46
0100
0000
0100
0001
2000
0000
0001
0000
,  // measure 47
3001
1000
0100
0010
0001
1000
0010
0000
,  // measure 48
0010
1000
0010
1000
0001
0001
0001
0001
,  // measure 49
0021
0000
0031
1000
0100
0010
0001
1000
,  // measure 50
0100
0000
0100
1000
0001
0100
0001
0100
,  // measure 51
0001
0001
0001
1000
0100
0010
0001
1000
,  // measure 52
2002
0000
3003
1001
,  // measure 53
0001
0100
0001
0000
1000
0100
0010
0001
,  // measure 54
1000
0100
0010
0000
0100
1000
0001
0000
,  // measure 55
1000
0010
1000
0000
0001
0010
0100
1000
,  // measure 56
0001
0010
0100
0000
0010
0001
1000
0000
,  // measure 57
1010
0000
1001
0000
1000
0100
0001
0100
,  // measure 58
0010
1000
0010
1000
0001
0010
0001
0000
,  // measure 59
1000
0100
0001
0010
0100
1000
0001
0000
,  // measure 60
0001
0100
1000
0100
0010
0001
1000
0000
,  // measure 61
0001
0000
0000
0100
0000
0000
0010
0000
1000
0000
0100
0000
0010
0000
0001
0000
,  // measure 62
1000
1100
0000
1100
0000
0001
1001
0000
,  // measure 63
0001
0000
0000
0101
0000
0000
0101
0000
0000
0000
1000
0000
1001
0000
0000
0000
,  // measure 64
1000
0000
0000
1100
0000
0000
0101
0000
0000
0000
0010
0000
1000
0000
2002
0000
,  // measure 65
0000
0000
0000
0000
,  // measure 66
3003
0000
0000
0000
;

//---------------dance-single - ----------------
#NOTES:
     dance-single:
     :
     Challenge:
     9:
     0.637,0.575,0.379,0.042,0.253: // measure 1
0100
0010
1000
0100
0010
0000
0001
1000
,  // measure 2
0001
0000
0001
0000
1000
0000
1000
0001
0100
0001
0100
0000
1001
0000
0000
0000
,  // measure 3
1000
0000
0010
0000
1000
0000
0001
0010
0001
0000
1000
0000
0001
0010
0000
0001
,  // measure 4
0010
0000
0100
1000
0100
0000
1000
0000
0100
0000
0010
0000
0001
1000
0000
0000
,  // measure 5
0001
0000
0000
0101
0000
0000
1000
0000
0001
1000
0100
1000
0100
0000
0010
0000
,  // measure 6
0001
0101
0000
1100
0000
1100
1001
0000
,  // measure 7
0101
0000
0000
0000
0100
0000
0001
0000
1000
0100
0000
0000
1000
0000
0001
0000
,  // measure 8
0100
0000
0000
0000
0001
0000
0100
0000
0001
0100
0000
0000
0001
0000
1000
0000
,  // measure 9
0010
0000
0000
0000
1000
0000
0010
0000
1000
0010
0000
0000
1000
0000
0001
0000
,  // measure 10
0010
0001
0001
0000
0101
0000
1001
0000
,  // measure 11
0001
0000
1000
0000
0010
0000
0000
0000
1000
0010
0000
0000
1000
0000
0001
0000
,  // measure 12
0100
0000
0000
0000
0001
0000
0100
0000
0001
0100
0000
0000
0001
0000
1000
0000
,  // measure 13
0100
0000
0000
0000
1000
0000
0100
0000
1000
0100
0000
0000
1000
0000
0001
0000
,  // measure 14
0010
0001
0010
0000
0100
0000
1000
0000
0001
0000
0001
0000
0010
0000
0100
0000
,  // measure 15
1000
0000
0010
0000
0100
0000
0010
0000
1000
0100
1000
0000
0001
0000
0100
0000
,  // measure 16
0001
0000
0100
0000
0010
0000
0100
0000
0001
0010
0001
0000
1000
0000
0010
0000
,  // measure 17
1000
0000
0010
0000
0100
0000
0010
0000
1000
0100
1000
0000
0001
0000
0100
0000
,  // measure 18
0001
0100
0010
0100
0001
0010
0100
1000
,  // measure 19
0001
0000
0010
0000
0100
0000
0010
0000
0001
0100
0001
0000
1000
0000
0100
0000
,  // measure 20
0010
0000
0100
0000
1000
0000
0010
1000
0010
1000
0001
0000
0010
0000
0100
0000
,  // measure 21
0110
0000
1000
1010
0000
0011
0000
1100
,  // measure 22
0000
1100
0000
1001
0000
0000
1001
0000
,  // measure 23
0001
0100
1000
0000
0100
0010
0001
0010
,  // measure 24
1000
0100
0001
0010
0100
1000
0001
0000
,  // measure 25
1000
0100
0001
0000
0010
0100
1000
0001
,  // measure 26
0100
0001
1001
0000
0010
1000
1001
0000
,  // measure 27
1000
0100
0001
0000
0010
0100
1000
0100
,  // measure 28
0001
0010
1000
0100
0010
0001
1000
0000
,  // measure 29
0001
0000
0100
0000
1000
0000
0001
0000
0100
0001
0100
0001
0100
0000
0101
0000
,  // measure 30
0000
1010
0000
1001
0000
0000
1001
0000
,  // measure 31
1000
0010
0001
0000
0010
0100
1000
0001
,  // measure 32
0010
1000
0100
0001
1000
0100
0010
0000
,  // measure 33
0001
0010
1000
0000
0100
0010
0001
1000
,  // measure 34
0100
0001
0010
1000
0001
0010
0100
0000
,  // measure 35
1000
0010
0001
0000
0010
0100
1000
0001
,  // measure 36
1000
0000
1000
0000
0001
0000
0001
1000
0010
1000
0010
0000
0100
0000
0001
0000
,  // measure 37
1001
0000
1000
0100
0001
0101
0000
0000
,  // measure 38
0010
1000
0100
0000
0010
0001
0100
1000
,  // measure 39
0100
0000
0010
0001
1000
1001
0000
0000
,  // measure 40
0010
0000
0001
0000
1000
0000
0100
1000
0100
1000
0100
0000
0010
0000
0001
0000
,  // measure 41
1001
0000
0001
0100
1000
1100
0000
0000
,  // measure 42
0010
0001
1000
0010
1000
0001
0010
0000
,  // measure 43
0100
1000
0001
0100
0001
1001
0000
0000
,  // measure 44
1000
0100
1000
0000
0001
0100
0001
0000
1000
0100
1000
0000
1001
0000
0000
0000
,  // measure 45
1100
0000
0000
0000
0010
0000
0001
0000
1000
0010
1000
0000
0001
0000
0010
0000
,  // measure 46
0100
0000
1000
0100
0002
0000
1000
0000
,  // measure 47
1003
0000
0010
0000
1000
0000
0001
0000
0010
0001
0010
0000
0100
0000
1000
0000
,  // measure 48
0010
1000
0000
0010
1000
0000
0001
0010
0001
0000
1000
0000
1000
0000
0001
0000
,  // measure 49
0011
0000
0000
0000
0100
0000
1000
0000
0001
0100
0001
0000
1000
0000
0100
0000
,  // measure 50
0010
0000
0000
0000
0001
0000
0100
0000
1000
0000
0100
0000
0001
0000
0100
0010
,  // measure 51
0100
0000
0001
0000
0001
0000
1000
0001
0100
0001
0100
0000
0010
0000
1000
0000
,  // measure 52
2002
0000
3003
1001
,  // measure 53
0001
0000
0010
0000
0100
0000
0000
0000
1000
0001
1000
0000
0100
0000
0001
0000
,  // measure 54
0010
0000
0100
0000
1000
0000
0000
0000
0001
1000
0001
0000
1000
0000
0001
0000
,  // measure 55
1000
0000
0100
0000
0010
0000
0000
0000
0001
1000
0001
0000
0010
0000
1000
0000
,  // measure 56
0100
0000
0010
0000
0001
0000
0000
0000
1000
0001
1000
0000
0001
0000
0100
0000
,  // measure 57
0001
0000
0010
0000
0100
0000
0000
0000
1000
0001
1000
0000
0100
0000
0001
0000
,  // measure 58
1000
0000
1000
0000
0001
0000
0001
1000
0010
1000
0010
0000
0100
0000
0001
0000
,  // measure 59
1000
0000
0010
0000
1000
0000
0001
0010
0001
0000
1000
0000
0001
0010
0000
0001
,  // measure 60
0010
0000
0100
1000
0100
0000
1000
0000
0100
0000
0010
0000
0001
1000
0001
0000
,  // measure 61
1000
0000
0000
1010
0000
0000
0001
0000
1000
0001
0010
0001
0010
0000
0100
0000
,  // measure 62
1000
1010
0000
0011
0000
0011
1001
0000
,  // measure 63
0001
0100
0000
0101
0000
0000
1100
0000
0000
0000
1100
0000
1001
0000
0000
0000
,  // measure 64
1000
0010
1000
0010
0000
0000
1010
0000
0000
0000
0101
0000
0100
0000
2002
0000
,  // measure 65
0000
0000
0000
0000
,  // measure 66
3003
0000
0000
0000
;

//---------------dance-single - ----------------
#NOTES:
     dance-single:
     :
     Beginner:
     2:
     0.128,0.162,0.169,0.000,0.000:
1000
0000
0001
0000
,
1000
0000
0000
0000
,
1001
0000
0001
0000
,
1000
0000
0001
0000
,
0010
0000
0100
0000
,
1001
0000
0000
0000
,
1001
0000
0001
0000
,
0001
0000
0000
0000
,
1000
0000
1000
0000
,
1000
0000
0000
0000
,
1001
0000
0001
0000
,
1000
0000
0000
0000
,
1001
0000
1000
0000
,
0001
0000
0000
0000
,
1000
0000
0100
0000
,
0010
0000
0001
0000
,
1000
0000
0000
0000
,
0000
0000
0000
0000
,
0001
0000
0010
0000
,
0100
0000
1000
0000
,
0001
0000
0000
0000
,
0000
0000
0000
0000
,
1001
0000
0000
0000
,
1000
0000
0001
0000
,
1001
0000
0000
0000
,
0001
0000
1000
0000
,
1001
0000
0000
0000
,
1000
0000
0100
0000
,
1000
0000
0100
0000
,
1000
0000
0000
0000
,
1001
0000
0000
0000
,
0001
0000
1000
0000
,
1001
0000
0000
0000
,
1000
0000
0001
0000
,
1001
0000
0000
0000
,
0001
0000
0010
0000
,
0001
0000
0000
0000
,
0001
0000
0000
0000
,
1000
0000
0000
0000
,
0001
0000
0000
0000
,
1001
0000
0000
0000
,
1000
0000
0000
0000
,
0001
0000
0000
0000
,
1001
0000
0000
0000
,
1000
0000
0000
0000
,
0001
0000
0000
0000
,
1000
0000
0000
0000
,
1001
0000
0000
0000
,
0001
0000
0000
0000
,
1000
0000
0000
0000
,
1001
0000
0001
0000
,
1001
0000
0000
0000
,
1000
0000
0000
0000
,
0001
0000
0000
0000
,
1000
0000
0000
0000
,
1000
0000
0000
0000
,
0001
0000
0000
0000
,
1001
0000
0000
0000
,
0001
0000
1000
0000
,
0001
0000
1000
0000
,
0100
0000
0010
0000
,
1001
0000
0000
0000
,
0110
0000
0000
0000
,
1001
0000
0000
0000
0000
0000
0000
1000
;
