#TITLE:ペリーでぇす!;
#SUBTITLE:;
#ARTIST:ブタパンチ;
#TITLETRANSLIT:PERRY DEESU!;
#SUBTITLETRANSLIT:;
#ARTISTTRANSLIT:BUTAPUNCH;
#CREDIT:DMAxel;
#BANNER:PERRY DEESU!.png;
#BACKGROUND:PERRY DEESU!-bg.png;
#LYRICSPATH:PERRY DEESU!.lrc;
#CDTITLE:pop'n music.png;
#MUSIC:PERRY DEESU!.mp3;
#OFFSET:-6.820;
#SAMPLESTART:22.531;
#SAMPLELENGTH:12.000;
#SELECTABLE:YES;
#BPMS:0.000=160.040;
#STOPS:;
#BGCHANGES:;

//---------------dance-single - ----------------
#NOTES:
     dance-single:
     :
     Easy:
     4:
     0.281,0.300,0.143,0.040,0.000: // measure 1
0001
0100
0001
1000
,  // measure 2
0100
1000
0010
0100
,  // measure 3
0001
0000
0000
1001
0000
0000
0000
0000
,  // measure 4
1000
0000
0000
1001
0000
0000
0000
0000
,  // measure 5
0000
0000
0001
0010
,  // measure 6
0100
1000
0000
2002
,  // measure 7
0000
3003
1001
0000
,  // measure 8
1000
0000
1001
0000
,  // measure 9
0001
0000
1001
0000
,  // measure 10
1001
0000
0001
1000
,  // measure 11
0001
0000
0100
0000
,  // measure 12
0001
0000
1000
0000
,  // measure 13
0100
0000
0010
0000
,  // measure 14
0001
0000
1000
0000
,  // measure 15
0000
0000
0001
0001
,  // measure 16
1000
0000
0010
0100
,  // measure 17
0010
0000
1000
1000
,  // measure 18
0001
0000
0100
0010
,  // measure 19
0100
0000
0001
0001
,  // measure 20
1000
0000
0010
0100
,  // measure 21
0010
0000
1000
1000
,  // measure 22
0001
0000
0001
0000
,  // measure 23
1001
1000
0001
0010
,  // measure 24
0001
1000
0010
1000
,  // measure 25
0001
0000
1000
0010
,  // measure 26
1000
0001
0010
0000
,  // measure 27
0002
0000
1003
1000
,  // measure 28
0010
0000
0100
0010
,  // measure 29
0100
0100
0001
0001
,  // measure 30
0100
0000
0010
0100
,  // measure 31
0010
0010
1000
1000
,  // measure 32
0010
0000
0100
0010
,  // measure 33
0100
0100
0001
0001
,  // measure 34
0100
0000
0010
0100
,  // measure 35
0010
0100
0010
1000
,  // measure 36
0100
0000
0010
0000
,  // measure 37
0001
0000
0100
0001
,  // measure 38
0010
0000
0100
0000
,  // measure 39
1000
0000
0001
1000
,  // measure 40
0001
1000
0001
0000
,  // measure 41
0100
0000
0010
0100
,  // measure 42
0010
0100
0010
0000
,  // measure 43
1000
0000
1000
0001
,  // measure 44
1000
0001
1000
0000
,  // measure 45
0010
0000
0100
0010
,  // measure 46
0100
0010
0100
0000
,  // measure 47
0001
0000
1000
0100
,  // measure 48
0010
0001
1000
0000
,  // measure 49
1000
0000
0001
0010
,  // measure 50
0100
1000
0001
0000
,  // measure 51
0001
0000
1000
0100
,  // measure 52
0010
0001
1000
0000
,  // measure 53
1000
0000
0001
1000
,  // measure 54
0001
1000
0010
1000
,  // measure 55
0010
1000
0001
0100
,  // measure 56
0001
1000
0001
0010
,  // measure 57
0100
1000
0001
1001
,  // measure 58
0000
0000
0000
1000
0000
0000
0100
0000
,  // measure 59
0010
0001
1000
1001
,  // measure 60
0000
0000
0000
0001
0000
0000
0010
0000
,  // measure 61
0100
1000
0001
0001
,  // measure 62
1000
1000
0001
0001
,  // measure 63
1000
1000
0002
0000
,  // measure 64
0000
0000
0103
0110
,  // measure 65
1001
0000
0100
0110
,  // measure 66
1001
0000
0000
1000
0000
0000
0100
0000
,  // measure 67
0010
0001
1000
0110
,  // measure 68
1001
0000
0000
0001
0000
0000
0010
0000
,  // measure 69
0100
1000
0001
0001
,  // measure 70
1000
1000
0010
0010
,  // measure 71
0100
0100
0001
1000
,  // measure 72
0001
1000
0001
1001
,  // measure 73
0000
0000
1000
0000
,  // measure 74
0100
0000
0010
0000
,  // measure 75
0002
0000
0000
0000
,  // measure 76
1003
0000
0000
1001
0000
0000
0000
0000
;

//---------------dance-single - ----------------
#NOTES:
     dance-single:
     :
     Medium:
     6:
     0.475,0.420,0.414,0.143,0.000: // measure 1
0001
0010
0100
1000
,  // measure 2
0001
0010
0100
1000
,  // measure 3
0001
0100
0000
0001
0000
0000
0000
0000
,  // measure 4
1000
0100
0000
2000
0000
0000
0000
0000
,  // measure 5
3000
0001
0100
0001
,  // measure 6
0100
1000
0100
2002
,  // measure 7
0000
3003
1001
0000
,  // measure 8
1000
0000
1100
0000
,  // measure 9
0001
0000
0101
0000
,  // measure 10
0101
0000
1100
0001
,  // measure 11
1100
0000
1001
0000
0010
1000
0010
0000
,  // measure 12
2000
3001
0002
1003
,  // measure 13
0200
0000
0310
0000
0100
0001
0100
0000
,  // measure 14
0002
1003
2000
3001
,  // measure 15
0020
0130
1001
0100
,  // measure 16
1001
0000
0100
0000
0100
1000
0001
0000
,  // measure 17
0100
0010
0100
0000
1001
0000
0010
0000
,  // measure 18
1001
0000
0010
0000
0010
0001
1000
0000
,  // measure 19
0010
0100
0010
0000
1001
0000
0100
0000
,  // measure 20
1001
0000
0100
0000
0100
0001
1000
0000
,  // measure 21
0100
0010
0100
0000
1001
0000
0010
0000
,  // measure 22
1001
0010
0110
0000
,  // measure 23
1000
0100
0001
0000
0100
0001
1000
0000
,  // measure 24
1000
0100
1000
0000
1000
0001
1000
0000
,  // measure 25
1000
0100
1000
0000
0100
1000
0001
0000
,  // measure 26
0001
0100
0001
0000
0001
1000
0001
0000
,  // measure 27
0001
0100
0001
0000
1001
0000
0100
0000
,  // measure 28
1001
0000
0100
0000
0100
0001
1000
0000
,  // measure 29
0100
0010
0100
0000
1001
0000
0010
0000
,  // measure 30
1001
0000
0010
0000
0010
1000
0001
0000
,  // measure 31
0010
0100
0010
0000
1001
0000
0100
0000
,  // measure 32
1001
0000
0100
0000
0100
1000
0001
0000
,  // measure 33
0100
0001
0100
0000
1001
0000
0010
0000
,  // measure 34
1001
0000
0010
0000
0010
0001
1000
0100
,  // measure 35
0010
0001
1000
0000
0010
1000
0001
0000
,  // measure 36
0001
0010
0001
0000
0001
1000
0001
0000
,  // measure 37
0001
0010
0001
0000
0010
0001
1000
0000
,  // measure 38
1000
0010
1000
0000
1000
0001
1000
0000
,  // measure 39
1000
0010
1000
0000
0002
0000
0100
0000
,  // measure 40
0103
0000
0100
0001
0100
0000
0010
1000
,  // measure 41
0010
1000
0001
0110
,  // measure 42
1000
0001
1000
0000
0010
0000
0100
0000
,  // measure 43
0010
0110
2000
0010
,  // measure 44
3010
0000
0010
1000
0010
0000
0100
0001
,  // measure 45
0100
0001
1000
0110
,  // measure 46
0001
1000
0001
0000
0100
0000
0010
0000
,  // measure 47
0100
0000
0110
0000
1000
0100
1000
0000
,  // measure 48
0001
0010
0001
0000
0200
0000
0010
0000
,  // measure 49
0010
0000
0310
0000
0001
0100
0001
0000
,  // measure 50
1000
0010
1000
0000
0020
0000
0100
0000
,  // measure 51
0100
0000
0130
0000
1000
0100
1000
0000
,  // measure 52
0010
0100
0010
0000
2000
0000
0001
0000
,  // measure 53
0001
3001
0110
1000
,  // measure 54
0100
0001
0110
0001
,  // measure 55
0100
1000
0110
0001
,  // measure 56
1001
1000
0110
0110
,  // measure 57
1001
1001
0100
1100
,  // measure 58
0001
1000
0000
0001
0000
0100
0001
0100
,  // measure 59
0001
1000
0100
1000
0100
0000
0011
0000
,  // measure 60
1000
0001
0000
1000
0000
0100
1000
0100
,  // measure 61
1000
0001
0100
0001
0100
0000
0101
0000
,  // measure 62
1000
1100
0001
0101
,  // measure 63
1000
1100
0001
0100
,  // measure 64
1000
0100
0001
1100
,  // measure 65
1000
0000
0001
0011
,  // measure 66
1000
0001
0000
1000
0000
0100
1000
0100
,  // measure 67
1000
0001
0100
0001
0100
0000
1100
0000
,  // measure 68
0001
1000
0000
0001
0000
0100
0001
0100
,  // measure 69
0001
1000
0100
1000
0100
0000
1100
0000
,  // measure 70
0001
0101
1000
1100
,  // measure 71
0001
0101
1000
0100
,  // measure 72
0001
0100
1000
0101
,  // measure 73
0001
0000
2000
0000
,  // measure 74
3200
0000
0302
0000
,  // measure 75
0203
0000
0000
0000
1300
0001
1000
0000
,  // measure 76
0100
1000
0000
0101
0000
0000
0000
0000
;

//---------------dance-single - ----------------
#NOTES:
     dance-single:
     :
     Hard:
     8:
     0.558,0.510,0.438,0.111,0.115: // measure 1
1000
0100
0001
0100
,  // measure 2
1000
0001
0010
1000
,  // measure 3
0010
0100
0000
0110
0000
0000
1001
0000
,  // measure 4
0100
0010
0000
0110
0000
0000
0000
0000
,  // measure 5
1001
0000
0000
1000
0000
0001
0100
0000
0000
0001
0000
1000
,  // measure 6
0100
1100
0101
2002
,  // measure 7
0000
3003
1001
0000
,  // measure 8
1100
0000
0011
0000
,  // measure 9
1100
0000
1001
0000
,  // measure 10
1001
0000
0110
1100
,  // measure 11
0110
0000
0000
0000
1001
0000
0000
0000
0100
0000
0001
0000
1000
0000
0000
1000
,  // measure 12
0000
0000
0010
0000
0010
0000
0000
0100
0000
0000
0001
0000
0001
0000
0000
1000
,  // measure 13
0000
0000
0001
0000
0001
0000
0000
0000
0100
0000
0001
0000
1000
0000
0000
1000
,  // measure 14
0000
0000
0100
0000
0100
0000
0000
0010
0000
0000
0001
0000
0001
0000
0000
1000
,  // measure 15
0000
0001
0001
0000
0110
0000
1001
0000
,  // measure 16
0001
1000
0001
0000
0100
0001
1000
0000
,  // measure 17
0010
0010
0110
0000
0110
0000
1001
0000
,  // measure 18
1000
0001
1000
0000
0100
1000
0001
0000
,  // measure 19
0100
0100
0110
0000
0110
0000
1001
0000
,  // measure 20
0001
1000
0001
0000
0010
0001
1000
0000
,  // measure 21
0100
0100
0110
0000
0110
0000
1001
0000
,  // measure 22
1000
0001
1000
0000
1000
0000
0000
0000
,  // measure 23
0010
0000
0010
0000
0110
0000
0000
0000
0100
0000
0001
0000
1000
0000
0000
0001
,  // measure 24
0000
0000
0100
0000
0100
0000
0000
0010
0000
0000
1000
0000
1000
0000
0000
0010
,  // measure 25
0000
0000
0100
0000
0100
0000
0000
0000
0010
0000
1000
0000
0001
0000
0000
0100
,  // measure 26
0000
0000
0001
0000
0001
0000
0000
1000
0000
0000
0100
0000
0100
0000
0000
0010
,  // measure 27
0000
0100
0100
0000
0101
0000
1100
0000
,  // measure 28
0001
1000
0001
0000
0100
0001
1000
1000
,  // measure 29
0010
0100
0110
0000
1100
0000
0101
0000
,  // measure 30
1000
0001
1000
0000
0100
1000
0001
0001
,  // measure 31
0100
0010
0110
0000
0101
0000
1100
0000
,  // measure 32
0001
1000
0001
0000
0010
0001
1000
1000
,  // measure 33
0010
0100
0110
0000
1100
0000
0101
0000
,  // measure 34
1000
0001
1000
0000
0100
0010
0001
0100
,  // measure 35
1000
0000
0100
0000
0001
0000
1000
0000
0100
0000
0010
0000
0001
0000
0000
0200
,  // measure 36
0000
0000
0001
0000
0301
0000
0000
2000
0000
0000
0100
0000
3100
0000
0000
0002
,  // measure 37
0000
0000
1000
0000
1003
0000
0000
0000
0010
0000
0100
0000
1000
0000
0000
0020
,  // measure 38
0000
0000
1000
0000
1030
0000
0000
0002
0000
0000
0010
0000
0013
0000
0000
1000
,  // measure 39
0000
0001
1000
0000
0001
0000
0000
0000
0100
0000
0001
0000
0200
0000
0000
0000
,  // measure 40
0301
0000
1000
0100
0010
0001
0100
0001
,  // measure 41
0010
0001
0100
0000
0010
1000
0020
0000
,  // measure 42
1000
0000
1030
0000
0001
0100
0010
0000
,  // measure 43
1000
0001
1000
0000
0010
1000
0020
0000
,  // measure 44
1030
0000
0001
0010
0100
1000
0010
1000
,  // measure 45
0100
1000
0010
0000
0100
0001
0200
0000
,  // measure 46
0001
0000
0301
0000
1000
0010
0100
0000
,  // measure 47
0001
1000
0001
0000
0010
0001
0020
0000
,  // measure 48
0100
0000
0001
0000
0130
0000
1000
0100
,  // measure 49
1000
0001
0010
0000
0100
1000
0200
0000
,  // measure 50
0010
0000
1000
0000
0310
0000
0001
0010
,  // measure 51
0001
1000
0010
0000
0100
0001
0200
0000
,  // measure 52
0010
0000
0001
0000
0310
0000
1000
0010
,  // measure 53
1000
0001
0100
0000
0010
1000
0010
1000
,  // measure 54
0010
1000
0010
1000
0100
0001
0100
0001
,  // measure 55
0100
0001
0100
0001
0100
0010
0100
0010
,  // measure 56
1000
0001
1000
0001
1000
0100
0010
0001
,  // measure 57
1000
0010
0100
0001
1000
0000
1001
0000
,  // measure 58
0010
0100
0000
0110
0000
1000
0010
0100
,  // measure 59
0001
0100
1000
0100
0001
0000
1001
0000
,  // measure 60
0010
0100
0000
0110
0000
0001
0010
0100
,  // measure 61
1000
0100
0001
0100
1000
0000
1100
0000
,  // measure 62
0001
0100
0010
1000
0001
0000
0011
0000
,  // measure 63
1000
0010
0100
0001
1000
0001
1000
0001
,  // measure 64
1000
0001
1000
0001
1000
0000
1001
0000
,  // measure 65
0010
0000
0001
1001
,  // measure 66
0010
0100
0000
0110
0000
0001
0010
0100
,  // measure 67
1000
0100
0001
0100
1000
0000
1001
0000
,  // measure 68
0100
0010
0000
0110
0000
1000
0010
0100
,  // measure 69
0001
0100
1000
0100
0001
0000
0101
0000
,  // measure 70
1000
0010
0100
0001
1000
0000
1100
0000
,  // measure 71
0001
0100
0010
1000
0001
1000
0001
1000
,  // measure 72
0001
1000
0001
1000
0001
0000
1001
0000
,  // measure 73
0100
0000
0000
0000
0000
0000
1000
0000
0010
0000
0100
0000
,  // measure 74
0001
0000
0100
0000
0010
0000
0100
0000
0001
0000
0010
0000
,  // measure 75
0100
0000
1000
0000
0001
0000
1000
0000
0000
0000
0000
0000
,  // measure 76
0010
0100
0000
0110
0000
0000
0000
0000
;

//---------------dance-single - ----------------
#NOTES:
     dance-single:
     :
     Challenge:
     9:
     0.692,0.664,0.573,0.239,0.267: // measure 1
0102
1003
2100
3001
,  // measure 2
0101
0101
1010
1010
,  // measure 3
0001
0100
0000
1100
0000
0000
1001
0000
,  // measure 4
0001
0000
0100
0000
0000
0000
1100
0000
0000
0000
0001
1000
0001
1000
0001
1000
,  // measure 5
0001
0000
0000
0100
0000
0001
0100
0000
0000
0010
0000
1000
,  // measure 6
0010
0110
1001
2002
,  // measure 7
0000
3003
1001
0100
,  // measure 8
0101
0000
1001
0010
,  // measure 9
1010
0000
1001
0000
,  // measure 10
0110
0000
0000
0000
0001
0010
0100
1000
,  // measure 11
0001
0000
0000
0000
1001
0000
0000
0000
0100
0000
0001
0000
0100
0000
0001
2000
,  // measure 12
0000
0000
0100
0000
3100
0000
0000
0020
0000
0000
0100
0000
0130
0000
0000
0002
,  // measure 13
0000
0000
1000
0000
1003
0000
0000
0000
0010
0000
1000
0000
0010
0000
1000
0002
,  // measure 14
0000
0000
0010
0000
0013
0000
0000
0200
0000
0000
0010
0000
0310
0000
0000
2000
,  // measure 15
0000
0001
3001
0000
0101
0000
1001
0000
,  // measure 16
0100
1000
0100
1000
0001
0100
0101
1000
,  // measure 17
0100
1000
0100
0000
1100
0000
0000
0000
1100
0000
0000
0000
1001
0000
0000
0000
,  // measure 18
0100
0001
0100
0001
1000
1000
0001
0001
,  // measure 19
0100
0010
0100
0000
0110
0000
0000
0000
1100
0000
0000
0000
1001
0000
0000
0000
,  // measure 20
0010
0001
0010
0000
1000
0010
1010
0001
,  // measure 21
0010
0001
0010
0000
0011
0000
0000
0000
1010
0000
0000
0000
1001
0000
0000
0000
,  // measure 22
0001
0100
0010
0000
1100
0000
0000
0000
,  // measure 23
0010
0100
0010
0000
0110
0000
0000
0000
1000
0000
0001
0000
0100
0001
0100
0002
,  // measure 24
0000
0000
1000
0000
1003
0000
0000
0020
0000
0000
1000
0000
1030
0000
0000
0200
,  // measure 25
0000
0000
0001
0000
0301
0000
0000
0000
0001
0000
1000
0000
0010
1000
0010
2000
,  // measure 26
0000
0000
0001
0000
3001
0000
0000
0200
0000
0000
0001
0000
0301
0000
0000
0020
,  // measure 27
0000
1000
1030
0000
1010
0000
1001
0000
,  // measure 28
0001
1000
0010
0000
0001
0010
0011
1000
,  // measure 29
0010
1000
0010
0000
1010
0000
0000
0000
0011
0000
0000
0000
1001
0000
0000
0000
,  // measure 30
0010
0001
1000
0100
1000
1000
0001
0001
,  // measure 31
0100
0010
0100
0000
0110
0000
0000
0000
0101
0000
0000
0000
1001
0000
0000
0000
,  // measure 32
0100
0001
0100
0000
1000
0100
1100
0001
,  // measure 33
0100
0001
0100
0000
0101
0000
0000
0000
1100
0000
0000
0000
1001
0000
0000
0000
,  // measure 34
0001
0000
1000
0000
0100
0000
0010
0000
0001
0100
0001
0000
1000
0100
1000
0000
,  // measure 35
0001
0010
0100
1000
0010
0100
0010
0000
1000
0000
0010
1000
0010
1000
0001
0020
,  // measure 36
0000
0000
0001
0000
0031
0000
0000
0200
0000
0000
0010
0000
0310
0000
0000
2000
,  // measure 37
0000
0000
0001
0000
3001
0000
0000
0000
0001
0000
0100
0001
0100
0001
1000
0200
,  // measure 38
0000
0000
1000
0000
1300
0000
0000
0101
0000
0000
1000
0000
0100
0000
0000
1000
,  // measure 39
0000
0001
0100
0000
0101
0000
0000
0000
2100
0000
0000
0000
0001
0000
0000
0000
,  // measure 40
3001
0100
0010
1000
0100
0001
0100
1000
,  // measure 41
0001
0000
0100
0000
0010
1000
0010
1000
0010
0000
0000
0000
0012
0000
0000
0000
,  // measure 42
1000
0000
1003
0010
0100
0001
0100
1000
,  // measure 43
0001
0100
0010
1000
1001
0000
0012
0000
,  // measure 44
1000
0000
1003
0010
0100
0001
0100
0001
,  // measure 45
1000
0000
0010
0000
1000
0010
1000
0010
1000
0000
0000
0000
2100
0000
0000
0000
,  // measure 46
0001
0000
3001
0100
0010
1000
0010
1000
,  // measure 47
0001
0100
0010
0000
1000
0010
0100
0001
,  // measure 48
1000
0010
0100
0001
0100
1000
1100
0000
,  // measure 49
0101
0000
1001
0000
0001
0100
0010
1000
,  // measure 50
0001
0100
0010
1000
0100
0001
0101
0000
,  // measure 51
1100
0000
1001
0000
1000
0100
0010
0001
,  // measure 52
1000
0100
0010
0001
0100
1000
0100
0001
,  // measure 53
0101
0000
1100
0000
0001
0100
0010
1000
,  // measure 54
0100
0010
0100
1000
0001
0100
0010
1000
,  // measure 55
0100
0010
0100
1000
0001
0010
0100
1000
,  // measure 56
0100
0001
0100
1000
0100
0010
0001
1000
,  // measure 57
0100
0000
0010
0000
0001
0000
1000
0000
0010
0000
0100
0001
0100
0000
0000
0000
,  // measure 58
0001
0100
0000
2100
0000
3001
0100
0001
,  // measure 59
1000
0000
0100
0000
0001
0000
0100
0000
0010
1000
0010
1000
0010
0000
0000
0000
,  // measure 60
1000
0100
0000
0102
0000
1003
0100
1000
,  // measure 61
0001
0100
1000
0100
0010
0001
0010
0001
,  // measure 62
1000
0010
1000
0010
0100
0001
0100
0001
,  // measure 63
1000
0100
1000
0100
0001
0100
0010
1000
,  // measure 64
0100
0000
0010
0000
0001
0000
1000
0000
0010
0100
0010
0100
0010
0000
0000
0000
,  // measure 65
1002
0000
0000
0000
0000
0000
0000
0000
1003
0000
0010
1000
0010
0000
0000
0000
,  // measure 66
1000
0100
0000
0102
0000
1003
0100
1000
,  // measure 67
0001
0000
0100
0000
1000
0000
0100
0000
0010
0001
0010
0001
0010
0000
0000
0000
,  // measure 68
0001
0100
0000
2100
0000
3001
0100
0001
,  // measure 69
1000
0100
0001
0100
0010
1000
0010
1000
,  // measure 70
0001
0010
0001
0010
0100
1000
0100
1000
,  // measure 71
0001
0100
0001
0100
1000
0100
0010
0001
,  // measure 72
0100
0000
0010
0000
1000
0000
0001
0000
0100
0010
0100
0010
0100
0000
0000
0000
,  // measure 73
2001
0000
0000
0000
0000
0000
3001
0000
0100
0000
0100
0000
,  // measure 74
0101
0000
1000
0000
0001
0000
1001
0000
0010
0000
0010
0000
,  // measure 75
1010
0000
0000
0000
0000
0000
0000
0000
0001
0000
0000
0000
0000
0000
0000
0000
1000
0000
0000
0000
0000
0000
0000
0000
0010
0000
0000
0100
0000
0000
0010
0000
0000
0100
0000
0000
0010
0000
0000
0000
0000
0000
0000
0000
0000
0000
0000
0000
,  // measure 76
1000
0000
0100
0000
0000
0000
0101
0000
0000
0000
0000
0000
0000
1000
0000
0000
;

//---------------dance-single - ----------------
#NOTES:
     dance-single:
     :
     Beginner:
     1:
     0.074,0.149,0.072,0.000,0.000: // measure 1
0000
0000
0000
0000
,  // measure 2
0000
0000
0000
0000
,  // measure 3
1001
0000
0000
0000
,  // measure 4
1001
0000
0000
0000
,  // measure 5
0000
0000
1000
0000
,  // measure 6
0000
0000
0001
0000
,  // measure 7
0000
0000
0000
0000
,  // measure 8
1001
0000
0000
0000
,  // measure 9
1001
0000
0000
0000
,  // measure 10
0000
0000
0000
0000
,  // measure 11
0000
0000
0001
0000
,  // measure 12
0000
0000
0000
0000
,  // measure 13
0000
0000
1000
0000
,  // measure 14
0000
0000
0000
0000
,  // measure 15
0000
0000
0001
0000
,  // measure 16
0000
0000
0001
0000
,  // measure 17
0000
0000
1000
0000
,  // measure 18
0000
0000
1000
0000
,  // measure 19
0000
0000
0001
0000
,  // measure 20
0000
0000
0001
0000
,  // measure 21
0000
0000
1000
0000
,  // measure 22
0000
0000
1000
0000
,  // measure 23
0000
0000
0010
0000
,  // measure 24
0000
0000
0000
0000
,  // measure 25
0000
0000
0100
0000
,  // measure 26
0000
0000
0000
0000
,  // measure 27
0000
0000
0001
0000
,  // measure 28
0000
0000
0001
0000
,  // measure 29
0000
0000
1000
0000
,  // measure 30
0000
0000
1000
0000
,  // measure 31
0000
0000
0001
0000
,  // measure 32
0000
0000
0001
0000
,  // measure 33
0000
0000
0100
0000
,  // measure 34
0000
0000
0010
0000
,  // measure 35
0000
0000
1000
0000
,  // measure 36
0000
0000
0000
0000
,  // measure 37
0000
0000
0001
0000
,  // measure 38
0000
0000
1000
0000
,  // measure 39
0000
0000
1000
0000
,  // measure 40
0000
0000
0000
0000
,  // measure 41
0000
0000
0001
0000
,  // measure 42
0000
0000
0000
0000
,  // measure 43
0000
0000
1000
0000
,  // measure 44
0000
0000
0000
0000
,  // measure 45
0000
0000
0001
0000
,  // measure 46
0000
0000
0000
0000
,  // measure 47
0000
0000
1000
0000
,  // measure 48
0000
0000
0000
0000
,  // measure 49
0000
0000
1000
0000
,  // measure 50
0000
0000
0000
0000
,  // measure 51
0000
0000
0001
0000
,  // measure 52
0000
0000
0000
0000
,  // measure 53
0000
0000
0001
0000
,  // measure 54
0000
0000
0010
0000
,  // measure 55
0000
0000
0100
0000
,  // measure 56
0000
0000
1000
0000
,  // measure 57
0000
0000
0000
1001
,  // measure 58
0000
0000
0000
0000
,  // measure 59
0000
0000
0000
1001
,  // measure 60
0000
0000
0000
0000
,  // measure 61
0000
0000
0001
0000
,  // measure 62
0000
0000
1000
0000
,  // measure 63
0000
0000
0001
0000
,  // measure 64
0000
0000
0000
0000
,  // measure 65
1001
0000
0000
0000
,  // measure 66
1000
0000
0000
0000
,  // measure 67
1001
0000
0000
0000
,  // measure 68
0001
0000
0000
0000
,  // measure 69
0000
0000
1000
0000
,  // measure 70
0000
0000
0100
0000
,  // measure 71
0000
0000
0010
0000
,  // measure 72
0000
0000
0000
0000
,  // measure 73
1001
0000
0000
0000
,  // measure 74
0001
0000
0000
0000
,  // measure 75
1000
0000
0000
0000
,  // measure 76
0001
0000
0000
0000
;
